#TITLE:Another Planet;
#SUBTITLE:;
#ARTIST:Pendulum;
#TITLETRANSLIT:;
#SUBTITLETRANSLIT:;
#ARTISTTRANSLIT:;
#GENRE:;
#CREDIT:;
#BANNER:planet.png;
#BACKGROUND:planet-bg.png;
#LYRICSPATH:;
#CDTITLE:cdtitle.png;
#MUSIC:Another Planet.ogg;
#OFFSET:0.820;
#SAMPLESTART:100.405;
#SAMPLELENGTH:18.450;
#SELECTABLE:YES;
#BPMS:0.000=173.020,28.000=346.040,36.000=86.510,37.500=-173.021,46.500=173.020,88.000=86.510,89.313=-86.510,98.313=86.510,107.313=86.490,107.375=86.510,108.000=173.020,132.000=86.510,134.000=173.020,166.000=86.510,167.313=-86.510,176.313=86.510,186.000=173.020,214.063=-173.020,222.063=173.020,230.188=-173.020,238.188=173.020,262.000=174.821,262.333=173.020,262.667=174.820,263.000=173.020,265.375=174.820,265.667=173.021,266.063=174.821,266.333=173.020,268.688=174.820,269.000=173.021,269.375=174.820,269.667=173.021,292.063=174.821,292.333=173.021,292.688=174.820,293.000=173.020,295.375=174.821,295.667=173.021,296.063=174.821,296.333=173.020,298.688=174.820,299.000=173.021,299.375=174.821,299.667=173.021,305.750=-173.020,313.750=173.020,325.750=-173.020,333.750=173.020,345.750=-173.020,353.750=173.020,365.750=-173.020,373.750=173.020,385.750=-173.020,393.750=173.020,405.750=-173.020,413.750=173.020,425.750=-173.020,433.750=173.020,445.750=-173.020,453.750=173.025,465.750=-173.025,473.750=173.025,485.750=-173.025,493.750=173.025,505.750=-173.025,513.750=173.025,525.750=-173.025,533.750=173.025,550.000=346.041,566.000=86.508,566.125=-86.512,575.625=86.508,586.000=173.025,614.000=86.512,615.313=-86.508,624.313=86.512,634.000=173.025,658.000=86.512,660.000=173.025,692.000=86.512,693.313=-86.508,710.313=86.532,710.375=86.512,728.000=173.025;
#STOPS:55.500=0.155
,214.000=1.050
,251.000=0.173
,252.500=0.173
,262.000=0.116
,262.667=0.116
,265.375=0.116
,266.063=0.116
,268.688=0.116
,269.375=0.116
,292.063=0.120
,292.688=0.120
,295.375=0.120
,296.063=0.120
,298.688=0.120
,299.375=0.120
,566.000=0.685
;
#SCROLLS:0.000=1.000;
#TIMESIGNATURES:0.000=4=4;
#BGCHANGES:;
#KEYSOUNDS:;

//---------------dance-single - Geriatric Patrick----------------
#NOTES:
     dance-single:
     Geriatric Patrick:
     Easy:
     6:
     0.413,0.849,0.145,0.284,0.059:
0000
0000
0000
0000
,
0000
0000
0000
0000
,
0000
0000
0000
0000
,
0000
0000
0000
0000
,
0000
0000
0000
0000
,
1000
1000
0001
0001
,
1000
1000
0001
0001
,
1MM0
1000
0001
0001
,
1000
1000
0001
0001
,
2000
0000
0000
3000
0MM0
0000
0M00
0000
,
0M00
0M00
0000
0000
,
0000
0000
0000
0000
,
0000
0000
0000
0000
,
0000
0000
0000
0000
,
0110
0100
0100
0100
,
0101
0001
0001
0001
,
1001
1000
1000
1000
,
1010
0010
0100
0010
,
0110
1000
0100
1000
,
1100
0001
0010
0001
,
0011
1000
0001
1000
,
1001
0010
0100
1000
,
1000
0000
0000
0000
000M
0000
0000
0M00
,
0000
0000
0000
0000
,
0000
0000
0000
0000
,
0000
0000
0000
0000
,
0000
0000
0000
0000
,
0002
0000
0000
0203
0000
0000
0000
0000
,
2300
0000
3200
0000
,
0320
0000
0000
2030
0000
0000
3100
0000
,
0001
0100
0010
0100
,
0001
0001
0010
0010
,
0001
0001
0100
0010
,
2000
0000
0000
0000
3001
0010
0100
1000
,
0000
0001
1001
0MM0
,
0000
0000
0MM0
0000
0100
0000
0100
0001
,
0000
0000
1000
0010
0100
0000
0000
0000
,
0001
1000
0100
0000
1000
0001
0010
0100
,
0000
0010
0110
M00M
,
0000
0000
M00M
0000
0100
0000
0100
1000
,
0000
0000
0001
0010
0100
0000
0100
1000
,
0001
0010
0001
1000
0100
0000
0000
0000
,
M000
0000
0000
0100
0000
0000
0000
0000
,
0000
0000
0000
0000
,
0000
0000
0000
0000
,
0000
0000
0000
0000
,
0000
0000
0000
0000
2000
0000
0000
3200
,
0000
0000
0302
0000
,
0203
0000
0000
0000
0320
0000
0000
0032
,
0000
0103
1000
0100
,
0010
0100
1000
1000
,
0010
0010
1000
1000
,
0100
0010
0001
0001
,
1000
1000
0000
000M
,
MM00
00M0
MM00
0000
,
0000
0000
0000
0000
,
0000
0000
0000
0000
,
0000
0000
0000
0000
,
0000
0000
0000
0000
,
0000
0000
0000
0000
,
0000
0000
0000
0000
,
0000
0000
0000
0001
,
1100
0000
0010
0000
1100
0000
0001
0101
,
0000
1000
1100
0000
0001
0000
0100
0000
,
0010
0100
1000
0001
,
1000
0000
0000
0001
0000
0000
0100
0000
0100
0000
0001
0000
,
0000
1000
0000
0000
0100
0000
0100
0000
1000
0000
0000
0001
,
0000
0000
0100
0000
0100
0000
0010
0000
0000
1000
0000
0000
,
0001
1001
1000
0100
,
0011
0100
1000
0100
,
0001
0010
0100
1000
,
0100
0001
0120
0000
,
0031
0001
1000
1000
,
0100
0000
0010
0000
0001
0000
0000
0001
0000
0000
0100
0000
,
0010
0000
1000
0000
0000
1000
0000
0000
0001
0000
0010
0000
,
0001
0001
2000
0001
,
0000
0001
30M0
M000
,
0000
0000
0000
0000
,
0000
0000
0000
0000
,
0000
0000
0000
0000
,
0000
0000
0020
1000
,
0000
1000
0M30
00M0
,
0000
0000
0000
0000
,
0000
0000
0000
0000
,
0000
0000
0000
0000
,
0000
0000
0200
0010
,
0000
0010
030M
0M00
,
0000
0000
0000
0000
,
0000
0000
0000
0000
,
0000
0000
0000
0000
,
0000
0000
0002
0100
,
0000
0M00
M003
00M0
,
0000
0000
0000
0000
,
0000
0000
0000
0000
,
0000
0000
0000
0000
,
0000
0000
2000
0010
,
0000
0010
3M00
M000
,
0000
0000
0000
0000
,
0000
0000
0000
0000
,
0000
0000
0000
0000
,
0000
0000
0200
1000
,
0000
1000
03M0
0M00
,
0000
0000
0000
0000
,
0000
0000
0000
0000
,
0000
0000
0000
0000
,
0000
0000
0020
0100
,
0000
0100
003M
00M0
,
0000
0000
0000
0000
,
0000
0000
0000
0000
,
0000
0000
0000
0000
,
0000
0000
0002
0010
,
0000
0010
0M03
M000
,
0000
0000
0000
0000
,
0000
0000
0000
0000
,
0000
0000
0000
0000
,
0000
0000
0200
1000
,
0000
1000
030M
0M00
,
0000
0000
0000
0000
,
0000
0000
0000
0000
,
0000
0000
0000
0000
,
0000
0000
0002
0100
,
0000
0100
M003
000M
,
0000
0000
0000
0000
,
0000
0000
0000
0000
,
0000
0000
0000
0000
,
0000
0000
2000
0001
,
0000
0001
30M0
M000
,
0000
0000
0000
0000
,
0000
0000
0000
0000
,
0000
0000
0000
0000
,
0000
0000
0020
1000
,
0000
M000
0M30
0M00
,
00M0
00M0
0000
0000
,
0000
0000
0000
0000
,
0000
0000
0000
0000
,
0000
0000
0100
0100
,
0010
0010
0100
0100
,
0010
0010
M10M
0100
,
0010
0010
0100
0100
,
0010
0010
0100
0100
,
0010
0010
0100
0020
,
0000
0000
0030
0MM0
,
0000
0000
0000
0000
,
0000
0000
0000
0000
,
0000
0000
0000
0000
,
0000
0000
0000
0000
,
0000
0000
0110
M00M
,
0000
0000
M00M
0000
0100
0000
0100
1000
,
0000
0000
0001
0010
0100
0000
0000
0000
,
0010
0001
0100
0000
1000
0100
0010
0001
,
0000
1000
1001
0MM0
,
0000
0000
0MM0
0000
0100
0000
0100
1000
,
0000
0000
0001
0010
0100
0000
0010
0001
,
1000
0010
1000
0001
0100
0000
0000
0000
,
000M
0000
0000
0M00
0000
0000
0000
0000
,
0000
0000
0000
0000
,
0000
0000
0000
0000
,
0000
0000
0000
0000
,
0000
0000
0000
0000
0002
0000
0000
0203
,
0000
0000
2300
0000
,
3200
0000
0000
0000
0320
0000
0000
2030
,
0000
3100
0001
0100
,
0010
0100
0001
0001
,
0010
0010
0001
0001
,
0100
0010
2000
0000
,
3001
0010
0100
1000
0000
0000
0001
0000
,
1001
0MM0
0000
0MM0
,
0100
0000
0100
0001
0000
0000
0001
0100
,
0010
0000
0000
0010
0000
0000
0010
0000
1000
0000
0001
0000
1000
0000
0001
0000
,
0100
0001
0010
0100
0000
0000
0001
0000
,
0101
M0M0
0000
M0M0
,
0010
0100
0010
0100
0000
0000
0001
0010
,
0100
1000
0100
1000
0100
0010
0001
0100
,
1000
0000
0000
0000
M000
0000
0000
0M00
,
0000
0000
0000
0000
,
0000
0000
0000
0000
,
0000
0000
0000
0000
,
0000
0000
0000
0000
,
0000
0000
0000
0000
,
0000
0000
0000
0000
,
0000
0000
0000
0000
,
0000
0000
0000
0000
,
2000
0000
0000
3200
0000
0000
0000
0000
,
0302
0000
0203
0000
,
0320
0000
0000
0032
0000
0000
0103
0000
,
1000
0100
0010
0100
,
1000
1000
0010
0010
,
1000
1000
0100
0010
,
0001
0001
1000
0000
0001
0001
1000
0000
;

//---------------dance-single - Geriatric Patrick----------------
#NOTES:
     dance-single:
     Geriatric Patrick:
     Medium:
     8:
     0.542,1.000,0.118,0.270,0.294:
0000
0000
0000
0000
,
0000
0000
0000
0000
,
0000
0000
0000
0000
,
0000
0000
0000
0000
,
0000
0000
0000
0000
,
1000
0100
1000
0100
0010
0100
0010
0100
,
1000
0001
1000
0001
0010
0001
0010
0001
,
40M0
0400
0000
0000
0000
0000
0000
3000
,
0340
0400
0000
0000
0000
0000
0000
0030
,
1300
0000
0000
0000
0MM0
0000
000M
0M00
,
00M0
0000
0000
0000
,
0000
0000
0000
0000
,
0000
0000
0000
0000
,
0000
0000
0000
0000
,
0110
0000
0001
0100
0010
0100
0001
0000
,
1000
1000
0001
0100
0010
0100
0001
0000
,
1001
0000
0010
0001
0100
0001
1000
0000
,
0001
0001
0010
0001
1000
0000
0110
0000
,
1MM1
0000
0010
0100
1000
1000
0010
0100
,
0010
0000
1000
0100
0010
0010
0100
0000
,
1100
0000
0001
0100
1000
0100
0001
1000
,
0100
0000
1000
0010
0001
0010
1000
0000
,
1001
0000
0000
0000
000M
000M
000M
0M0M
,
0000
0000
0000
0000
,
0000
0000
0000
0000
,
0000
0000
0000
0000
,
0000
0000
0000
0000
,
0002
0000
0000
0203
0000
000M
0000
0000
,
2300
0M00
3200
M000
,
0320
0000
0M00
2030
0000
00M0
3100
0000
,
0001
0100
0001
0100
0010
0100
0010
0100
,
0001
0001
0100
0100
0010
0010
0100
0100
,
0001
0001
1000
0100
0010
0100
0010
0100
,
2000
0000
0000
0000
3001
0010
0100
1000
,
0000
0000
0001
0000
1100
0000
0010
0001
,
0100
0001
0010
0000
0100
0000
1000
0001
,
0000
0000
1000
0010
0100
0000
0100
0000
,
0001
0010
0100
0000
0001
0100
0010
0001
,
0000
0000
0100
0000
1010
0000
0001
1000
,
0100
1000
0010
0000
0001
0000
0001
1000
,
0000
0000
1000
0010
0100
0000
0100
0001
,
0010
1000
0010
0001
0100
0000
0000
0000
,
M000
M000
M000
MM00
0000
0000
0000
0000
,
0000
0000
0000
0000
,
0000
0000
0000
0000
,
0000
0000
0000
0000
,
0000
0000
0000
0000
2000
0000
0000
3200
,
0000
M000
0000
0000
0302
0000
0M00
0000
,
0203
0000
000M
0000
0320
0000
0M00
0032
,
0000
00M0
0103
0000
1000
0100
1000
0100
,
0010
0100
0010
0100
1000
1000
0100
0100
,
0010
0010
0100
0100
1000
1000
0001
0100
,
0010
0100
0010
0100
0001
0001
1000
1000
,
0001
0001
1000
1000
0000
0000
000M
00M0
,
0M00
0000
000M
M000
00M0
0000
0000
0000
,
0000
0000
0000
0000
,
0000
0000
0000
0000
,
0000
0000
0000
0000
,
0000
0000
0000
0000
,
0000
0000
0000
0000
,
0000
0000
0000
0000
,
0000
0000
0000
0000
0000
0000
0000
0000
0000
0001
0000
0010
,
0100
0000
0000
0000
0000
0000
0001
0000
0000
0000
1000
0000
0010
0000
0000
0000
1000
0000
0100
0000
0000
0011
0000
0000
,
0000
0000
0000
0100
0000
0000
1010
0000
0000
0000
0000
0000
0001
0000
0000
0000
1000
0000
0100
0000
0000
0000
1000
0000
,
0010
0100
1000
1000
,
0001
0000
0000
0001
0000
0000
0100
0100
0010
0010
1000
0000
,
0000
0010
0000
0000
0100
0100
0001
0001
0010
0000
0000
0001
,
0000
0000
1000
1000
0001
0001
0100
0000
0000
0010
0000
0000
,
0100
0000
0000
1001
0000
0000
0001
0000
1000
0100
0000
0000
,
0011
0000
0000
0100
0000
0100
1000
0000
1000
0100
0000
0000
,
0001
0000
0001
0010
0000
0010
0100
0000
0100
1000
0000
1000
,
0100
0000
0100
0001
0000
0000
0120
0000
0000
0M00
0M00
0M00
,
0031
0001
1000
1000
,
0100
0100
0010
0010
0001
0000
0000
1000
0000
0000
0001
0001
,
0010
0010
0100
0000
0000
1000
0000
0000
0001
0001
0100
0100
,
0010
0010
0002
1000
,
0000
0000
0000
1000
0000
0000
00M3
00M0
00M0
00MM
00M0
00M0
,
00M0
0000
0000
0000
,
0000
0000
0000
0000
,
0000
0000
0000
0000
,
0000
0000
0020
0001
,
0000
0000
0000
0001
0000
0000
0M30
0M00
0M00
0MM0
0M00
0M00
,
0M00
0000
0000
0000
,
0000
0000
0000
0000
,
0000
0000
0000
0000
,
0000
0000
0200
0010
,
0000
0000
0000
0010
0000
0000
M300
M000
M000
MM00
M000
M000
,
M000
0000
0000
0000
,
0000
0000
0000
0000
,
0000
0000
0000
0000
,
0000
0000
2000
0100
,
0000
0000
0000
0M00
0000
0000
300M
000M
000M
00MM
000M
000M
,
000M
0000
0000
0000
,
0000
0000
0000
0000
,
0000
0000
0000
0000
,
0000
0000
0002
0010
,
0000
0000
0000
0010
0000
0000
0M03
0M00
0M00
0M0M
0M00
0M00
,
0M00
0000
0000
0000
,
0000
0000
0000
0000
,
0000
0000
0000
0000
,
0000
0000
0200
0001
,
0000
0000
0000
0001
0000
0000
03M0
00M0
00M0
0MM0
00M0
00M0
,
00M0
0000
0000
0000
,
0000
0000
0000
0000
,
0000
0000
0000
0000
,
0000
0000
0020
0100
,
0000
0000
0000
0100
0000
0000
M030
M000
M000
M0M0
M000
M000
,
M000
0000
0000
0000
,
0000
0000
0000
0000
,
0000
0000
0000
0000
,
0000
0000
2000
0010
,
0000
0000
0000
0010
0000
0000
3M00
0M00
0M00
0M0M
0M00
0M00
,
0M00
0000
0000
0000
,
0000
0000
0000
0000
,
0000
0000
0000
0000
,
0000
0000
0200
0001
,
0000
0000
0000
0001
0000
0000
M300
M000
M000
MM00
M000
M000
,
M000
0000
0000
0000
,
0000
0000
0000
0000
,
0000
0000
0000
0000
,
0000
0000
2000
0100
,
0000
0000
0000
0100
0000
0000
300M
000M
000M
M00M
000M
000M
,
000M
0000
0000
0000
,
0000
0000
0000
0000
,
0000
0000
0000
0000
,
0000
0000
0002
1000
,
0000
0000
0000
1000
0000
0000
00M3
00M0
00M0
00MM
00M0
00M0
,
00M0
0000
0000
0000
,
0000
0000
0000
0000
,
0000
0000
0000
0000
,
0000
0000
0020
0001
,
0000
0000
000M
0000
0M30
00M0
0M00
00M0
,
000M
00M0
000M
00M0
0000
0000
0000
0000
,
0000
0000
0000
0000
,
0000
0000
0000
0000
,
0000
0000
0000
0000
0100
0010
0100
0010
,
0001
0010
0001
0010
0100
1000
0100
1000
,
0001
1000
0001
1000
040M
0040
0000
0000
,
0000
0000
0000
0300
0034
0040
0000
0000
,
0000
0000
0000
0003
0430
4000
0000
0000
,
0000
0000
0000
0300
3001
0100
0001
0100
,
0000
0000
0000
0MM0
,
00M0
000M
0M00
0000
0000
0000
0000
0000
,
0000
0000
0000
0000
,
0000
0000
0000
0000
,
0000
0000
0000
0000
,
0000
0000
0000
0000
0110
0000
0010
0001
,
0100
0001
1000
0000
0100
0000
0100
0010
,
0000
0000
1000
0010
0100
0000
0100
0000
,
0001
0010
0100
0000
0001
0100
0010
0001
,
0000
0000
0100
0000
1010
0000
0001
1000
,
0100
1000
0001
0000
0100
0000
0001
1000
,
0000
0000
1000
0010
0100
0000
0100
0001
,
0010
1000
0010
0001
1000
0000
0000
0000
,
000M
000M
000M
0M0M
0000
0000
0000
0000
,
0000
0000
0000
0000
,
0000
0000
0000
0000
,
0000
0000
0000
0000
,
0000
0000
0000
0000
0002
0000
0000
0203
,
0000
000M
0000
0000
2300
0000
0M00
0000
,
3200
0000
M000
0000
0320
0000
0M00
2030
,
0000
00M0
3100
0000
0001
0100
0001
0100
,
0010
0100
0010
0100
0001
0001
0100
0100
,
0010
0010
0100
0100
0001
0001
1000
0100
,
0010
0100
0010
0100
2000
0000
0000
0000
,
3001
0010
0100
1000
0000
0000
0001
0000
,
1100
0000
0010
0001
0100
0001
0010
0000
,
0100
0000
1000
0001
0000
0000
1000
0010
,
0100
0000
0000
0100
0000
0000
0100
0000
0001
0000
0010
0000
0001
0000
0100
0000
,
1000
0001
0010
0100
0000
0000
1000
0000
,
0011
0000
0100
1000
0100
0001
0100
0000
,
0010
0010
0100
0100
0000
0000
1000
0100
,
0001
0100
0001
0100
1000
0010
0100
0001
,
0100
0000
0000
0000
M000
M000
M000
MM00
,
0000
0000
0000
0000
,
0000
0000
0000
0000
,
0000
0000
0000
0000
,
0000
0000
0000
0000
,
0000
0000
0000
0000
,
0000
0000
0000
0000
,
0000
0000
0000
0000
,
0000
0000
0000
0000
,
2000
0000
0000
3200
0000
M000
0000
0000
,
0302
0M00
0203
000M
,
0320
0000
0M00
0032
0000
00M0
0103
0000
,
1000
0100
1000
0100
0010
0100
0010
0100
,
1000
1000
0100
0100
0010
0010
0100
0100
,
1000
1000
0001
0100
0010
0100
0010
0100
,
0001
0000
0001
0000
1000
0000
0000
0000
0001
0100
0001
0000
1000
0000
0000
0000
;

//---------------dance-single - Geriatric Patrick----------------
#NOTES:
     dance-single:
     Geriatric Patrick:
     Hard:
     9:
     0.627,1.000,0.125,0.291,0.488:
0000
0000
0000
0000
,
0000
0000
0000
0000
,
0000
0000
0000
0000
,
0000
0000
0000
0000
,
0000
0000
0000
0000
,
1000
0100
1000
0100
0010
0100
0010
0100
,
1000
0001
1000
0001
0010
0001
0010
0001
,
M010
0100
0010
0100
0010
0100
0010
0100
,
1000
0001
1000
0001
1000
0001
1000
0001
,
0200
0000
0000
0000
03M0
00M0
M000
000M
,
0M00
0000
0000
0000
,
0000
0000
0000
0000
,
0000
0000
0000
0000
,
0000
0000
0000
0000
,
0010
0000
0010
0000
1000
0000
0001
0000
0100
0010
0100
0000
0001
0000
0000
0000
,
1000
0000
1000
0000
0001
0000
0100
0000
0010
0001
0010
0000
0100
0000
0000
0000
,
0101
0000
0000
0000
0010
0000
0100
0000
1000
0100
1000
0000
0010
0000
0000
0000
,
0100
0100
0010
1000
1001
0000
M11M
0000
,
1MM1
0000
0000
0000
0010
0000
0100
0000
1000
0001
1000
0000
0010
0000
0000
0000
,
1000
0000
0100
0000
0010
0000
0100
0000
1000
0001
1000
0000
0010
0000
0000
0000
,
0101
0000
0000
0000
0010
0000
0100
0000
1000
0100
1000
0000
0001
0000
0000
0000
,
0100
0000
0001
0000
0010
0000
0100
0000
1000
0100
1000
0000
0001
0000
0000
0000
,
0100
0000
000M
00M0
0M00
M000
0M00
00M0
000M
0000
0000
0000
0000
0000
0M00
0000
,
0000
0000
0000
0000
,
0000
0000
0000
0000
,
0000
0000
0000
0000
,
0000
0000
0000
0000
,
M002
0000
0000
0203
0000
000M
0000
0000
,
2300
0M00
3200
M000
,
0320
0000
0M00
2030
0000
00M0
3100
0000
,
0001
0100
0001
0100
0010
0100
0010
0100
,
0001
0001
0100
0100
0010
0010
0100
0100
,
0001
0001
1000
0100
0010
0100
0010
0100
,
2000
0000
0000
0000
3001
0010
0100
1000
,
0000
0000
0001
0000
1100
0000
0010
0001
,
0100
0001
0100
0000
0010
0000
0000
0000
0100
0000
0000
0000
1000
0000
0001
0000
,
0000
000M
1000
0010
0100
0000
0100
0000
,
0001
0010
0100
0000
0001
0100
0010
0001
,
0000
0000
0100
0000
1010
0000
0001
1000
,
0100
0010
0100
0000
0010
0000
0000
0000
0001
0000
0000
0000
0001
0000
1000
0000
,
0000
M000
1000
0010
0100
0000
0100
0001
,
0010
0000
1000
0000
0010
0000
0001
0000
0100
0000
M000
0M00
00M0
000M
00M0
0M00
,
M000
0000
0000
0M00
0000
0000
0000
0000
,
0000
0000
0000
0000
,
0000
0000
0000
0000
,
0000
0000
0000
0000
,
0000
0000
0000
0000
200M
0000
0000
3200
,
0000
M000
0000
0000
0302
0000
0M00
0000
,
0203
0000
000M
0000
0320
0000
0M00
0032
,
0000
00M0
0103
0000
1000
0100
1000
0100
,
0010
0100
0010
0100
1000
1000
0100
0100
,
0010
0010
0100
0100
1000
1000
0001
0100
,
0010
0100
0010
0100
0001
0001
1000
1000
,
0001
0001
1000
1000
0000
0000
000M
00M0
,
0M00
0000
000M
M000
00M0
0000
0000
0000
,
0000
0000
0000
0000
,
0000
0000
0000
0000
,
0000
0000
0000
0000
,
0000
0000
0000
0000
,
0000
0000
0000
0000
,
0000
0000
0000
0000
,
0000
0000
0000
0000
0000
0000
0000
0000
0000
0001
0000
0010
,
0100
0000
0000
0000
0000
0000
0001
0000
0000
0000
1000
0000
0010
0000
0000
0000
1000
0000
0100
0000
0000
0011
0000
0000
,
0000
0000
0000
0100
0000
0000
1010
0000
0000
0000
0000
0000
0001
0000
0000
0000
1000
0000
0100
0000
0000
0000
1000
0000
,
0010
0000
0000
0100
0000
0000
1000
0001
1000
0001
1000
0001
,
0010
0001
0010
0001
0010
0001
1000
1000
0010
0010
1000
0001
,
1000
0001
0000
0001
0100
0100
0010
0010
1000
0001
1000
0001
,
0000
0001
0010
0010
0100
0100
1000
0001
1000
0001
1000
0001
,
0100
0000
0000
0110
0000
0000
0001
0000
1000
0100
0000
0000
,
0011
0000
0000
0100
0000
0100
1000
0000
1000
0100
0000
0000
,
0001
0000
0001
0010
0000
0010
0100
0000
0100
1000
0000
1000
,
0100
0000
0100
0001
0000
0000
0120
0000
0000
0M00
0M00
0M00
,
0031
1000
0001
1000
0001
1000
0010
1000
0010
1000
0010
1000
,
0100
0100
0010
0010
0001
1000
0001
1000
0000
1000
0010
0010
,
0100
0100
0001
1000
0001
1000
0000
1000
0100
0100
1000
1000
,
0001
0100
0001
0100
0001
0100
0002
0000
0000
1000
0000
0000
,
0000
0000
0000
1000
0000
0000
00M3
00M0
00M0
00MM
00M0
00M0
,
00M0
0000
0000
0000
,
0000
0000
0000
0000
,
0000
0000
0000
0000
,
0000
0000
0020
0001
,
0000
0000
0000
0001
0000
0000
0M30
0M00
0M00
0MM0
0M00
0M00
,
0M00
0000
0000
0000
,
0000
0000
0000
0000
,
0000
0000
0000
0000
,
0000
0000
0200
0010
,
0000
0000
0000
0010
0000
0000
M300
M000
M000
MM00
M000
M000
,
M000
0000
0000
0000
,
0000
0000
0000
0000
,
0000
0000
0000
0000
,
0000
0000
2000
0100
,
0000
0000
0000
0M00
0000
0000
300M
000M
000M
00MM
000M
000M
,
000M
0000
0000
0000
,
0000
0000
0000
0000
,
0000
0000
0000
0000
,
0000
0000
0002
0010
,
0000
0000
0000
0010
0000
0000
0M03
0M00
0M00
0M0M
0M00
0M00
,
0M00
0000
0000
0000
,
0000
0000
0000
0000
,
0000
0000
0000
0000
,
0000
0000
0200
0001
,
0000
0000
0000
0001
0000
0000
03M0
00M0
00M0
0MM0
00M0
00M0
,
00M0
0000
0000
0000
,
0000
0000
0000
0000
,
0000
0000
0000
0000
,
0000
0000
0020
0100
,
0000
0000
0000
0100
0000
0000
M030
M000
M000
M0M0
M000
M000
,
M000
0000
0000
0000
,
0000
0000
0000
0000
,
0000
0000
0000
0000
,
0000
0000
2000
0010
,
0000
0000
0000
0010
0000
0000
3M00
0M00
0M00
0M0M
0M00
0M00
,
0M00
0000
2000
0000
,
0000
0000
3000
0000
,
0000
0000
0000
0000
,
0000
0000
0200
0001
,
0000
0000
0000
0001
0000
0000
M300
M000
M000
MM00
M000
M000
,
M000
0000
0000
0000
,
0000
0000
0000
0000
,
0000
0000
0000
0000
,
0000
0000
2000
0100
,
0000
0000
0000
0100
0000
0000
300M
000M
000M
M00M
000M
000M
,
000M
0000
0000
0000
,
0000
0000
0000
0000
,
0000
0000
0000
0000
,
0000
0000
0002
1000
,
0000
0000
0000
1000
0000
0000
00M3
00M0
00M0
00MM
00M0
00M0
,
00M0
0000
0000
0000
,
0000
0000
0000
0000
,
0000
0000
0000
0000
,
0000
0000
0020
0001
,
0000
0000
000M
0000
0M30
00M0
0M00
00M0
,
000M
00M0
000M
00M0
000M
M000
000M
M000
,
00M0
M000
00M0
M000
0M00
0000
0000
0000
,
0000
0000
0000
0000
,
0000
0000
0000
0000
0100
0010
0100
0010
,
0001
0010
0001
0010
0001
1000
0001
1000
,
0010
1000
0010
1000
010M
0010
0100
0010
,
0001
0010
0001
0010
0100
0010
0100
0010
,
0001
0010
0001
0010
0001
1000
0001
1000
,
0010
1000
0010
1000
0001
0100
0001
0200
,
0000
0000
0000
0000
0000
030M
0MM0
0000
,
00M0
0000
000M
0000
0M00
000M
0M00
0000
00M0
0000
0000
0000
0000
0000
0000
0000
,
0000
0000
0000
0000
,
0000
0000
0000
0000
,
0000
0000
0000
0000
,
0000
0000
0000
0001
0110
0000
0010
0001
,
0100
0001
0100
0000
0010
0000
0000
0000
0100
0000
0000
0000
1000
0000
0001
0000
,
0000
000M
1000
0010
0100
0000
0100
0000
,
0001
0010
0100
0000
0001
0100
0010
0001
,
0000
0000
0100
0000
1010
0000
0001
1000
,
0100
0010
0100
0000
0010
0000
0000
0000
0001
0000
0000
0000
0001
0000
1000
0000
,
0000
M000
1000
0010
0100
0000
0100
0001
,
0010
0000
1000
0000
0010
0000
0001
0000
1000
0000
000M
00M0
0M00
M000
0M00
00M0
,
000M
0000
0000
0M00
0000
0000
0000
0000
,
0000
0000
0000
0000
,
0000
0000
0000
0000
,
0000
0000
0000
0000
,
0000
0000
0000
0000
M002
0000
0000
0203
,
0000
000M
0000
0000
2300
0000
0M00
0000
,
3200
0000
M000
0000
0320
0000
0M00
2030
,
0000
00M0
3100
0000
0001
0100
0001
0100
,
0010
0100
0010
0100
0001
0001
0100
0100
,
0010
0010
0100
0100
0001
0001
1000
0100
,
0010
0100
0010
0100
2000
0000
0000
0000
,
3001
0010
0100
1000
0000
0000
0001
0000
,
1100
0000
0000
0000
0010
0000
0001
0000
0100
0001
0100
0000
0010
0000
0000
0000
,
0100
0000
1000
0001
0000
000M
1000
0010
,
0100
0000
0000
0100
0000
0000
0100
0000
0001
0000
0010
0000
0001
0000
0100
0000
,
1000
0001
0010
0100
0000
0000
1000
0000
,
0011
0000
0000
0000
0100
0000
1000
0000
0100
0001
0100
0000
0010
0000
0000
0000
,
0011
0001
0101
0100
0000
0M00
1000
0100
,
0001
0100
0001
0100
1000
0010
0100
0001
,
0100
0000
M000
0M00
00M0
000M
00M0
0M00
M000
0000
0000
0000
0000
0000
0M00
0000
,
0000
0000
0000
0000
,
0000
0000
0000
0000
,
0000
0000
0000
0000
,
0000
0000
0000
0000
,
0000
0000
0000
0000
,
0000
0000
0000
0000
,
0000
0000
0000
0000
,
0000
0000
0000
0000
,
200M
0000
0000
3200
0000
M000
0000
0000
,
0302
0M00
0203
000M
,
0320
0000
0M00
0032
0000
00M0
0103
0000
,
1000
0100
1000
0100
0010
0100
0010
0100
,
1000
1000
0100
0100
0010
0010
0100
0100
,
1000
1000
0001
0100
0010
0100
0010
0100
,
0001
0000
0001
0000
1000
0000
0000
0000
0001
0100
0001
0000
1000
0000
0000
0000
;

//---------------dance-single - Geriatric Patrick----------------
#NOTES:
     dance-single:
     Geriatric Patrick:
     Challenge:
     10:
     0.724,1.000,0.180,0.201,0.640:
0000
0000
0000
0000
,
0000
0000
0000
0000
,
0000
0000
0000
0000
,
0000
0000
0000
0000
,
0000
0000
0000
0000
,
0010
0010
0100
0100
0010
0010
0100
0100
,
1000
1000
0001
0001
1000
1000
0001
0001
,
0010
0100
1000
0100
0010
0100
1000
0100
,
0010
0001
0010
0100
0010
0001
0010
0100
,
0002
0000
0000
0000
M003
0M00
M000
000M
,
0M00
0000
0000
0000
,
0000
0000
0000
0000
,
0000
0000
0000
0000
,
0000
0000
0000
0000
,
M11M
0000
0100
0000
1000
0000
0001
0000
0100
0010
0100
0000
0001
0000
0000
0000
,
1000
0000
1000
0000
0001
0000
0100
0000
0010
0001
0010
0000
0100
0000
0000
0000
,
0101
0000
0001
0000
0010
0000
0100
0000
1000
0100
1000
0000
0010
0000
0000
0000
,
0100
0100
0010
1000
1MM1
0000
M11M
0000
,
1MM1
0000
0001
0000
0010
0000
0100
0000
1000
0001
1000
0000
0010
0000
0000
0000
,
1000
0000
0100
0000
0010
0000
0100
0000
1000
0001
1000
0000
0010
0000
0000
0000
,
0101
0000
0001
0000
0010
0000
0100
0000
1000
0100
1000
0000
0001
0000
0000
0000
,
0100
0000
0001
0000
0010
0000
0100
0000
1000
0100
1000
0000
0001
0000
0000
0000
,
1100
0000
0100
0010
0001
0010
0M00
00M0
MM00
0000
0000
0000
0000
0000
0000
0000
,
0000
0000
0000
0000
,
0000
0000
0000
0000
,
0000
0000
0000
0000
,
0000
0000
0000
0000
0000
0000
0000
0000
0000
0000
0000
0000
0000
0000
0100
0010
,
MM12
0000
0000
0203
0000
000M
0000
0000
,
2300
0M00
3200
M000
,
0320
0000
0M00
2030
0000
00M0
3100
0000
,
0001
0100
0001
0100
0010
0100
0010
0100
,
0001
0001
0100
0100
0010
0010
0100
0100
,
1000
1000
0100
0001
0010
0100
0010
0100
,
2000
0000
0000
0000
3001
0010
0100
1000
,
0000
0000
0001
0000
1100
0000
0010
0001
,
0100
0001
0100
0000
0010
0000
0000
0000
0100
0000
0000
0000
1000
0000
0001
0000
,
0000
000M
1000
0010
0100
0000
0100
0000
,
0001
0010
0100
0000
0001
0100
0010
0001
,
0000
0000
0100
0000
1010
0000
0001
1000
,
0100
0010
0100
0000
0010
0000
0000
0000
0001
0000
0000
0000
0001
0000
1000
0000
,
0000
M000
1000
0010
0100
0000
0100
0001
,
0010
0000
1000
0000
0010
0000
0001
0000
0101
0000
0100
0010
1000
0010
0M00
00M0
,
0M0M
0000
0000
0000
,
0000
0000
0000
0000
,
0000
0000
0000
0000
,
0000
0000
0000
0000
,
0000
0000
0000
0000
0000
0000
0100
0010
2M1M
0000
0000
0000
0000
0000
3200
0000
,
0000
M000
0000
0000
0302
0000
0M00
0000
,
0203
0000
000M
0000
0320
0000
0M00
0032
,
0000
00M0
0103
0000
1000
0100
1000
0100
,
0010
0100
0010
0100
1000
1000
0100
0100
,
0010
0010
0100
0100
0001
0001
0100
1000
,
0010
0100
0010
0100
0001
0001
1000
1000
,
0001
0001
1000
1000
0000
0000
M000
00M0
,
0M00
0000
0000
0000
,
0000
0000
0000
0000
,
0000
0000
0000
0000
,
0000
0000
0000
0000
,
0000
0000
0000
0000
,
0000
0000
0000
0000
,
0000
0000
0000
0000
,
0000
0000
0000
0000
0000
0000
0000
0000
0000
M001
0000
0010
,
0100
0000
0000
0000
0000
0000
0001
0000
0000
0000
1000
0000
0010
0000
0000
0000
1000
0000
0100
0000
0000
0011
0000
0000
,
0000
0000
0000
0100
0000
0000
1010
0000
0000
0000
0000
0000
0001
0000
0000
0000
1000
0000
0100
0000
0000
0000
1000
0000
,
0010
0000
0000
0100
0000
0000
1000
0001
1000
0001
1000
0001
,
0010
0001
0010
0001
0010
0001
0100
0100
0010
0010
1000
0001
,
1000
0010
0000
1000
0100
0100
0010
0010
0001
1000
0001
0010
,
0000
0001
1000
1000
0001
0001
0100
0010
0100
0010
0100
0010
,
1000
0000
0000
0110
0000
0000
0001
0000
1000
0100
0000
0000
,
0011
0000
0000
0100
0000
0100
1000
0000
1000
0100
0000
0000
,
0001
0000
0001
0010
0000
0010
0100
0000
0100
1000
0000
1000
,
0100
0000
0100
0001
0000
0000
0120
0000
0000
0M00
0M00
0M00
,
0031
1000
0001
1000
0001
1000
0010
1000
0010
1000
0010
1000
,
0100
0100
0010
0010
0001
1000
0001
0010
0000
0001
0100
0100
,
0010
0010
1000
0001
1000
0010
0000
1000
0001
0001
1000
1000
,
0100
0010
0100
0010
0100
0010
0001
0000
1000
0010
0000
1000
,
0001
0100
0001
0010
0000
0010
000M
0000
000M
M000
0000
M000
,
000M
0000
0000
0000
,
0000
0000
0000
0000
,
0000
0000
0000
0000
,
0000
0000
0000
0000
0000
0000
0001
0000
0001
1000
0000
1000
,
0001
0100
0001
1000
0000
0010
0M00
0000
000M
00M0
0000
000M
,
0M00
0000
0000
0000
,
0000
0000
0000
0000
,
0000
0000
0000
0000
,
0000
0000
0000
0000
0000
0000
0100
0000
0001
0010
0000
0001
,
0100
0001
0100
0010
0000
0010
0M00
0000
0M00
000M
0000
000M
,
0M00
0000
0000
0000
,
0000
0000
0000
0000
,
0000
0000
0000
0000
,
0000
0000
0000
0000
0000
0000
0100
0000
0100
0001
0000
0001
,
0100
0010
0100
0001
0010
0001
0M00
0000
0M00
00M0
0000
00M0
,
M000
0000
0000
0000
,
0000
0000
0000
0000
,
0000
0000
0000
0000
,
0000
0000
0000
0000
0000
0000
0100
0000
0100
0010
0000
0010
,
1000
0001
1000
0010
0000
0010
0M00
0000
0M00
000M
0000
000M
,
00M0
0000
0000
0000
,
0000
0000
0000
0000
,
0000
0000
0000
0000
,
0000
0000
0000
0000
0000
0000
0100
0000
0100
0001
0000
0001
,
0010
0100
0010
0001
0000
0001
M000
0000
000M
00M0
0000
000M
,
0M00
0000
0000
0000
,
0000
0000
0000
0000
,
0000
0000
0000
0000
,
0000
0000
0000
0000
0000
0000
1000
0000
0001
0010
0000
0001
,
0100
0001
0100
0010
0000
1000
00M0
0000
0M00
000M
0000
M000
,
0M00
0000
0000
0000
,
0000
0000
0000
0000
,
0000
0000
0000
0000
,
0000
0000
0000
0000
0000
0000
0010
0000
0100
0001
0000
1000
,
0100
0010
0100
0001
0000
0100
M000
0000
M000
00M0
0000
00M0
,
0M00
0000
0000
0000
,
0000
0000
0000
0000
,
0000
0000
0000
0000
,
0000
0000
0000
0000
0000
0000
1000
0000
1000
0010
0000
0010
,
0100
0001
0100
1000
0000
1000
0M00
0000
0M00
00M0
0000
00M0
,
M000
0000
0000
0000
,
0000
0000
0000
0000
,
0000
0000
0000
0000
,
0000
0000
0000
0000
0000
0000
0100
0000
0100
0010
0000
0010
,
1000
0100
1000
0001
0000
0001
0M00
0000
000M
00M0
0000
000M
,
M000
0000
0000
0000
,
0000
0000
0000
0000
,
0000
0000
0000
0000
,
0000
0000
0000
0000
0000
0000
0100
0000
0001
0010
0000
0001
,
1000
0100
1000
0001
0000
0100
00M0
0000
0M00
000M
0000
M000
,
0M00
0000
0000
0000
,
0000
0000
0000
0000
,
0000
0000
0000
0000
,
0000
0000
0000
0000
0000
0000
0010
0000
0100
0001
0000
1000
,
0100
0000
0010
0000
0100
0000
1000
0000
0001
0000
1000
0000
0M00
0000
0000
0M00
0000
0000
00M0
0000
0000
00M0
0000
0000
,
000M
0000
0000
0000
,
0000
0000
0000
0000
,
0000
0000
0000
0000
,
0000
0000
0000
0000
0100
0100
0010
0010
,
0001
0001
1000
1000
0010
0010
0100
0100
,
0001
0001
1000
1000
0100
0010
0100
0010
,
0001
1000
0001
1000
0010
0100
0010
0100
,
0001
1000
0001
1000
0100
0010
0001
1000
,
0001
0100
0010
1000
0001
0010
0100
2000
,
0000
0000
0000
0000
0000
300M
M00M
0000
,
0000
0000
0000
0000
,
0000
0000
0000
0000
,
0000
0000
0000
0000
,
0000
0000
0000
0000
,
0000
0000
0000
0001
M11M
0000
0010
0001
,
0100
0001
0100
0000
0010
0000
0000
0000
0100
0000
0000
0000
1000
0000
0001
0000
,
0000
000M
1000
0010
0100
0000
0100
0000
,
0001
0010
0100
0000
0001
0100
0010
0001
,
0000
0000
0100
0000
1010
0000
0001
1000
,
0100
0010
0100
0000
0010
0000
0000
0000
0001
0000
0000
0000
0001
0000
1000
0000
,
0000
M000
1000
0010
0100
0000
0100
0001
,
0010
0000
1000
0000
0010
0000
0001
0000
1000
0000
0100
0010
0001
0010
0M00
00M0
,
MM00
0000
0000
0000
,
0000
0000
0000
0000
,
0000
0000
0000
0000
,
0000
0000
0000
0000
,
0000
0000
0000
0000
0000
0000
0100
0010
MM12
0000
0000
0000
0000
0000
0203
0000
,
0000
000M
0000
0000
2300
0000
0M00
0000
,
3200
0000
M000
0000
0320
0000
0M00
2030
,
0000
00M0
3100
0000
0001
0100
0001
0100
,
0010
0100
0010
0100
0001
0001
0100
0100
,
0010
0010
0100
0100
1000
1000
0100
0001
,
0010
0100
0010
0100
2000
0000
0000
0000
,
3001
0010
0100
1000
0000
0000
0001
0000
,
1100
0000
0000
0000
0010
0000
0001
0000
0100
0001
0100
0000
0010
0000
0000
0000
,
0100
0000
1000
0001
0000
000M
1000
0100
,
0001
0000
0000
0001
0000
0000
0001
0000
0100
0000
0010
0000
0001
0000
0100
0000
,
1000
0001
0010
0100
0000
0000
1000
0000
,
0011
0000
0000
0000
0100
0000
1000
0000
0100
0001
0100
0000
0010
0000
0000
0000
,
0011
0001
0101
0100
0000
0M00
1000
0100
,
0001
0100
0001
0100
1000
0010
0100
0001
,
0101
0000
0100
0010
1000
0010
0M00
000M
M0M0
0000
0000
0000
0000
0000
0000
0000
,
0000
0000
0000
0000
,
0000
0000
0000
0000
,
0000
0000
0000
0000
,
0000
0000
0000
0000
,
0000
0000
0000
0000
,
0000
0000
0000
0000
,
0000
0000
0000
0000
,
0000
0000
0000
0000
0000
0000
0000
0000
0000
0000
0000
0000
0000
0000
0100
0010
,
2M1M
0000
0000
3200
0000
M000
0000
0000
,
0302
0M00
0203
000M
,
0320
0000
0M00
0032
0000
00M0
0103
0000
,
1000
0100
1000
0100
0010
0100
0010
0100
,
1000
1000
0100
0100
0010
0010
0100
0100
,
0001
0001
0100
1000
0010
0100
0010
0100
,
0001
0000
0001
0000
1000
0000
0000
1000
0001
0100
0001
0000
1000
0000
0000
0000
;

//---------------dance-single - Geriatric Patrick----------------
#NOTES:
     dance-single:
     Geriatric Patrick:
     Beginner:
     6:
     0.413,0.849,0.145,0.284,0.059:
0000
0000
0000
0000
,
0000
0000
0000
0000
,
0000
0000
0000
0000
,
0000
0000
0000
0000
,
0000
0000
0000
0000
,
1000
1000
0001
0001
,
1000
1000
0001
0001
,
1MM0
1000
0001
0001
,
1000
1000
0001
0001
,
2000
0000
0000
3000
0MM0
0000
0M00
0000
,
0M00
0M00
0000
0000
,
0000
0000
0000
0000
,
0000
0000
0000
0000
,
0000
0000
0000
0000
,
0110
0100
0100
0100
,
0101
0001
0001
0001
,
1001
1000
1000
1000
,
1010
0010
0100
0010
,
0110
1000
0100
1000
,
1100
0001
0010
0001
,
0011
1000
0001
1000
,
1001
0010
0100
1000
,
1000
0000
0000
0000
000M
0000
0000
0M00
,
0000
0000
0000
0000
,
0000
0000
0000
0000
,
0000
0000
0000
0000
,
0000
0000
0000
0000
,
0002
0000
0000
0203
0000
0000
0000
0000
,
2300
0000
3200
0000
,
0320
0000
0000
2030
0000
0000
3100
0000
,
0001
0100
0010
0100
,
0001
0001
0010
0010
,
0001
0001
0100
0010
,
2000
0000
0000
0000
3001
0010
0100
1000
,
0000
0001
1001
0MM0
,
0000
0000
0MM0
0000
0100
0000
0100
0001
,
0000
0000
1000
0010
0100
0000
0000
0000
,
0001
1000
0100
0000
1000
0001
0010
0100
,
0000
0010
0110
M00M
,
0000
0000
M00M
0000
0100
0000
0100
1000
,
0000
0000
0001
0010
0100
0000
0100
1000
,
0001
0010
0001
1000
0100
0000
0000
0000
,
M000
0000
0000
0100
0000
0000
0000
0000
,
0000
0000
0000
0000
,
0000
0000
0000
0000
,
0000
0000
0000
0000
,
0000
0000
0000
0000
2000
0000
0000
3200
,
0000
0000
0302
0000
,
0203
0000
0000
0000
0320
0000
0000
0032
,
0000
0103
1000
0100
,
0010
0100
1000
1000
,
0010
0010
1000
1000
,
0100
0010
0001
0001
,
1000
1000
0000
000M
,
MM00
00M0
MM00
0000
,
0000
0000
0000
0000
,
0000
0000
0000
0000
,
0000
0000
0000
0000
,
0000
0000
0000
0000
,
0000
0000
0000
0000
,
0000
0000
0000
0000
,
0000
0000
0000
0001
,
1100
0000
0010
0000
1100
0000
0001
0101
,
0000
1000
1100
0000
0001
0000
0100
0000
,
0010
0100
1000
0001
,
1000
0000
0000
0001
0000
0000
0100
0000
0100
0000
0001
0000
,
0000
1000
0000
0000
0100
0000
0100
0000
1000
0000
0000
0001
,
0000
0000
0100
0000
0100
0000
0010
0000
0000
1000
0000
0000
,
0001
1001
1000
0100
,
0011
0100
1000
0100
,
0001
0010
0100
1000
,
0100
0001
0120
0000
,
0031
0001
1000
1000
,
0100
0000
0010
0000
0001
0000
0000
0001
0000
0000
0100
0000
,
0010
0000
1000
0000
0000
1000
0000
0000
0001
0000
0010
0000
,
0001
0001
2000
0001
,
0000
0001
30M0
M000
,
0000
0000
0000
0000
,
0000
0000
0000
0000
,
0000
0000
0000
0000
,
0000
0000
0020
1000
,
0000
1000
0M30
00M0
,
0000
0000
0000
0000
,
0000
0000
0000
0000
,
0000
0000
0000
0000
,
0000
0000
0200
0010
,
0000
0010
030M
0M00
,
0000
0000
0000
0000
,
0000
0000
0000
0000
,
0000
0000
0000
0000
,
0000
0000
0002
0100
,
0000
0M00
M003
00M0
,
0000
0000
0000
0000
,
0000
0000
0000
0000
,
0000
0000
0000
0000
,
0000
0000
2000
0010
,
0000
0010
3M00
M000
,
0000
0000
0000
0000
,
0000
0000
0000
0000
,
0000
0000
0000
0000
,
0000
0000
0200
1000
,
0000
1000
03M0
0M00
,
0000
0000
0000
0000
,
0000
0000
0000
0000
,
0000
0000
0000
0000
,
0000
0000
0020
0100
,
0000
0100
003M
00M0
,
0000
0000
0000
0000
,
0000
0000
0000
0000
,
0000
0000
0000
0000
,
0000
0000
0002
0010
,
0000
0010
0M03
M000
,
0000
0000
0000
0000
,
0000
0000
0000
0000
,
0000
0000
0000
0000
,
0000
0000
0200
1000
,
0000
1000
030M
0M00
,
0000
0000
0000
0000
,
0000
0000
0000
0000
,
0000
0000
0000
0000
,
0000
0000
0002
0100
,
0000
0100
M003
000M
,
0000
0000
0000
0000
,
0000
0000
0000
0000
,
0000
0000
0000
0000
,
0000
0000
2000
0001
,
0000
0001
30M0
M000
,
0000
0000
0000
0000
,
0000
0000
0000
0000
,
0000
0000
0000
0000
,
0000
0000
0020
1000
,
0000
M000
0M30
0M00
,
00M0
00M0
0000
0000
,
0000
0000
0000
0000
,
0000
0000
0000
0000
,
0000
0000
0100
0100
,
0010
0010
0100
0100
,
0010
0010
M10M
0100
,
0010
0010
0100
0100
,
0010
0010
0100
0100
,
0010
0010
0100
0020
,
0000
0000
0030
0MM0
,
0000
0000
0000
0000
,
0000
0000
0000
0000
,
0000
0000
0000
0000
,
0000
0000
0000
0000
,
0000
0000
0110
M00M
,
0000
0000
M00M
0000
0100
0000
0100
1000
,
0000
0000
0001
0010
0100
0000
0000
0000
,
0010
0001
0100
0000
1000
0100
0010
0001
,
0000
1000
1001
0MM0
,
0000
0000
0MM0
0000
0100
0000
0100
1000
,
0000
0000
0001
0010
0100
0000
0010
0001
,
1000
0010
1000
0001
0100
0000
0000
0000
,
000M
0000
0000
0M00
0000
0000
0000
0000
,
0000
0000
0000
0000
,
0000
0000
0000
0000
,
0000
0000
0000
0000
,
0000
0000
0000
0000
0002
0000
0000
0203
,
0000
0000
2300
0000
,
3200
0000
0000
0000
0320
0000
0000
2030
,
0000
3100
0001
0100
,
0010
0100
0001
0001
,
0010
0010
0001
0001
,
0100
0010
2000
0000
,
3001
0010
0100
1000
0000
0000
0001
0000
,
1001
0MM0
0000
0MM0
,
0100
0000
0100
0001
0000
0000
0001
0100
,
0010
0000
0000
0010
0000
0000
0010
0000
1000
0000
0001
0000
1000
0000
0001
0000
,
0100
0001
0010
0100
0000
0000
0001
0000
,
0101
M0M0
0000
M0M0
,
0010
0100
0010
0100
0000
0000
0001
0010
,
0100
1000
0100
1000
0100
0010
0001
0100
,
1000
0000
0000
0000
M000
0000
0000
0M00
,
0000
0000
0000
0000
,
0000
0000
0000
0000
,
0000
0000
0000
0000
,
0000
0000
0000
0000
,
0000
0000
0000
0000
,
0000
0000
0000
0000
,
0000
0000
0000
0000
,
0000
0000
0000
0000
,
2000
0000
0000
3200
0000
0000
0000
0000
,
0302
0000
0203
0000
,
0320
0000
0000
0032
0000
0000
0103
0000
,
1000
0100
0010
0100
,
1000
1000
0010
0010
,
1000
1000
0100
0010
,
0001
0001
1000
0000
0001
0001
1000
0000
;
