#TITLE:Another Medium;
#SUBTITLE:;
#ARTIST:Toby Fox;
#TITLETRANSLIT:;
#SUBTITLETRANSLIT:;
#ARTISTTRANSLIT:;
#GENRE:;
#CREDIT:;
#BANNER:Another Medium-bn.png;
#BACKGROUND:Another Medium-bg.png;
#LYRICSPATH:;
#CDTITLE:;
#MUSIC:Another Medium.mp3;
#OFFSET:-0.200;
#SAMPLESTART:37.060;
#SAMPLELENGTH:12.000;
#SELECTABLE:YES;
#BPMS:0.000=65.000,40.000=130.000,136.000=65.000,168.000=130.000,216.000=65.000;
#STOPS:;
#BGCHANGES:;
#KEYSOUNDS:;

//---------------dance-single - Geriatric Patrick----------------
#NOTES:
     dance-single:
     Geriatric Patrick:
     Hard:
     8:
     0.374,0.418,0.370,0.292,0.114:
0000
0000
0000
0000
,
0000
0000
0000
0000
,
0200
0000
0000
0000
,
0320
0000
0032
0000
,
2003
0000
0000
0000
0000
0000
0000
3001
,
2000
0000
0000
0000
0000
3002
2003
3020
,
0130
0000
0000
0100
0000
0000
0000
0000
0004
0000
0000
0000
0003
0000
0000
0000
0100
0000
0000
0100
0000
0000
0000
0000
0040
0000
0000
0000
0030
0000
0000
0000
,
0100
0000
0000
0100
0000
0000
0000
0000
0004
0000
0000
0000
0003
0000
0000
0000
1000
0000
0000
1000
0000
0000
0000
0000
0004
0000
0000
0000
0003
0000
0000
0000
,
0010
0000
0000
0010
0000
0000
0000
0000
0400
0000
0000
0000
0300
0000
0000
0000
1000
0000
0000
1000
0000
0000
0000
0000
0004
0000
0000
0000
0003
0000
0000
0000
,
0100
0000
0000
0100
0000
0000
0000
0000
0040
0000
0000
0000
0030
0000
0000
0000
1000
0000
0000
1000
0000
0000
0000
0000
0004
0000
0000
0000
0000
0000
0003
0000
,
1001
1100
1001
0101
,
1001
0000
0000
0000
0101
0000
0000
0000
1100
0000
0000
0000
0001
0010
0001
0010
,
0001
0110
0011
1001
,
1010
1100
1010
1001
,
0100
0000
1000
0001
1000
0000
0001
0100
0000
0000
0001
1000
0010
0000
1000
0100
,
0000
0000
1000
0001
1000
0000
0001
0100
0000
0000
0001
1000
0010
0000
1000
0100
,
0000
0100
0010
0100
0000
1000
0010
1000
,
0000
0000
0100
0000
0010
0000
0100
0000
1000
0000
0100
0000
0010
0001
0010
0001
,
1000
0100
0010
0002
0000
0000
0003
0100
,
0010
0002
0000
0000
0003
0100
0010
0000
,
1000
0010
0100
2000
0000
0000
3000
0100
,
0001
0020
0000
0000
0130
0000
0011
0000
,
2001
0100
0001
0100
,
0001
0000
0000
0000
0100
0000
0000
0000
0001
0000
0000
0000
3100
1000
0100
1000
,
0002
0100
0010
0100
,
0010
0000
0000
0000
0100
0000
0000
0000
0010
0000
0000
0000
1003
0010
1000
0010
,
1000
0001
0010
0200
0000
0300
0001
1000
,
0010
0200
0000
0000
0300
1000
0001
0000
,
0010
0100
1000
0020
0000
0000
0130
0001
,
0010
2000
0000
0000
3001
0000
1010
0000
,
0210
1000
0010
0001
,
0010
1000
0310
0001
,
1020
0130
1020
0031
,
1010
0000
0000
0000
0101
0000
0000
0000
1010
0000
0000
0000
0001
0100
0001
0100
,
0020
0000
0000
0000
0000
2030
3200
0320
,
0032
0000
2003
3020
,
0230
0000
0000
0000
0000
0000
0000
2300
,
3200
0000
0000
0000
0000
0000
0000
0300
,
0001
0010
1000
0010
0001
1000
0100
0010
,
1000
0100
0001
0100
1000
0010
0100
0010
,
1000
0001
0010
0001
0100
1000
0001
0010
,
1000
0001
0010
0100
0001
0100
1000
0100
,
0110
1100
0110
1100
,
0011
0000
0000
0000
1100
0000
0000
0000
0011
0000
0000
0000
0001
1000
0001
1000
,
0010
0101
1010
1100
,
0011
0110
0011
0110
,
1100
0101
1100
0011
,
1100
0000
0000
0000
0101
0000
0000
0000
1100
0000
0000
0000
0001
0010
0001
0010
,
0001
1001
1010
1001
,
0110
0000
0000
0000
1001
0000
0000
0000
0110
0000
0000
0000
0010
1000
0010
1000
,
0100
1000
0010
0002
0000
0003
0100
0001
,
0010
2000
0000
0000
3000
0100
1000
0000
,
0001
0100
0010
0002
0000
0003
1000
0100
,
0001
0020
0000
0000
0130
0000
0011
0000
,
2002
0000
0000
0003
0002
0000
0000
0000
,
3000
0000
0000
0000
0000
2003
3002
0023
,
0030
0000
0000
0000
;

//---------------dance-single - Geriatric Patrick----------------
#NOTES:
     dance-single:
     Geriatric Patrick:
     Challenge:
     10:
     0.614,0.638,0.242,0.192,0.737:
0000
0000
0000
0000
,
0000
0000
0000
0000
,
0200
0000
0000
0000
,
0302
0000
0023
0000
,
2030
0000
0000
0000
0000
0000
0000
3200
,
2300
0000
0000
0000
0000
3200
2300
3020
,
0131
0000
0000
0100
0000
0000
0000
0000
0001
0000
0001
0000
0001
0000
0000
0000
0011
0000
0000
0010
0000
0000
0000
0000
0100
0000
0100
0000
0100
0000
0000
0000
,
0011
0000
0000
0001
0000
0000
0000
0000
1000
0000
1000
0000
1000
0000
0000
0000
0110
0000
0000
0100
0000
0000
0000
0000
0010
0000
0010
0000
0010
0000
0000
0000
,
1100
0000
0000
1000
0000
0000
0000
0000
0010
0000
0010
0000
0010
0000
0000
0000
0101
0000
0000
0001
0000
0000
0000
0000
0010
0000
0010
0000
0010
0000
0000
0000
,
1001
0000
0000
1000
0000
0000
0000
0000
0001
0000
0001
0000
0001
0000
0000
0000
1001
0000
0000
1000
0000
0000
0000
0000
0001
0000
0001
0000
0001
0000
0010
0000
,
M110
MM11
M11M
MM11
,
11MM
0000
0000
0000
MM11
0000
0000
0000
11MM
0000
0000
0000
0010
1000
0010
1000
,
0M01
MM11
1MM1
1M1M
,
M1M1
MM11
M1M1
MM11
,
1000
0010
0100
0001
0010
0001
1000
0001
0100
0001
1000
0100
0001
0100
0010
0100
,
1000
0100
0010
0001
1000
0010
0100
0010
0001
0010
0100
0010
1000
0001
0010
0001
,
0100
0010
1000
0001
0010
0001
1000
0001
0100
0010
1000
0001
0010
0001
1000
0001
,
0100
0010
1000
0001
0010
0100
1000
0100
0010
0100
1000
0100
0010
0001
0010
0001
,
1000
0010
0100
2000
0M00
0000
0M00
3100
,
0010
0002
00M0
0000
00M0
0013
1000
0000
,
0001
0010
0100
0002
0M00
0000
0M00
0103
,
1000
0020
M000
0000
M13M
0000
1M1M
0000
,
0001
0010
0100
1000
0010
1000
0001
1000
0100
1000
0001
0100
1000
0100
0010
0100
,
0001
0100
0010
1000
0001
0010
0100
0010
1000
0010
0100
0010
0001
1000
0010
1000
,
0001
0010
0100
1000
0010
1000
0001
1000
0100
1000
0001
0100
1000
0100
0010
0100
,
0001
0100
0010
1000
0001
0010
0100
0010
1000
0010
0100
0010
0001
1000
0010
1000
,
0001
1000
0010
0100
0110
0000
1001
1000
,
0010
0000
0100
0000
1001
0000
0000
0000
0110
0000
0100
0000
0001
1000
0010
1000
,
0001
0010
0100
0001
0011
0000
1100
0001
,
0010
1000
1010
0000
M11M
0000
MM11
0000
,
1000
0010
0100
0001
0010
0001
1000
0001
0100
0001
1000
0100
0001
0100
0010
0100
,
1000
0100
0010
0001
1000
0010
0100
0010
0001
0010
0100
0010
1000
0001
0010
0001
,
0100
0010
1000
0001
0010
0001
1000
0001
0100
0010
1000
0001
0010
0001
1000
0001
,
0100
0010
1000
0001
0010
0100
1000
0100
0010
0100
1000
0100
0010
0001
0010
0001
,
0200
0000
0004
0003
0000
0320
4030
3002
,
0023
0000
4000
3000
0230
0000
4300
0000
,
3002
0000
0400
0300
0000
0000
0400
2303
,
3002
0000
0400
0300
0000
0000
0400
0303
,
0001
0010
4000
3010
0001
1000
0400
0310
,
1000
0100
0004
0103
1000
0010
0400
0310
,
1000
0001
0040
0031
0100
1000
0004
0013
,
1000
0001
0040
0130
0001
0100
4000
3100
,
0001
0100
0010
1000
0001
0010
0100
1000
0010
0100
0010
1000
0001
0010
0100
1000
,
0010
1000
0001
0010
0100
1000
0010
0100
0001
1000
0001
0100
0010
1000
0010
1000
,
0001
0010
0100
1000
0010
0100
0001
1000
0100
0010
0100
1000
0010
0100
0001
1000
,
0100
1000
0010
0100
0001
1000
0100
0010
0001
0100
0001
1000
0100
0010
0100
1000
,
0001
1000
0100
1000
0010
0100
0001
1000
0100
1000
0001
0100
1000
0100
0010
0100
,
0001
0100
0010
1000
0001
0010
0100
0010
1000
0010
0100
0010
0001
1000
0010
1000
,
0100
0010
0001
1000
0010
1000
0001
1000
0100
0010
0001
1000
0010
1000
0001
1000
,
0100
0010
0001
1000
0010
0100
0001
0100
0010
0100
0001
0100
0040
0000
0000
0000
,
1030
0001
0010
0100
1000
0001
1000
0100
0010
0001
1000
0010
0100
0001
0100
0010
,
1000
0100
0010
0001
0100
0010
0100
0001
0010
0100
1000
0010
0100
0001
0100
0001
,
1000
0100
0010
0001
1000
0010
0100
0001
0010
0100
0010
0001
0100
0010
1000
0001
,
0010
0001
1000
0010
0100
0001
0010
0100
0001
0000
0000
0000
0011
0000
0000
0000
,
0220
0000
0000
0000
0000
0000
0000
0000
0000
0000
0000
0000
0000
0000
0000
0000
0000
0000
0000
0000
0000
0000
0000
0000
0000
0000
0000
0000
0000
0000
0000
0300
0200
0000
0000
0000
0000
0000
0000
0000
0000
0000
0000
0000
0000
0000
0000
0000
0000
0000
0000
0000
0000
0000
0000
0000
0000
0000
0000
0000
0000
0000
0000
0000
,
0030
0000
0000
0000
0000
2300
3200
0302
,
0003
0000
0000
0000
;

//---------------dance-single - Geriatric Patrick----------------
#NOTES:
     dance-single:
     Geriatric Patrick:
     Medium:
     5:
     0.305,0.319,0.377,0.270,0.000:
0000
0000
0000
0000
,
0000
0000
0000
0000
,
0200
0000
0000
0000
,
0320
0000
0032
0000
,
2003
0000
0000
0000
0000
0000
0000
3001
,
2000
0000
0000
0000
0000
3002
2003
3020
,
0130
0000
0004
0003
0100
0000
0040
0030
,
0100
0000
0004
0003
1000
0000
0004
0003
,
0010
0000
0400
0300
1000
0000
0004
0003
,
0100
0000
0000
0000
0040
0000
0030
0000
1000
0000
0000
0000
0004
0000
0000
0003
,
1001
1100
1001
1100
,
1001
0101
1001
0040
,
0130
0101
0110
0101
,
1010
0110
1010
0110
,
1002
0000
0000
0000
0M00
0000
0000
0000
0000
0000
0000
0000
M000
0000
0000
0003
,
0002
00M0
0000
M203
,
0302
0M03
0002
M003
,
0002
02M3
0302
M023
,
0130
1000
0010
0100
,
0001
0010
0100
4000
,
3001
0100
0010
1000
,
0001
0010
0100
0011
,
2001
0100
0001
0100
,
0001
0100
0001
3400
,
2300
0100
0010
0100
,
0010
0100
0010
3400
,
0310
0010
0001
0100
,
0100
0010
1000
0001
,
0010
0010
0100
1000
,
1000
0001
0100
1010
,
0210
0001
0010
0001
,
0010
0001
0310
0001
,
1020
0130
1020
0130
,
1010
0101
1010
0004
,
2003
0000
0000
0000
0000
3200
2300
3002
,
0023
0000
0032
2003
,
3002
0000
0000
0000
0000
0000
0000
0203
,
0302
0000
0000
0000
0000
0000
0000
0003
,
0001
0010
1000
0010
0001
1000
0100
0010
,
1000
0100
0001
0100
1000
0010
0100
0010
,
1000
0001
0010
0001
0100
1000
0001
0010
,
1000
0001
0010
0100
0001
0100
1000
0100
,
0110
1100
0110
1100
,
0011
1001
0011
4000
,
3010
0101
1010
0101
,
0110
0101
0110
0101
,
1001
0101
1001
0101
,
1010
1001
1010
0004
,
0103
0011
0101
0011
,
0101
1001
0101
4000
,
3100
0010
0001
1000
,
0010
0100
0001
0001
,
0010
0100
1000
0010
,
0100
0001
1000
0011
,
0220
0000
0000
0300
0200
0000
0000
0000
,
0030
0000
0000
0000
0000
2300
3200
0320
,
0030
0000
0000
0000
;

//---------------dance-single - Undertale is a great game.----------------
#NOTES:
     dance-single:
     Undertale is a great game.:
     Easy:
     3:
     0.205,0.239,0.000,0.228,0.000:
0000
0000
0000
0000
,
0000
0000
0000
0000
,
0200
0000
0000
0000
,
0320
0000
0032
0000
,
2003
0000
0000
0000
0000
0000
0000
3000
,
2000
0000
0000
0000
0000
3000
2000
0000
,
3100
0000
0004
0003
0100
0000
0040
0030
,
0100
0000
0004
0003
1000
0000
0004
0003
,
0010
0000
0400
0300
1000
0000
0004
0003
,
0100
0000
0000
0000
0040
0000
0030
0000
1000
0000
0000
0000
0004
0000
0000
0003
,
1000
0100
1000
0100
,
0010
0100
0010
0400
,
0300
0010
0001
0010
,
1000
0001
1000
0001
,
0200
0000
0000
0300
,
0200
0000
0000
0302
,
0203
0300
0200
0300
,
0200
0302
0203
0320
,
1030
1000
0010
0010
,
0100
0100
0001
0001
,
0010
0010
0100
0100
,
0010
0010
0001
0001
,
2000
0001
0000
0001
,
0000
0001
3000
0200
,
2300
0001
0000
0001
,
0000
0001
0000
3001
,
0010
0010
0000
1000
,
0010
0000
0100
0001
,
1000
1000
0000
0001
,
0010
0000
1000
0010
,
0200
0010
0000
0010
,
0000
0010
0300
0100
,
0020
0030
0020
0030
,
0010
0010
0010
1000
,
0200
0000
0000
0000
0000
1300
0001
1000
,
0020
0000
0230
0302
,
0203
0000
0000
0000
0000
0000
0000
0301
,
0200
0000
0000
0000
,
0301
0010
0001
0100
,
1000
0010
1000
0001
,
1000
0100
0010
0001
,
1000
0010
0100
0001
,
0010
0100
0010
0100
,
1000
0100
1000
1000
,
0010
0100
0010
0100
,
0010
1000
0010
1000
,
0001
0100
0001
1000
,
0100
1000
0010
0010
,
0100
0001
0010
0001
,
0100
0010
1000
1000
,
0001
0010
0000
1000
,
0010
0000
0100
0001
,
0010
0010
0000
0100
,
0010
0000
1000
0010
,
0200
0000
0000
0300
0200
0000
0000
0000
,
0000
0000
0000
0000
0000
0302
0203
0320
,
0030
0000
0000
0000
;
