#TITLE:Alien Homonid PDA;
#SUBTITLE:;
#ARTIST:Matthew E. Harwood;
#TITLETRANSLIT:;
#SUBTITLETRANSLIT:;
#ARTISTTRANSLIT:;
#GENRE:;
#CREDIT:;
#BANNER:Alien Homonid PDA-bn.png;
#BACKGROUND:Alien Homonid PDA-bg.png;
#LYRICSPATH:;
#CDTITLE:;
#MUSIC:Alien Hominid PDA.ogg;
#OFFSET:2.550;
#SAMPLESTART:20.181;
#SAMPLELENGTH:12.000;
#SELECTABLE:YES;
#BPMS:0.000=95.000,35.000=-95.000,51.000=95.000,114.000=-95.000,122.000=95.000;
#STOPS:66.875=0.632
;
#SCROLLS:0.000=1.000;
#TIMESIGNATURES:0.000=4=4;
#BGCHANGES:;
#KEYSOUNDS:;

//---------------dance-single - Geriatric Patrick----------------
#NOTES:
     dance-single:
     Geriatric Patrick:
     Challenge:
     9:
     0.714,0.919,0.301,0.000,1.000:
0000
0000
0000
0000
,
1000
0000
0010
0000
0110
0000
0001
0010
0100
0000
1000
0000
1100
0000
0010
0001
,
0010
0000
0100
0000
1001
0000
0001
0100
0010
0000
0100
0000
1010
0000
0100
0001
,
0100
0000
0010
0000
0011
0000
0100
0001
1000
0000
0001
0000
0101
0000
1000
0010
,
1000
0000
0100
0000
0011
0000
0100
1000
0010
0000
1000
0000
0101
0000
0010
0100
,
0010
0000
0001
0000
1001
0000
0001
0010
0100
0000
0001
0000
1001
0000
0010
0001
,
0010
0000
0100
0000
1100
0000
0010
0100
1000
0000
0100
0000
0101
0000
1000
0100
,
1000
0000
0001
0000
0110
0000
0010
0001
0100
0000
0001
0000
1100
0000
0001
0100
,
0001
0000
0000
0000
0010
0000
0000
0000
0110
0000
0000
0000
0001
0000
1000
0000
0010
0000
1000
0000
0001
0000
0100
0000
000M
00M0
0M00
M000
0000
0000
0000
0000
,
0000
0000
0000
0000
,
0000
0000
0000
0000
,
0000
0000
0000
0000
,
0000
0000
0000
0000
,
0000
0000
0000
0000
,
0000
0000
0000
0000
,
0000
0000
0000
0000
,
0000
0000
0000
0000
0000
0000
0000
0000
0000
0000
0000
0000
0001
1000
0000
0001
,
0010
0000
0100
0001
0000
0100
0010
0100
0001
0100
0010
0100
1000
0001
0000
1000
,
0010
0000
0100
1000
0000
0100
0001
0100
1000
0100
0001
0100
0010
1000
0000
0010
,
0100
0000
0010
0001
0000
0001
0010
0100
0000
0100
0010
1000
0001
0010
0000
1000
,
0100
0000
0010
1000
0000
0010
0100
0010
1000
0010
0100
0010
0001
000M
000M
0001
,
000M
0M00
0100
0M00
M000
1000
M000
0M00
0100
0M0M
0001
0000
1000
0010
0000
0100
,
0001
0000
0100
1000
0000
0100
0010
0100
1000
0100
0010
0100
0001
1000
0000
0001
,
0010
0000
0001
1000
0000
1000
0010
0100
0000
0100
1000
0100
0001
1000
0000
0001
,
0010
0000
0100
0001
0000
0100
1000
0100
0001
0100
1000
0100
0010
0010
0001
1000
,
0001
1000
0010
0010
0100
0001
0100
0001
0010
0010
0001
1000
0010
0010
1000
0001
,
0100
0001
1000
1000
0100
0010
0100
0010
0001
0001
1000
0100
0010
0010
0001
1000
,
0010
0100
0001
0001
0100
0010
1000
0001
0010
0010
0001
1000
0010
0010
1000
0100
,
0010
0000
0100
0000
0001
0000
0001
0000
0100
0000
0010
0000
0100
0000
1000
0000
000M
00M0
0M00
M000
0000
0000
0000
0000
0000
0000
0000
0000
0000
0000
0000
0000
;

//---------------dance-single - ----------------
#NOTES:
     dance-single:
     :
     Hard:
     8:
     0.516,0.600,0.301,0.000,0.472:
0000
0000
0000
0000
,
0001
1000
1001
0001
0100
0010
0110
0100
,
0001
0010
0011
0001
1000
0010
1010
1000
,
0001
0100
0110
0010
1000
0100
0110
0010
,
0001
1000
1010
0010
0100
0001
1001
1000
,
0100
0010
0011
0001
1000
0010
0110
0100
,
0001
1000
1100
0100
0010
0001
1001
1000
,
0100
0010
0011
0001
0100
0010
1010
1000
,
0100
0010
0110
0100
1000
0001
0000
0000
,
0000
0000
0000
0000
,
0000
0000
0000
0000
,
0000
0000
0000
0000
,
0000
0000
0000
0000
,
0000
0000
0000
0000
,
0000
0000
0000
0000
,
0000
0000
0000
0000
,
0000
0000
0000
0000
0000
0000
0000
0000
0000
0000
0000
0000
1000
0100
0000
1000
,
0001
0000
1000
0010
0000
0010
0100
0000
0010
0000
1000
0000
0001
0010
0000
0001
,
0100
0000
0001
1000
0000
1000
0100
0000
1000
0000
0001
0000
1000
0100
0000
1000
,
0001
0000
0010
0100
0000
0010
0001
0010
0000
0001
0010
0000
0100
1000
0000
0001
,
0100
0000
0001
0010
0000
0010
0100
0000
0010
0000
0100
0000
1000
0000
0000
1000
,
0000
0000
0010
0000
0000
0001
0000
0000
0010
0000
0100
0000
0001
1000
0000
0001
,
0100
0000
0001
0010
0000
0010
0100
0000
1000
0000
0100
0000
0010
0001
0000
0010
,
0100
0000
1000
0001
0000
1000
0010
1000
0000
0010
1000
0000
0001
0100
0000
0001
,
1000
0000
0001
0010
0000
0010
0100
0000
0010
0000
0001
0000
1000
0100
0000
0000
,
0000
0000
0001
0100
0000
0000
0000
0000
1000
0100
0000
0000
0001
0010
0000
0000
,
0000
0000
1000
0100
0000
0000
0000
0000
0001
0010
0000
0000
1000
0100
0000
0000
,
0000
0000
0010
1000
0000
0000
0000
0000
1000
0100
0000
0000
0001
0010
0000
0000
,
0000
0000
0100
0001
0000
0001
0100
0001
0000
0000
0000
0000
0000
0000
0000
0000
;

//---------------dance-single - ----------------
#NOTES:
     dance-single:
     :
     Medium:
     6:
     0.301,0.342,0.301,0.000,0.070:
0000
0000
0000
0000
,
0001
1001
0100
0110
,
0001
0011
1000
1010
,
0001
0110
1000
0110
,
0001
1010
0100
1001
,
0100
0011
1000
0110
,
0001
1100
0010
1001
,
0100
0011
0100
1010
,
0100
0110
1000
0000
,
0000
0000
0000
0000
,
0000
0000
0000
0000
,
0000
0000
0000
0000
,
0000
0000
0000
0000
,
0000
0000
0000
0000
,
0000
0000
0000
0000
,
0000
0000
0000
0000
,
0000
0000
0000
1000
,
0001
0000
0000
0010
0000
0000
0001
0000
1000
0000
0010
0000
1000
0000
0000
0000
,
0100
0000
0000
0010
0000
0000
0100
0000
1000
0000
0001
0000
0100
0000
0000
0000
,
0001
0010
0000
0001
0000
0010
0100
0000
,
1000
0000
0000
0010
0000
0000
1000
0000
0001
0000
1000
0000
0100
0000
0000
0100
,
0000
0000
0010
0000
0000
0001
0000
0000
0010
0000
0100
0000
1000
0000
0000
0000
,
0001
0000
0000
0010
0000
0000
0001
0000
0100
0000
0010
0000
1000
0000
0000
0000
,
0010
0100
0000
0010
0000
0100
0001
0000
,
1000
0000
0000
0010
0000
0000
1000
0000
0001
0000
0010
0000
0100
0000
0000
0000
,
0M00
0100
0000
0M00
0100
0M00
0100
0000
,
0M00
0100
0000
0M00
0100
0M00
0100
0000
,
0M00
0100
0000
0M00
0100
0M00
0100
0000
,
0M00
0100
1000
0001
0000
0000
0000
0000
;
