#TITLE:8-bit;
#SUBTITLE:;
#ARTIST:Drew Campbell;
#TITLETRANSLIT:;
#SUBTITLETRANSLIT:;
#ARTISTTRANSLIT:;
#GENRE:;
#CREDIT:;
#BANNER:8-bit-bn.png;
#BACKGROUND:8-bit-bg.png;
#LYRICSPATH:;
#CDTITLE:cdtitle.png;
#MUSIC:8-bit.mp3;
#OFFSET:0.000;
#SAMPLESTART:56.000;
#SAMPLELENGTH:18.400;
#SELECTABLE:YES;
#BPMS:0.000=209.361;
#STOPS:;
#SCROLLS:0.000=1.000;
#TIMESIGNATURES:0.000=4=4;
#BGCHANGES:4.000=NES01.jpg=1.000=1=0=1===CrossFade==,
20.000=NES02.jpg=1.000=1=0=1===CrossFade==,
36.000=NES03.jpg=1.000=1=0=1===CrossFade==,
52.000=NES04.jpg=1.000=1=0=1===CrossFade==,
68.000=NES05.jpg=1.000=1=0=1===CrossFade==,
84.000=NES06.jpg=1.000=1=0=1===CrossFade==,
100.000=NES07.jpg=1.000=1=0=1===CrossFade==,
116.000=NES08.jpg=1.000=1=0=1===CrossFade==,
132.000=NES09.jpg=1.000=1=0=1===CrossFade==,
140.000=NES10.jpg=1.000=1=0=1===CrossFade==,
148.000=NES11.jpg=1.000=1=0=1===CrossFade==,
156.000=NES12.jpg=1.000=1=0=1===CrossFade==,
164.000=NES13.jpg=1.000=1=0=1===CrossFade==,
172.000=NES14.jpg=1.000=1=0=1===CrossFade==,
180.000=NES15.jpg=1.000=1=0=1===CrossFade==,
188.000=NES16.jpg=1.000=1=0=1===CrossFade==,
196.000=NES17.jpg=1.000=1=0=1===CrossFade==,
208.000=NES18.jpg=1.000=1=0=1===CrossFade==,
220.000=NES19.jpg=1.000=1=0=1===CrossFade==,
232.000=NES20.jpg=1.000=1=0=1===CrossFade==,
244.000=NES21.jpg=1.000=1=0=1===CrossFade==,
252.000=NES22.jpg=1.000=1=0=1===CrossFade==,
260.000=NES23.jpg=1.000=1=0=1===CrossFade==,
268.000=NES24.jpg=1.000=1=0=1===CrossFade==,
276.000=NES25.jpg=1.000=1=0=1===CrossFade==,
284.000=NES26.jpg=1.000=1=0=1===CrossFade==,
292.000=NES27.jpg=1.000=1=0=1===CrossFade==,
300.000=NES28.jpg=1.000=1=0=1===CrossFade==,
308.000=NES29.jpg=1.000=1=0=1===CrossFade==,
316.000=NES30.jpg=1.000=1=0=1===CrossFade==,
324.000=NES31.jpg=1.000=1=0=1===CrossFade==,
336.000=NES32.jpg=1.000=1=0=1===CrossFade==,
348.000=NES33.jpg=1.000=1=0=1===CrossFade==,
356.000=NES34.jpg=1.000=1=0=1===CrossFade==,
364.000=NES35.jpg=1.000=1=0=1===CrossFade==,
372.000=NES36.jpg=1.000=1=0=1===CrossFade==,
380.000=NES37.jpg=1.000=1=0=1===CrossFade==,
388.000=NES38.jpg=1.000=1=0=1===CrossFade==,
396.000=NES39.jpg=1.000=1=0=1===CrossFade==,
404.000=NES40.jpg=1.000=1=0=1===CrossFade==,
412.000=NES41.jpg=1.000=1=0=1===CrossFade==,
420.000=NES42.jpg=1.000=1=0=1===CrossFade==,
428.000=NES43.jpg=1.000=1=0=1===CrossFade==,
436.000=NES44.jpg=1.000=1=0=1===CrossFade==,
444.000=NES45.jpg=1.000=1=0=1===CrossFade==,
452.000=NES46.jpg=1.000=1=0=1===CrossFade==,
468.000=NES47.jpg=1.000=1=0=1===CrossFade==,
484.000=NES48.jpg=1.000=1=0=1===CrossFade==,
492.000=NES49.jpg=1.000=1=0=1===CrossFade==,
500.000=NES50.jpg=1.000=1=0=1===CrossFade==,
508.000=NES51.jpg=1.000=1=0=1===CrossFade==,
516.000=NES52.jpg=1.000=1=0=1===CrossFade==,
532.000=NES53.jpg=1.000=1=0=1===CrossFade==,
548.000=NES54.jpg=1.000=1=0=1===CrossFade==,
564.000=NES55.jpg=1.000=1=0=1===CrossFade==,
580.000=NES56.jpg=1.000=1=0=1===CrossFade==,
596.000=NES57.jpg=1.000=1=0=1===CrossFade==,
612.000=NES58.jpg=1.000=1=0=1===CrossFade==,
628.000=NES59.jpg=1.000=1=0=1===CrossFade==,
636.000=NES68.jpg=1.000=1=0=1===CrossFade==,
644.000=TEXT1.jpg=1.000=1=0=1===CrossFade==,
652.000=TEXT2.jpg=1.000=1=0=1===CrossFade==,
660.000=TEXT3.jpg=1.000=1=0=1===CrossFade==,
668.000=TEXT4.jpg=1.000=1=0=1===CrossFade==,
676.000=TEXT5.jpg=1.000=1=0=1===CrossFade==,
692.000=TEXT6.jpg=1.000=1=0=1===CrossFade==,
708.000=NES60.jpg=1.000=1=0=1===CrossFade==,
716.000=NES61.jpg=1.000=1=0=1===CrossFade==,
724.000=NES62.jpg=1.000=1=0=1===CrossFade==,
732.000=NES63.jpg=1.000=1=0=1===CrossFade==,
740.000=NES64.jpg=1.000=1=0=1===CrossFade==,
748.000=NES65.jpg=1.000=1=0=1===CrossFade==,
756.000=NES66.jpg=1.000=1=0=1===CrossFade==,
764.000=NES67.jpg=1.000=1=0=1===CrossFade==,
772.000=MarioBefore.jpg=1.000=1=0=1===CrossFade==,
788.000=MarioAfter.jpg=1.000=1=0=1===CrossFade==,
804.000=GameOver.jpg=1.000=0=0=1=====,
99999=-nosongbg-=1.000=0=0=0 // don't automatically add -songbackground-
;
#KEYSOUNDS:;

//---------------dance-single - Geriatric Patrick----------------
#NOTES:
     dance-single:
     Geriatric Patrick:
     Hard:
     9:
     0.618,0.741,0.421,0.465,0.052:
0000
0000
0000
0000
0000
0000
0000
0000
0000
0000
0000
0000
0000
0000
1000
0001
,
0200
0000
0320
0000
,
0000
0000
0000
0000
0000
0000
0000
0000
0031
0000
0000
0000
0000
0000
0010
2000
,
0002
0000
0000
0000
,
0000
0000
0000
0000
0000
0000
0000
0000
3003
0000
0000
0000
0000
0000
0010
0100
,
2000
0000
3020
0000
,
0000
0000
0130
0000
,
0022
0000
0030
2000
0000
0000
0000
0003
,
0020
0000
0030
0200
0000
0000
3000
0000
,
2300
0000
0000
0002
0000
0003
0020
0000
,
0000
0000
3000
0000
0031
0010
1000
0010
,
0200
0000
0001
0010
0300
0010
2000
0000
,
0000
0000
0000
0000
0000
0000
0000
0000
0000
0000
0000
0000
3000
0000
0010
0001
,
0200
0000
0000
0000
,
0000
0000
0000
0000
0000
0000
0301
0001
,
2000
0000
0000
0020
0000
3000
1030
0000
,
2002
0000
0000
0000
0000
0000
0000
3003
,
0100
0000
0020
0000
,
0000
0000
0000
0000
0000
0000
0000
0000
1030
0000
0000
0000
0000
0000
0001
0100
,
0002
1000
0000
1000
,
0000
0000
0000
0000
1000
0000
0000
0000
0000
0000
0000
0000
1003
0000
0100
0010
,
0100
0000
0020
0000
,
0000
0000
0130
0000
,
2002
0000
0003
0200
0000
0000
0000
0300
,
0020
0000
3000
0200
0000
0000
0030
0000
,
0302
0000
0000
0203
0000
0000
2300
0000
,
0000
0000
0000
0000
3100
0001
0010
0100
,
0002
0000
0103
0020
0000
0130
2000
0000
,
0000
0000
0000
0000
0001
0000
0000
0000
0000
0000
0000
0000
3001
0000
0010
0001
,
0200
1000
0000
1000
,
0000
0000
1000
0000
0000
0000
1300
0100
,
0002
0000
0000
0023
0000
0000
0031
0000
,
0202
0000
0000
0000
0000
0000
0000
0003
,
0301
0100
0001
0100
0000
0010
1000
0100
,
1000
0100
0000
0000
0000
0001
0100
1000
,
0020
0000
0000
0130
0000
0001
0100
0020
,
0000
0000
0000
0030
,
1000
0100
1000
0100
0000
0010
0001
0100
,
0001
0100
0000
0000
0000
1000
0100
0001
,
2002
0000
3003
0100
0000
0001
0010
0220
,
0000
0000
0000
0000
0330
0100
0010
0100
,
1000
0100
0001
0100
1000
0010
0001
0010
,
1000
0100
0001
0100
1000
0010
0001
0010
,
1000
0100
1000
0001
1000
0010
1000
0002
,
2000
0000
0000
0000
0000
0000
0000
0003
,
3010
0001
0010
1000
0010
0100
1000
0100
,
0010
0100
0001
0100
0010
0001
0010
0100
,
0001
0001
1000
1000
0010
0010
0100
0100
,
2000
0000
3020
0000
,
0130
0000
0100
0000
1001
0000
0000
0001
,
0100
0000
0000
0000
0100
0000
1001
0000
0000
0000
1001
0000
0000
0000
0001
1000
,
0100
0000
0100
0000
0011
0000
0000
0001
,
0100
0000
0000
0000
0100
0000
1010
0000
0000
0000
1010
0000
0000
0000
1000
0001
,
1000
0000
0100
0000
1001
0000
0000
0001
,
0100
0000
0000
0000
0001
0000
0011
0000
0000
0000
0011
0000
0000
0000
0010
0100
,
1000
0000
0001
0000
0110
0000
0000
0100
,
1000
0001
1000
0110
0000
0110
0000
0110
,
1000
0000
0110
0000
0000
0001
0011
0010
,
0100
0000
0011
0000
0000
1000
1001
0001
,
1000
0000
1001
0000
0000
0001
1010
1000
,
0100
0000
1010
0000
0000
1000
1100
0100
,
0001
0000
1100
0000
0000
0001
0101
1000
,
0010
0000
0101
0000
0000
0100
0010
0010
,
1001
1000
0001
0000
1100
0100
0010
0000
,
1100
1000
0001
0000
0110
0000
1001
0000
,
0100
0000
0010
0000
0000
0100
1000
0000
,
0100
0000
0010
0000
0000
0100
1000
0000
,
0001
0000
0010
0000
0000
0001
0100
0000
,
0001
0000
0010
0000
0000
0001
0100
0000
,
1000
0000
0011
0000
0000
0001
0101
0000
,
1000
0000
0011
0000
0000
0001
0101
0000
,
1000
0000
1001
0000
0000
0010
0100
0000
,
0001
1001
0000
0001
0110
0000
0110
0000
,
0001
0100
1000
0100
0001
0010
1000
0010
,
0001
0100
1000
0100
0001
0010
1000
0010
,
0001
0100
0001
1000
0001
0010
0001
2000
,
0002
0000
0000
0000
0000
0000
0000
3000
,
0013
1000
0010
0001
0010
0100
0001
0100
,
0010
0100
1000
0100
0010
1000
0010
0100
,
1000
1000
0001
0001
0010
0010
0100
0100
,
0002
0000
0023
0000
,
0130
0000
0100
0000
2001
0000
0000
0001
,
0100
0000
0000
0000
0100
0000
0010
0000
3000
0000
0010
0000
0000
0000
0001
0010
,
0200
0000
0010
0000
,
0000
0000
0000
0000
0000
0000
0010
0000
0300
0000
0010
0000
0000
0000
0100
1000
,
0001
0000
0001
0000
0120
0000
0000
0100
,
0001
0000
0000
0000
0001
0000
0100
0000
0030
0000
0100
0000
0000
0000
1000
0002
,
2000
0000
3000
0200
0000
0000
0000
0003
,
0020
0000
0030
0002
0000
0000
0303
0010
,
1000
0000
0110
0000
0000
0100
0010
0010
,
0001
0000
0110
0000
1000
0100
0010
0100
,
0001
0000
0100
1000
0000
1000
0010
0010
,
0100
0000
1001
0000
0000
0001
0010
0010
,
0100
0000
1001
0000
0000
1000
0010
0010
,
0100
0000
1001
0000
0000
0001
0010
0010
,
2000
0000
0000
0020
0000
3000
0002
0030
,
2000
0000
0003
3000
,
0001
0010
0100
1000
0000
0001
1000
0100
,
0010
0001
0000
0000
0000
0100
1000
0100
,
0020
0000
0000
0130
0000
0001
0100
0020
,
0000
0000
0000
0030
,
1000
0100
0010
0001
0000
0010
1000
0100
,
0010
0001
0000
0000
0000
0010
0100
0001
,
2002
0000
3003
0100
0000
0001
0010
0220
,
0000
0000
0000
0000
0330
0100
0010
0100
,
1000
0100
0001
0100
1000
0010
0001
0010
,
1000
0100
0001
0100
1000
0010
0001
0010
,
1000
0100
1000
0001
1000
0010
1000
0002
,
2000
0000
0000
0000
0000
0000
0000
0003
,
3010
0001
0010
1000
0010
0100
1000
0100
,
0010
0100
0001
0100
0010
0001
0010
0100
,
0001
0001
1000
1000
0010
0010
0100
0100
,
2000
0000
3002
0000
,
0103
0000
0100
0000
1001
0000
0000
0001
,
0100
0000
0000
0000
0100
0000
1001
0000
0000
0000
1001
0000
0000
0000
0001
1000
,
0100
0000
0100
0000
0011
0000
0000
0001
,
0100
0000
0000
0000
0100
0000
1010
0000
0000
0000
1010
0000
0000
0000
1000
0001
,
1000
0000
0100
0000
1001
0000
0000
0001
,
0100
0000
0000
0000
0001
0000
0011
0000
0000
0000
0011
0000
0000
0000
0010
0100
,
1000
0000
0001
0000
0110
0000
0000
0100
,
1000
0001
1000
0010
0000
0010
0000
0010
,
0101
0000
0010
0000
0000
0100
0001
0100
,
0101
0000
0010
0000
1000
0010
0001
0010
,
0110
0000
0001
0010
0000
0010
0001
0100
,
0101
0000
0010
0000
0000
0100
0001
1000
,
1100
0000
0010
0000
0000
0100
1000
0100
,
1100
0000
0010
0000
0000
0100
1000
0001
,
1001
1000
0010
0000
0110
0010
0001
0000
,
1001
0001
0100
0000
0110
0000
1001
0000
,
0000
0001
0100
0001
0000
0001
0100
0001
,
0000
0001
0100
0001
0000
0001
0100
0001
,
0000
0010
0001
0010
0000
0010
0001
0010
,
0000
0010
0001
0010
0000
0010
0001
0010
,
0000
0100
1000
0100
0000
0100
1000
0100
,
0000
0100
0001
0100
0000
0100
0001
0100
,
0000
0010
0100
0010
0000
0100
0010
0100
,
0000
0010
0000
0100
0010
0000
0110
0000
,
0000
1000
0100
1000
0MMM
1000
0100
1000
,
0MMM
1000
0100
1000
0MMM
1000
0100
1000
,
0MMM
0001
0010
0001
000M
0001
0010
0001
,
000M
0001
0010
0001
000M
0001
0010
0001
,
000M
0100
0010
0100
MMMM
0100
0010
0100
,
MMMM
0100
1000
0100
MMMM
0100
1000
0100
,
MMMM
1000
0001
1000
M000
0001
1000
0001
,
M000
0000
1000
0000
0000
0000
0001
0000
1000
0000
0000
0000
1001
0000
0100
0010
,
0200
0000
0320
0000
,
0000
0000
0031
0000
,
2002
0000
0000
0000
,
0000
0000
0000
0000
0000
0000
0000
0000
3003
0000
0000
0000
0000
0000
0010
0100
,
2000
0000
3020
0000
,
0000
0000
0130
0000
,
0022
0000
0030
2000
0000
0003
0000
0000
,
0020
0000
0030
0200
0000
3000
0000
0300
,
2000
0000
0000
3200
0000
0000
0302
0000
,
0000
0000
0000
0000
0103
1000
0010
0100
,
2000
0000
3100
0020
0000
0130
0002
0000
,
0000
0000
0000
0000
1000
0000
0000
0000
0000
0000
0000
0000
1003
0000
0010
1000
,
0200
0001
0000
0001
,
0000
0000
0001
0000
0000
0000
0301
0100
,
2000
0000
0000
0020
3000
0000
0130
0000
,
2002
0000
0000
0000
,
3003
0000
0000
0000
,
0000
0000
0000
0000
,
0000
0000
0000
0000
,
0000
0000
0000
0000
,
0000
0000
0000
0000
,
0000
0000
0000
0000
,
0000
0000
0000
0000
,
0000
0000
0000
0000
,
0000
1000
0000
1000
,
0000
0100
0000
0100
,
0000
0010
0000
0010
,
0000
0001
0000
0001
,
0000
1000
0000
0001
,
0000
1000
0000
0001
,
0000
0000
0000
0000
,
0100
0000
1001
0000
0000
0000
0100
0000
1010
0000
0000
0000
0101
0000
0001
1000
,
0001
0000
0100
0000
1001
0000
0000
0001
,
0100
0000
0000
0000
0100
0000
1001
0000
0000
0000
1001
0000
0000
0000
0001
1000
,
0100
0000
0100
0000
1010
0000
0000
1000
,
0100
0000
0000
0000
0100
0000
0011
0000
0000
0000
0011
0000
0000
0000
0001
0100
,
0001
0000
1000
0000
0110
0000
0000
0100
,
0001
0000
0000
0000
0100
0000
0110
0000
0000
0000
1001
0000
0000
0000
0010
0100
,
1000
0000
0001
0000
0110
0000
0000
1000
,
0100
0001
1000
0001
0000
1001
0000
0110
,
2000
0000
0000
0001
0000
0000
0020
0000
,
0000
3000
0000
0000
0031
0010
1000
0010
,
0200
0000
0001
0010
0300
0010
2000
0000
,
0000
0000
0000
0000
0000
0000
0000
0000
0000
0000
0000
0000
3000
0000
0010
0001
,
0200
0000
0000
0000
,
0000
0000
0000
0000
0000
0000
0301
0001
,
2000
0000
0000
0020
0000
3000
1030
0000
,
2002
0000
0000
0000
,
3003
0000
0000
0000
,
0000
0000
0000
0000
,
0000
0000
0000
0000
,
0000
0000
0000
0000
,
0000
0000
0000
0000
,
0000
0000
0000
0000
,
0000
0000
0000
0000
,
0000
0110
0000
1000
0011
0000
1100
0000
;

//---------------dance-single - geriatric Patrick----------------
#NOTES:
     dance-single:
     geriatric Patrick:
     Medium:
     8:
     0.431,0.671,0.030,0.226,0.004:
0000
0000
0000
0000
,
0000
0000
0000
0000
,
0000
0000
0000
0000
,
0000
0000
0000
0000
,
0000
0000
0000
0000
,
0000
0000
0000
0000
,
0000
0000
0000
0000
,
0000
0000
0000
0000
,
0000
0000
0000
0000
,
0000
0000
0000
0000
,
0000
0000
0000
0000
,
0000
0000
0000
0000
,
0000
0000
0000
0000
,
0000
0000
0000
0000
,
0000
0000
0000
0000
,
0000
0000
0000
0000
,
0000
0000
0000
0000
,
1000
0000
0020
0000
,
0000
0000
1030
0000
,
0002
0000
0000
0000
,
0000
0000
0003
0000
,
0100
0000
2000
0000
,
0000
0000
3100
0000
,
0020
0000
0000
0100
0000
0000
0000
0000
,
0001
0000
0000
0100
0030
0000
0000
0000
,
0002
0000
0000
0100
0000
0000
0020
0000
,
0003
0000
0000
0000
0031
1000
0001
1000
,
0100
0000
1000
0010
0000
0010
0200
0000
,
0000
0000
0000
0000
0000
0000
0000
0300
,
2000
0000
0000
0000
,
0000
0000
0000
0000
0000
0000
3100
0010
,
0002
0000
0000
0010
0000
0000
2003
0000
,
0002
0000
0000
3003
,
0100
0010
0100
0010
0000
1000
0001
0100
,
0001
0100
0000
0000
0000
1000
0100
1000
,
0020
0000
0000
0130
0000
0001
0100
0020
,
0000
0000
0030
0000
,
1000
0100
1000
0100
0000
0001
0010
0100
,
0010
0100
0000
0000
0000
1000
0100
0010
,
0002
0000
0000
0103
0000
1000
0100
0002
,
0000
0000
0000
0000
0003
1000
0100
1000
,
0001
0100
0010
0100
0001
0100
0010
0100
,
0001
0100
0010
0100
0001
0100
0010
0100
,
0001
0100
0001
1000
0001
0010
0001
1000
,
0002
0000
0000
0003
,
0010
0100
0010
0100
1000
0100
1000
0100
,
1000
0001
1000
0001
0100
0001
0100
0001
,
1000
0100
1000
0001
1000
0010
1000
0001
,
0200
0000
0320
0000
,
0130
0000
2000
0000
,
0000
0000
3001
0000
,
0200
0000
0000
0000
,
0000
0000
0300
0000
,
1000
0000
0002
0000
,
0000
0000
0103
0000
,
0020
0000
0000
1000
0000
0000
0000
0000
,
0100
0000
0000
0001
0030
0000
0000
0000
,
2000
0000
0000
0100
0000
0000
0020
0000
,
3000
0000
0000
0000
1030
0001
1000
0001
,
0100
0000
0001
0010
0000
0010
0200
0000
,
0000
0000
0000
0000
0000
0000
0000
0300
,
0002
0000
0000
0000
,
0000
0000
0000
0000
0000
0000
0103
0010
,
2000
0000
0000
0010
0000
0000
3002
0000
,
2000
0000
0000
3003
,
0001
0000
0010
0000
0000
0001
0010
0000
,
0001
0000
0010
0000
0000
0001
0010
0000
,
0100
0000
0010
0000
0000
0100
0010
0000
,
0100
0000
0010
0000
0000
0100
0010
0000
,
0001
0000
1000
0000
0000
0001
0010
0000
,
0001
0000
1000
0000
0000
0001
0010
0000
,
0100
0000
1000
0000
0000
0100
0010
0000
,
0100
1000
0000
0100
0010
0000
0010
0000
,
0100
0000
0010
0000
0000
0001
1000
0001
,
0100
0000
0010
0000
0000
1000
0001
1000
,
0100
0000
0010
0000
0000
0001
1000
0001
,
0100
0000
0010
0000
0000
1000
0001
1000
,
0100
0000
0010
0000
0000
0100
1000
0001
,
0100
0000
0010
0000
0000
0100
0001
1000
,
0100
0000
0010
0000
0000
1000
0100
0010
,
0001
1000
0000
0001
1000
0000
1000
0000
,
0110
0000
0110
0000
0001
0000
0000
0001
,
0100
0000
0100
0010
0000
0010
0000
1000
,
0100
0000
0100
0000
0010
0000
0000
0010
,
0100
0000
0001
1000
0000
1000
0000
0001
,
0100
0000
0100
0000
0001
0000
0000
1000
,
0100
0000
0100
1000
0000
1000
0000
0001
,
0100
0000
0001
0000
0010
0000
0000
0001
,
0100
0001
0100
0010
0000
0010
0000
0010
,
0100
0000
0010
0000
0000
1000
0001
1000
,
0100
0000
0010
0000
0000
0001
1000
0001
,
0100
0000
0010
0000
0000
0100
0001
1000
,
0100
0000
0010
0000
0000
0100
1000
0001
,
0100
0000
0010
0000
0000
1000
0100
0010
,
0100
0000
0010
0000
0000
0001
1000
0010
,
0100
0001
0010
0000
0100
1000
0010
0000
,
0100
0001
0010
0000
0101
0000
0011
0000
,
1000
0100
1000
0001
0000
0001
1000
0100
,
1000
0001
0000
0000
0000
0100
0001
0100
,
0020
0000
0000
0130
0000
0001
0100
0020
,
0000
0000
0030
0000
,
1000
0100
0010
0001
0000
0001
1000
0100
,
0010
0001
0000
0000
0000
1000
0001
0100
,
0020
0000
0000
1030
0000
0100
1000
0010
,
0100
0010
0000
0100
0010
0000
0010
0000
,
1000
0100
0010
0100
1000
0100
0010
0100
,
1000
0100
0010
0100
1000
0100
0010
0100
,
1000
0100
1000
0001
1000
0010
1000
0001
,
2000
0000
0000
3000
,
0010
0100
0010
0100
0001
0100
0001
0100
,
0001
1000
0001
1000
0100
1000
0100
1000
,
0001
0100
0001
1000
0001
0010
0001
1000
,
0200
0000
0320
0000
,
0130
0000
0100
0000
1001
0000
0000
0001
,
0100
0000
0100
0001
0000
0001
0000
1000
,
0100
0000
1000
0000
0010
0000
0000
0010
,
0100
0000
0100
0010
0000
0010
0000
0010
,
1000
0000
1000
0000
1001
0000
0000
0010
,
0001
0000
0001
0010
0000
0010
0000
0001
,
0100
0000
0001
0000
0010
0000
0000
1000
,
0100
1000
0100
0010
0000
0010
0000
0010
,
0100
0000
0010
0000
0000
0001
1000
0001
,
0100
0000
0010
0000
0010
1000
0001
1000
,
0100
0000
0100
0010
0000
0001
1000
0001
,
0100
0000
0010
0000
0000
1000
0001
1000
,
0100
0000
0010
0000
0000
0001
0100
0001
,
0100
0000
0010
0000
0000
1000
0100
1000
,
0002
0000
0000
0010
0000
0000
2003
0000
,
0002
0000
0000
3003
,
0000
MMM1
0000
MMM1
,
0000
MMM1
0000
MMM1
,
0000
MM1M
0000
MM1M
,
0000
MM1M
0000
MM1M
,
0000
1MMM
0000
1MMM
,
0000
1MMM
0000
1MMM
,
0000
M1MM
0000
M1MM
,
1000
0001
0000
1000
0001
0000
0001
0000
,
0000
0100
0010
0100
0000
0100
0010
0100
,
0000
0100
0010
0100
0000
0100
0010
0100
,
0000
0010
1000
0010
0000
0010
1000
0010
,
0000
0010
1000
0010
0000
0010
1000
0010
,
0000
0100
0001
0100
0000
0100
0001
0100
,
0000
0100
0001
0100
0000
0100
0001
0100
,
0000
0000
0000
0000
,
1000
0010
0000
1000
0010
0000
0010
0000
,
0100
0001
0020
0000
,
0100
0000
0000
0001
0030
0001
0000
0000
,
2000
0001
0010
0000
,
0100
0000
0000
0010
0000
0010
3000
0000
,
0100
0100
0002
0000
,
0100
0000
0000
1000
0003
1000
0000
0000
,
0020
0100
1000
0000
,
0100
0000
0000
1000
0030
1000
0000
1000
,
0002
0000
0000
0100
0000
0000
0020
0000
,
0003
0000
0000
0000
0031
0100
0001
1000
,
0100
0000
1000
0010
0000
0010
0200
0000
,
0000
0000
0000
0000
0000
0000
0000
0300
,
2000
0000
0000
0000
,
0000
0000
0000
0000
0000
0000
3100
0010
,
0002
0000
0000
0010
0000
0000
2003
0000
,
0002
0000
0000
3003
,
0000
0000
0000
0000
,
0000
0000
0000
0000
,
0000
0000
0000
0000
,
0000
0000
0000
0000
,
0000
0000
0000
0000
,
0000
0000
0000
0000
,
0000
0000
0000
0000
,
0000
0000
0000
0000
,
0000
0000
0000
0000
,
0000
0000
0000
0000
,
0000
0000
0000
0000
,
0000
0000
0000
0000
,
0000
0000
0000
0000
,
0000
0000
0000
0000
,
0000
0000
0000
0000
,
0100
0010
0000
0100
0010
0000
0010
0000
,
1001
0100
0010
0000
,
0100
0000
0100
0010
0000
0010
0000
0000
,
0001
0100
0010
0000
,
0100
0000
0001
0010
0000
0010
0000
0000
,
0100
0100
1000
0000
,
0100
0000
0100
0010
0000
0010
0000
0001
,
0100
0000
0100
0000
0001
0000
0000
0001
,
1000
0100
1000
0010
0000
0010
0000
0010
,
0001
0000
0001
0000
0010
0000
0000
0001
,
0100
0000
0100
0010
0000
0010
0000
1000
,
0100
0000
0100
0000
0010
0000
0000
0100
,
1000
0000
0000
0000
0100
0000
0010
0000
0000
0000
0010
0000
0000
0000
0001
0100
,
0001
0000
0001
0000
0010
0000
0000
0010
,
0100
0000
0000
0000
0100
0000
0010
0000
0000
0000
0010
0000
0000
0000
0001
1000
,
0002
0000
0000
0010
0000
0000
0203
0000
,
0020
0000
0000
0000
,
0330
0000
0000
0000
;

//---------------dance-single - Geriatric Patrick----------------
#NOTES:
     dance-single:
     Geriatric Patrick:
     Easy:
     4:
     0.228,0.335,0.056,0.321,0.000:
0000
0000
0000
0000
,
0000
0000
0000
0000
,
0000
0000
0000
0000
,
0000
0000
0000
0000
,
0000
0000
0000
0000
,
0000
0000
0000
0000
,
0000
0000
0000
0000
,
0000
0000
0000
0000
,
0000
0000
0000
0000
,
0000
0000
0000
0000
,
0000
0000
0000
0000
,
0000
0000
0000
0000
,
0000
0000
0000
0000
,
0000
0000
0000
0000
,
0000
0000
0000
0000
,
0000
0000
0000
0000
,
0000
0000
0000
0000
,
1000
0000
0020
0000
,
0000
0000
1030
0000
,
0002
0000
0000
0000
,
0000
0000
0003
0000
,
0100
0000
2000
0000
,
0000
0000
3100
0000
,
0020
0000
0000
0000
,
0000
0000
0030
0000
,
0002
0000
0000
0003
0000
0000
2000
0000
,
0000
0000
3001
1000
,
0100
0000
0000
0002
,
0000
0000
0000
0003
,
0200
0000
0000
0000
,
0000
0000
0000
0301
,
2000
0000
0000
3000
0000
0000
1000
0000
,
0002
0000
0000
0003
,
0100
0100
0000
1000
,
1000
0000
0000
0100
,
0020
0000
0000
0030
0000
0000
0000
0020
,
0000
0000
0030
0000
,
0001
0001
0000
0100
,
0100
0000
0000
0001
,
2000
0000
0000
3000
0000
0000
0000
0002
,
0000
0000
0003
1000
,
0001
0001
0010
0010
,
0100
0100
1000
1000
,
0001
0100
0010
0100
,
0002
0000
0000
0003
,
0010
0100
0010
0100
,
1000
0100
1000
0100
,
1000
0001
0010
0001
,
0200
0000
0320
0000
,
0130
0000
0002
0000
,
0000
0000
1003
0000
,
0200
0000
0000
0000
,
0000
0000
0300
0000
,
1000
0000
0002
0000
,
0000
0000
0103
0000
,
0020
0000
0000
0000
,
0000
0000
0030
0000
,
2000
0000
0000
3000
0000
0000
0020
0000
,
0000
0000
1030
0001
,
0100
0000
0000
2000
,
0000
0000
0000
3000
,
0200
0000
0000
0000
,
0000
0000
0300
1000
,
0002
0000
0000
0003
0000
0000
1000
0000
,
0020
0000
0030
0000
,
0001
0010
0000
0010
,
0001
0010
0000
0010
,
0100
0010
0000
0010
,
0100
0010
0000
0010
,
0001
1000
0000
0010
,
1000
0001
0000
0010
,
0100
1000
0000
0100
,
0010
0000
0010
0100
,
1000
0001
0000
0001
,
1000
0001
0000
0001
,
1000
0100
0000
0100
,
1000
0100
0000
0100
,
1000
0010
0000
1000
,
0001
0010
0000
0001
,
0100
0010
0000
0100
,
0001
0000
1000
0001
,
1000
0000
0020
0000
,
0000
0000
1030
0000
,
0002
0000
0000
0000
,
0000
0000
0003
0000
,
0100
0000
2000
0000
,
0000
0000
3100
0000
,
0020
0000
0000
0000
,
0000
0000
0030
0000
,
0002
0000
0000
0003
0000
0000
2000
0000
,
0000
0000
3001
1000
,
0100
0000
0000
0002
,
0000
0000
0000
0003
,
0200
0000
0000
0000
,
0000
0000
0000
0301
,
2000
0000
0000
3000
0000
0000
1000
0000
,
0002
0000
0000
0003
,
0100
0100
0000
1000
,
1000
0000
0000
0100
,
0020
0000
0000
0030
0000
0000
0000
0020
,
0000
0000
0030
0000
,
0001
0001
0000
0100
,
0100
0000
0000
0001
,
2000
0000
0000
3000
0000
0000
0000
0002
,
0000
0000
0003
1000
,
0001
0001
0010
0010
,
0100
0100
1000
1000
,
0001
0100
0010
0100
,
0002
0000
0000
0003
,
0010
0100
0010
0100
,
1000
0100
1000
0100
,
1000
0001
0010
0001
,
0200
0000
0320
0000
,
0130
0000
0002
0000
,
0000
0000
1003
0000
,
0200
0000
0000
0000
,
0000
0000
0300
0000
,
1000
0000
0002
0000
,
0000
0000
0103
0000
,
0020
0000
0000
0000
,
0000
0000
0030
0000
,
2000
0000
0000
3000
0000
0000
0020
0000
,
0000
0000
1030
0001
,
0100
0000
0000
2000
,
0000
0000
0000
3000
,
0200
0000
0000
0000
,
0000
0000
0300
1000
,
0002
0000
0000
0003
0000
0000
1000
0000
,
0020
0000
0000
0030
,
0000
0001
0000
0001
,
0000
0001
0000
0001
,
0000
0010
0000
0010
,
0000
0010
0000
0010
,
0000
0001
0000
0001
,
0000
0001
0000
0001
,
0000
0100
0000
0100
,
0000
0100
0000
0100
,
0000
1001
0000
1001
,
0000
1001
0000
1001
,
0000
1010
0000
1010
,
0000
1010
0000
1010
,
0000
1001
0000
1001
,
0000
1001
0000
1001
,
0000
0110
0000
0000
,
1000
0000
0001
0001
,
0100
0000
0020
0000
,
0000
0000
0130
0000
,
0002
0000
0000
0000
,
0000
0000
0003
0000
,
0100
0000
2000
0000
,
0000
0000
3100
0000
,
0020
0000
0000
0000
,
0000
0000
0030
0000
,
0002
0000
0000
0003
0000
0000
2000
0000
,
0000
0000
3001
1000
,
0100
0000
0000
0002
,
0000
0000
0000
0003
,
0200
0000
0000
0000
,
0000
0000
0000
0301
,
2000
0000
0000
3000
0000
0000
1000
0000
,
0002
0000
0000
0003
,
0000
0000
0000
0000
,
0000
0000
0000
0000
,
0000
0000
0000
0000
,
0000
0000
0000
0000
,
0000
0000
0000
0000
,
0000
0000
0000
0000
,
0000
0000
0000
0000
,
0000
0000
0000
0000
,
0000
0000
0000
0000
,
0000
0000
0000
0000
,
0000
0000
0000
0000
,
0000
0000
0000
0000
,
0000
0000
0000
0000
,
0000
0000
0000
0000
,
0000
0000
0000
0000
,
0100
0000
1000
1000
,
0001
0000
0020
0000
,
0000
0000
0031
0000
,
2000
0000
0000
0000
,
0000
0000
3000
0000
,
0100
0000
0002
0000
,
0000
0000
0103
0000
,
0020
0000
0000
0000
,
0000
0000
0030
0000
,
2000
0000
0000
3000
0000
0000
0002
0000
,
0000
0000
1003
0001
,
0100
0000
0000
2000
,
0000
0000
0000
3000
,
0200
0000
0000
0000
,
0000
0000
0000
0300
,
0002
0000
0000
0003
0000
0000
0001
0000
,
2000
0000
0000
0000
,
3000
0000
0000
0000
;
