#TITLE:全力少年;
#SUBTITLE:;
#ARTIST:スキマスイッチ;
#TITLETRANSLIT:Zenryoku Shounen;
#SUBTITLETRANSLIT:;
#ARTISTTRANSLIT:Sukima Switch;
#GENRE:;
#CREDIT:;
#BANNER:Zenryoku Shounen.png;
#BACKGROUND:Zenryoku Shounen-bg.png;
#LYRICSPATH:;
#CDTITLE:;
#MUSIC:Zenryoku Shounen.ogg;
#OFFSET:1.103;
#SAMPLESTART:52.620;
#SAMPLELENGTH:12.000;
#SELECTABLE:YES;
#BPMS:0.000=133.872;
#STOPS:;
#TIMESIGNATURES:0.000=4=4
;
#BGCHANGES:0.000=Zenryoku Shounen.avi=1.000=0=0=0=StretchNoLoop====,
99999=-nosongbg-=1.000=0=0=0 // don't automatically add -songbackground-
;
#KEYSOUNDS:;

//---------------dance-single - Gabe (Zenius-I-vanisher.com)----------------
#NOTES:
     dance-single:
     Gabe (Zenius-I-vanisher.com):
     Beginner:
     1:
     0.071,0.122,0.010,0.000,0.000,48.000,1.000,0.000,0.000,0.000,0.000,0.071,0.122,0.010,0.000,0.000,48.000,1.000,0.000,0.000,0.000,0.000:
0000
0000
0000
0000
,
0000
0000
0000
0000
,
0000
0000
0000
0000
,
0000
0000
0000
0000
,
0000
0000
0000
0000
,
0000
0000
0000
0000
,
0010
0000
0000
0000
,
0000
0000
0000
0000
,
0010
0000
0000
0000
,
0000
0000
0000
0000
,
0010
0000
0000
0000
,
0000
0000
0000
0000
,
0010
0000
0010
0000
,
0010
0000
0000
0000
,
0100
0000
0000
0000
,
0000
0000
0000
0000
,
0100
0000
0000
0000
,
0000
0000
0000
0000
,
0100
0000
0000
0000
,
0000
0000
0000
0000
,
0100
0000
0100
0000
,
0100
0000
0000
0000
,
0010
0000
0000
0000
,
0000
0000
0000
0000
,
0100
0000
0000
0000
,
0000
0000
0000
0000
,
0010
0000
0000
0000
,
0000
0000
0000
0000
,
0100
0000
0000
0000
,
0010
0000
0100
0000
,
1000
0000
0000
0000
,
0010
0000
1000
0000
,
0001
0000
0000
0000
,
0010
0000
0001
0000
,
1000
0000
0000
0000
,
0001
0000
0000
0000
,
0100
0000
0100
0000
,
0010
0010
0010
0000
,
0001
0000
0000
0000
,
0100
0000
0001
0000
,
1000
0000
0000
0000
,
0100
0000
1000
0000
,
0001
0000
0000
0000
,
1000
0000
0000
0000
,
0010
0000
0010
0000
,
0100
0000
0100
0000
,
1000
0000
0001
0000
,
1000
0000
0001
0000
,
1001
0000
0000
0000
;

//---------------dance-single - Gabe (Zenius-I-vanisher.com)----------------
#NOTES:
     dance-single:
     Gabe (Zenius-I-vanisher.com):
     Easy:
     1:
     0.112,0.170,0.000,0.000,0.000,77.000,0.000,0.000,0.000,0.000,0.000,0.112,0.170,0.000,0.000,0.000,77.000,0.000,0.000,0.000,0.000,0.000:
0000
0000
0000
0000
,
0000
0000
0000
0000
,
0000
0000
0000
0000
,
0000
0000
0000
0000
,
0000
0000
0000
0000
,
0000
0000
0000
0000
,
0010
0000
0000
0000
,
0100
0000
0000
0000
,
0010
0000
0000
0000
,
0100
0000
0000
0000
,
0010
0000
0000
0000
,
0100
0000
0000
0000
,
0010
0000
0010
0000
,
0100
0000
0000
0000
,
1000
0000
0000
0000
,
0001
0000
0000
0000
,
1000
0000
0000
0000
,
0001
0000
0000
0000
,
1000
0000
0000
0000
,
0001
0000
0000
0000
,
1000
0000
1000
0000
,
0001
0000
0000
0000
,
0100
0000
0000
0001
,
0100
0000
0000
1000
,
0010
0000
0000
0000
,
0010
0010
0010
0010
,
0001
0000
0000
1000
,
0100
0000
0000
0001
,
0010
0000
1000
0000
,
0100
0100
0100
0100
,
0100
0000
0010
0000
,
0010
0001
0100
0000
,
0100
0000
0010
0000
,
0010
0001
0100
0000
,
0010
0000
0000
0000
,
0100
0000
0000
0000
,
1000
0100
0001
0000
,
1000
0010
0001
0000
,
0100
0000
0010
0000
,
0010
1000
0100
0000
,
0100
0000
0010
0000
,
0010
1000
0100
0000
,
0001
0000
0000
0000
,
1000
0000
0000
0000
,
0010
0010
0001
0100
,
1000
1000
0010
0000
,
0010
0000
0000
0000
,
0100
0000
0000
0000
,
0010
0000
0000
0000
;

//---------------dance-single - Gabe (Zenius-I-vanisher.com)----------------
#NOTES:
     dance-single:
     Gabe (Zenius-I-vanisher.com):
     Medium:
     3:
     0.217,0.198,0.020,0.284,0.000,120.000,2.000,28.000,0.000,0.000,0.000,0.217,0.198,0.020,0.284,0.000,120.000,2.000,28.000,0.000,0.000,0.000:
0000
0000
0000
0000
,
0000
0000
0000
0000
,
0000
0000
0000
0000
,
0000
0000
0000
0000
,
0000
0000
0000
0000
,
0000
0000
0000
0000
,
1000
0010
0001
0010
,
0200
0000
0000
0300
0000
0000
0000
0000
,
2000
3000
0002
0003
,
0100
0000
0000
0010
,
0200
0000
0300
0000
0100
0000
0010
2000
,
0000
3000
1000
0000
,
0200
0000
0300
0000
0001
0000
0000
0100
,
0000
1000
1000
0000
0000
0000
0000
0000
,
0001
0010
1000
1000
,
0200
0000
0000
0300
0000
0000
0000
0000
,
0020
0030
0002
0003
,
0100
0000
0000
0100
,
2000
0000
3000
0000
0100
0000
0010
0002
,
0000
0000
0003
0001
0000
0000
0010
0000
,
0200
0300
0010
1000
,
0200
0000
0000
0300
,
1000
0100
1000
0000
,
0001
0100
0001
0000
,
1000
0100
0001
0000
,
1000
0100
0001
0010
,
2002
0000
0000
3003
,
0100
0000
0000
0010
0000
0000
1000
0000
,
0001
0000
0000
1000
0000
0000
0000
0010
,
0000
0100
0001
1000
,
0001
0001
0010
1000
,
2000
3010
0100
0000
,
1000
1000
0010
0001
,
0002
0013
0100
0000
,
0001
0000
0000
2000
0000
0000
3000
0000
,
1000
0000
0000
0002
0000
0000
0003
0000
,
0001
0000
0000
0100
0000
1000
0000
2000
,
0000
3001
0000
0020
0000
0000
0030
0000
,
1000
1000
0010
0001
,
0002
0013
0100
0000
,
0001
0001
0010
1000
,
2000
3010
0100
0000
,
0010
0000
0000
0001
0000
1000
0000
2000
,
0000
0000
3000
0100
0000
0010
0010
0000
,
1000
0000
0010
0000
0001
0001
0000
0200
,
0000
0000
0300
1000
0000
0001
0000
0000
,
0010
0001
0100
1000
,
0200
0000
0000
0310
,
2002
0000
0000
3003
;

//---------------dance-single - Gabe (Zenius-I-vanisher.com)----------------
#NOTES:
     dance-single:
     Gabe (Zenius-I-vanisher.com):
     Hard:
     6:
     0.414,0.420,0.406,0.446,0.010,202.000,40.000,44.000,0.000,0.000,0.000,0.414,0.420,0.406,0.446,0.010,202.000,40.000,44.000,0.000,0.000,0.000:
0000
0000
0000
0000
,
0000
0000
0000
0000
,
0000
0000
0000
0000
0000
0000
0000
0100
,
1000
0000
0000
0100
0001
0200
0000
0320
,
0000
0000
2000
0000
0000
0030
3001
0000
,
1001
0000
0000
1000
0002
1000
0003
0000
,
1000
0100
1000
0000
0100
0000
0010
0000
,
0100
0001
0100
2000
0000
3000
1000
0020
,
0000
0130
0001
0020
0000
0130
1000
0020
,
0000
0000
0030
0000
0010
0000
0001
0200
,
0000
0301
1000
0000
1000
0000
0100
0020
,
0000
0000
0000
0230
0000
0000
0300
1000
,
0001
0000
0001
0000
0010
0000
0100
0010
,
0000
0020
0200
0000
0330
0000
0110
0000
,
0001
0100
0001
0000
0100
0000
0010
0000
,
0100
1000
0100
0002
0000
0003
0001
0020
,
0000
0130
1000
0020
0000
0130
0001
0020
,
0000
0000
0030
0000
0010
0000
1000
0200
,
0000
1300
0100
0000
0001
0000
0001
0200
,
0000
0000
0000
0310
0000
0000
0000
1000
,
0001
0000
1000
0000
0001
0000
0000
0000
0010
0000
0000
0010
0000
0000
2002
0000
,
0000
0000
3003
0100
0000
0100
0010
0000
,
2000
0000
0000
0000
0000
3001
0100
0020
,
0000
0000
0100
0000
0100
0000
0130
0001
,
0200
0000
0301
2000
0000
3100
0000
1001
,
0000
1100
0000
1001
0000
0101
0000
0012
,
0000
0000
0000
0000
0100
0000
0003
0100
,
0002
0000
1000
0000
1003
0000
0001
1000
,
0020
0000
0100
0230
0000
0001
0001
0302
,
0000
1003
0110
1001
,
0011
0000
0101
0000
0010
0001
0100
0001
,
0000
0001
1000
0000
0101
0000
0011
0000
,
1010
0000
1100
0000
0010
1000
0100
1000
,
0000
1000
0001
0000
1100
0000
1010
0000
,
1000
0100
1000
0020
0000
0000
0130
0100
,
0001
0100
0001
0020
0000
0000
0130
0100
,
0010
0000
0000
0001
0000
0000
0101
0000
0000
0000
1001
0000
0000
0000
1010
0000
,
0000
0101
0000
2002
0000
0000
3003
0000
,
1010
0000
0011
0000
0010
1000
0010
0001
,
0000
0100
0010
0000
0011
0000
1010
0000
,
1100
0000
0101
0000
0100
1000
0100
0001
,
0000
0010
0100
0000
0101
0000
1100
0000
,
1000
0001
0000
2000
0000
3200
0000
2300
,
0000
3002
0000
0023
0000
0031
0100
0000
,
0110
0000
1001
0000
1100
0101
0000
2002
,
0000
0000
3003
0110
0000
0011
0000
0000
,
0102
0000
1000
0000
1000
0000
1003
0001
,
0000
0010
0100
0010
0000
1000
0100
0000
,
2002
0000
0000
3003
;

//---------------dance-single - Hard----------------
#NOTES:
     dance-single:
     Hard:
     Challenge:
     6:
     0.349,0.420,0.335,0.416,0.010,167.000,33.000,41.000,220.000,0.000,0.000,0.349,0.420,0.335,0.416,0.010,167.000,33.000,41.000,220.000,0.000,0.000:
0000
0000
0000
0000
,
0000
0000
0000
0000
,
0000
0000
0000
0000
0000
0000
0000
0100
,
1000
0000
0000
0100
0001
0000
0000
MMMM
,
0000
2000
0000
3001
,
1001
0000
0000
1000
MMMM
1000
0000
0000
,
1000
0100
1000
0000
0100
0000
MMMM
0000
,
0100
0001
0100
2000
0000
3000
MMMM
0020
,
0000
0130
MMMM
0020
0000
0130
MMMM
0020
,
0000
0000
0030
0000
MMMM
0000
0001
0200
,
0000
0301
MMMM
0000
1000
0000
0100
0020
,
0000
0000
0000
0230
0000
0000
0300
MMMM
,
0001
0000
0001
0000
MMMM
0000
0100
0010
,
0000
0020
0200
0000
0330
0000
MMMM
0000
,
0001
0100
0001
0000
MMMM
0000
0010
0000
,
0100
1000
0100
0002
0000
0003
MMMM
0020
,
0000
0130
MMMM
0020
0000
0130
MMMM
0020
,
0000
0000
0030
0000
MMMM
0000
1000
0200
,
0000
1300
MMMM
0000
0001
0000
0001
0200
,
0000
0000
0000
0310
0000
0000
0000
MMMM
,
0001
0000
1000
0000
MMMM
0000
0000
0000
0010
0000
0000
0010
0000
0000
2002
0000
,
0000
0000
3003
0100
0000
0100
MMMM
0000
,
2000
0000
0000
0000
0000
3001
0100
0020
,
0000
0000
0100
0000
0100
0000
0130
0001
,
0200
0000
0301
2000
0000
3100
0000
1001
,
MMMM
1100
MMMM
1001
MMMM
0101
MMMM
0012
,
0000
0000
0000
0000
0100
0000
0003
0100
,
0002
0000
1000
0000
1003
0000
0001
MMMM
,
0020
0000
0100
0230
0000
0001
0001
0302
,
0000
1003
0110
MMMM
,
0011
MMMM
0101
MMMM
0010
0001
0100
0001
,
0000
0001
1000
0000
0101
0000
MMMM
0000
,
1010
MMMM
1100
MMMM
0010
1000
0100
1000
,
0000
1000
0001
0000
1100
0000
MMMM
0000
,
1000
0100
MMMM
0020
0000
0000
0130
MMMM
,
0001
0100
MMMM
0020
0000
0000
0130
MMMM
,
0010
0000
0000
0001
0000
0000
0101
0000
MMMM
0000
1001
0000
MMMM
0000
1010
0000
,
MMMM
0101
MMMM
2002
0000
0000
3003
0000
,
1010
MMMM
0011
MMMM
0010
1000
0010
0001
,
0000
0100
0010
0000
0011
0000
MMMM
0000
,
1100
MMMM
0101
MMMM
0100
1000
0100
0001
,
0000
0010
0100
0000
0101
0000
MMMM
0000
,
1000
MMMM
0000
2000
0000
3200
0000
2300
,
0000
3002
0000
0023
0000
0031
MMMM
0000
,
0110
MMMM
1001
MMMM
1100
0101
MMMM
2002
,
0000
0000
3003
0110
0000
MMMM
0000
0000
,
0102
0000
1000
0000
1000
0000
1003
MMMM
,
0000
0010
0100
0010
MMMM
1000
0100
MMMM
,
2002
0000
0000
3003
;

//---------------dance-double - Gabe (Zenius-I-vanisher.com)----------------
#NOTES:
     dance-double:
     Gabe (Zenius-I-vanisher.com):
     Medium:
     3:
     0.217,0.198,0.020,0.284,0.000,120.000,2.000,28.000,0.000,0.000,0.000,0.217,0.198,0.020,0.284,0.000,120.000,2.000,28.000,0.000,0.000,0.000: // measure 1
00000000
00000000
00000000
00000000
,  // measure 2
00000000
00000000
00000000
00000000
,  // measure 3
00000000
00000000
00000000
00000000
,  // measure 4
00000000
00000000
00000000
00000000
,  // measure 5
00000000
00000000
00000000
00000000
,  // measure 6
00000000
00000000
00000000
00000000
,  // measure 7
10000000
00100000
00010000
00100000
,  // measure 8
02000000
00000000
00000000
03000000
00000000
00000000
00000000
00000000
,  // measure 9
20000000
30000000
00020000
00030000
,  // measure 10
00100000
00000000
00000000
00010000
,  // measure 11
00200000
00000000
00300000
00000000
00100000
00000000
00010000
02000000
,  // measure 12
00000000
03000000
01000000
00000000
,  // measure 13
00200000
00000000
00300000
00000000
00001000
00000000
00000000
00100000
,  // measure 14
00000000
00100000
00100000
00000000
00000000
00000000
00000000
00000000
,  // measure 15
00000100
00001000
00100000
00100000
,  // measure 16
00020000
00000000
00000000
00030000
00000000
00000000
00000000
00000000
,  // measure 17
00002000
00003000
00000200
00000300
,  // measure 18
00001000
00000000
00000000
00001000
,  // measure 19
00020000
00000000
00030000
00000000
00001000
00000000
00000100
00000020
,  // measure 20
00000000
00000000
00000030
00000010
00000000
00000000
00000100
00000000
,  // measure 21
00002000
00003000
00000100
00010000
,  // measure 22
00000200
00000000
00000000
00000300
,  // measure 23
00001000
00000100
00001000
00000000
,  // measure 24
00000001
00000100
00000001
00000000
,  // measure 25
00001000
00000100
00000001
00000000
,  // measure 26
00010000
00001000
00000010
00000100
,  // measure 27
00020020
00000000
00000000
00030030
,  // measure 28
00001000
00000000
00000000
00000100
00000000
00000000
00010000
00000000
,  // measure 29
00000010
00000000
00000000
00010000
00000000
00000000
00000000
00000100
,  // measure 30
00000000
00010000
00000100
00100000
,  // measure 31
00000100
00000100
00001000
00100000
,  // measure 32
00200000
00301000
00010000
00000000
,  // measure 33
00100000
00100000
00001000
00000100
,  // measure 34
00002000
00013000
00100000
00000000
,  // measure 35
00001000
00000000
00000000
02000000
00000000
00000000
03000000
00000000
,  // measure 36
01000000
00000000
00000000
00002000
00000000
00000000
00003000
00000000
,  // measure 37
00001000
00000000
00000000
00100000
00000000
01000000
00000000
02000000
,  // measure 38
00000000
03001000
00000000
00020000
00000000
00000000
00030000
00000000
,  // measure 39
10000000
10000000
00100000
00010000
,  // measure 40
00020000
00130000
01000000
00000000
,  // measure 41
00010000
00010000
00100000
10000000
,  // measure 42
20000000
30100000
01000000
00000000
,  // measure 43
00010000
00000000
00000000
00001000
00000000
01000000
00000000
02000000
,  // measure 44
00000000
00000000
03000000
00100000
00000000
00010000
00010000
00000000
,  // measure 45
01000000
00000000
00010000
00000000
00001000
00001000
00000000
00200000
,  // measure 46
00000000
00000000
00300000
01000000
00000000
00001000
00000000
00000000
,  // measure 47
00001000
00000100
00010000
00100000
,  // measure 48
00020000
00000000
00000000
00031000
,  // measure 49
00200200
00000000
00000000
00300300
;

//---------------dance-double - Gabe (Zenius-I-vanisher.com)----------------
#NOTES:
     dance-double:
     Gabe (Zenius-I-vanisher.com):
     Hard:
     6:
     0.410,0.395,0.375,0.446,0.010,202.000,37.000,44.000,0.000,0.000,0.000,0.410,0.395,0.375,0.446,0.010,202.000,37.000,44.000,0.000,0.000,0.000:
00000000
00000000
00000000
00000000
,
00000000
00000000
00000000
00000000
,
00000000
00000000
00000000
00000000
00000000
00000000
00000000
01000000
,
10000000
00000000
00000000
01000000
00010000
02000000
00000000
03200000
,
00000000
00000000
20000000
00000000
00000000
00300000
30010000
00000000
,
01001000
00000000
00000000
01000000
00002000
01000000
00003000
00000000
,
01000000
00100000
01000000
00000000
00100000
00000000
00010000
00000000
,
00100000
00001000
00100000
02000000
00000000
03000000
01000000
00020000
,
00000000
00130000
00001000
00020000
00000000
00130000
01000000
00020000
,
00000000
00000000
00030000
00000000
00001000
00000000
00000100
00020000
,
00000000
00030100
00100000
00000000
00100000
00000000
00010000
00002000
,
00000000
00000000
00000000
00023000
00000000
00000000
00030000
00100000
,
00000100
00000000
00000100
00000000
00001000
00000000
00010000
00001000
,
00000000
00000200
00002000
00000000
00003300
00000000
00001100
00000000
,
00000010
00001000
00000010
00000000
00001000
00000000
00000100
00000000
,
00001000
00010000
00001000
00000020
00000000
00000030
00000010
00000200
,
00000000
00001300
00010000
00000200
00000000
00001300
00000010
00000200
,
00000000
00000000
00000300
00000000
00000010
00000000
00001000
00000200
,
00000000
00001300
00000100
00000000
00000001
00000000
00000001
00000200
,
00000000
00000000
00000000
00000310
00000000
00000000
00000000
00001000
,
00000001
00000000
00001000
00000000
00000001
00000000
00000000
00000000
00000010
00000000
00000000
00000010
00000000
00000000
00002002
00000000
,
00000000
00000000
00003003
00001000
00000000
00001000
00000100
00000000
,
00020000
00000000
00000000
00000000
00000000
00030010
00001000
00000200
,
00000000
00000000
00001000
00000000
00001000
00000000
00001300
00000010
,
00002000
00000000
00003010
00020000
00000000
00031000
00000000
00010010
,
00000000
00110000
00000000
00100000
00000000
00010100
00000000
00001200
,
00000000
00000000
00000000
00000000
00010000
00000000
00000300
00010000
,
00000200
00000000
00100000
00000000
00100300
00000000
00000100
00100000
,
00002000
00000000
00010000
00023000
00000000
00000100
00000100
00030200
,
00000000
00100300
00011000
00100000
,
00011000
00000000
00101000
00000000
00010000
00001000
00100000
00001000
,
00000000
00001000
01000000
00000000
00101000
00000000
00011000
00000000
,
01010000
00000000
01100000
00000000
00010000
01000000
00100000
01000000
,
00000000
01000000
00001000
00000000
01100000
00000000
01010000
00000000
,
10000000
01000000
10000000
00200000
00000000
00000000
01300000
01000000
,
00010000
01000000
00010000
00200000
00000000
00000000
01300000
01000000
,
00100000
00000000
00000000
00010000
00000000
00000000
01010000
00000000
00000000
00000000
10010000
00000000
00000000
00000000
10100000
00000000
,
00000000
01010000
00000000
20020000
00000000
00000000
30030000
00000000
,
01010000
00000000
00011000
00000000
00010000
01000000
00010000
00001000
,
00000000
00100000
00010000
00000000
00011000
00000000
01010000
00000000
,
01100000
00000000
00101000
00000000
00100000
01000000
00100000
00001000
,
00000000
00010000
00100000
00000000
00101000
00000000
01100000
00000000
,
00100000
00000100
00000000
00200000
00000000
00320000
00000000
00230000
,
00000000
00300200
00000000
00002300
00000000
00003100
00010000
00000000
,
00011000
00000000
00100000
00000000
00110000
00010100
00000000
00200200
,
00000000
00000000
00300300
00011000
00000000
00001100
00000000
00000000
,
00001020
00000000
00010000
00000000
00010000
00000000
00010030
00000010
,
00000000
00000100
00001000
00000100
00000000
00010000
00001000
00000000
,
00020020
00000000
00000000
00030030
;

//---------------dance-double - Hard----------------
#NOTES:
     dance-double:
     Hard:
     Challenge:
     6:
     0.346,0.395,0.314,0.416,0.010,167.000,31.000,41.000,440.000,0.000,0.000,0.346,0.395,0.314,0.416,0.010,167.000,31.000,41.000,440.000,0.000,0.000:
00000000
00000000
00000000
00000000
,
00000000
00000000
00000000
00000000
,
00000000
00000000
00000000
00000000
00000000
00000000
00000000
01000000
,
10000000
00000000
00000000
01000000
00010000
00000000
00000000
MMMMMMMM
,
00000000
20000000
00000000
30010000
,
01001000
00000000
00000000
01000000
MMMMMMMM
01000000
00000000
00000000
,
01000000
00100000
01000000
00000000
00100000
00000000
MMMMMMMM
00000000
,
00100000
00001000
00100000
02000000
00000000
03000000
MMMMMMMM
00020000
,
00000000
00130000
MMMMMMMM
00020000
00000000
00130000
MMMMMMMM
00020000
,
00000000
00000000
00030000
00000000
MMMMMMMM
00000000
00000100
00020000
,
00000000
00030100
MMMMMMMM
00000000
00100000
00000000
00010000
00002000
,
00000000
00000000
00000000
00023000
00000000
00000000
00030000
MMMMMMMM
,
00000100
00000000
00000100
00000000
MMMMMMMM
00000000
00010000
00001000
,
00000000
00000200
00002000
00000000
00003300
00000000
MMMMMMMM
00000000
,
00000010
00001000
00000010
00000000
MMMMMMMM
00000000
00000100
00000000
,
00001000
00010000
00001000
00000020
00000000
00000030
MMMMMMMM
00000200
,
00000000
00001300
MMMMMMMM
00000200
00000000
00001300
MMMMMMMM
00000200
,
00000000
00000000
00000300
00000000
MMMMMMMM
00000000
00001000
00000200
,
00000000
00001300
MMMMMMMM
00000000
00000001
00000000
00000001
00000200
,
00000000
00000000
00000000
00000310
00000000
00000000
00000000
MMMMMMMM
,
00000001
00000000
00001000
00000000
MMMMMMMM
00000000
00000000
00000000
00000010
00000000
00000000
00000010
00000000
00000000
00002002
00000000
,
00000000
00000000
00003003
00001000
00000000
00001000
MMMMMMMM
00000000
,
00020000
00000000
00000000
00000000
00000000
00030010
00001000
00000200
,
00000000
00000000
00001000
00000000
00001000
00000000
00001300
00000010
,
00002000
00000000
00003010
00020000
00000000
00031000
00000000
00010010
,
MMMMMMMM
00110000
MMMMMMMM
00100000
MMMMMMMM
00010100
MMMMMMMM
00001200
,
00000000
00000000
00000000
00000000
00010000
00000000
00000300
00010000
,
00000200
00000000
00100000
00000000
00100300
00000000
00000100
MMMMMMMM
,
00002000
00000000
00010000
00023000
00000000
00000100
00000100
00030200
,
00000000
00100300
00011000
MMMMMMMM
,
00011000
MMMMMMMM
00101000
MMMMMMMM
00010000
00001000
00100000
00001000
,
00000000
00001000
01000000
00000000
00101000
00000000
MMMMMMMM
00000000
,
01010000
MMMMMMMM
01100000
MMMMMMMM
00010000
01000000
00100000
01000000
,
00000000
01000000
00001000
00000000
01100000
00000000
MMMMMMMM
00000000
,
10000000
01000000
MMMMMMMM
00200000
00000000
00000000
01300000
MMMMMMMM
,
00010000
01000000
MMMMMMMM
00200000
00000000
00000000
01300000
MMMMMMMM
,
00100000
00000000
00000000
00010000
00000000
00000000
01010000
00000000
MMMMMMMM
00000000
10010000
00000000
MMMMMMMM
00000000
10100000
00000000
,
MMMMMMMM
01010000
MMMMMMMM
20020000
00000000
00000000
30030000
00000000
,
01010000
MMMMMMMM
00011000
MMMMMMMM
00010000
01000000
00010000
00001000
,
00000000
00100000
00010000
00000000
00011000
00000000
MMMMMMMM
00000000
,
01100000
MMMMMMMM
00101000
MMMMMMMM
00100000
01000000
00100000
00001000
,
00000000
00010000
00100000
00000000
00101000
00000000
MMMMMMMM
00000000
,
00100000
MMMMMMMM
00000000
00200000
00000000
00320000
00000000
00230000
,
00000000
00300200
00000000
00002300
00000000
00003100
MMMMMMMM
00000000
,
00011000
MMMMMMMM
00100000
MMMMMMMM
00110000
00010100
MMMMMMMM
00200200
,
00000000
00000000
00300300
00011000
00000000
MMMMMMMM
00000000
00000000
,
00001020
00000000
00010000
00000000
00010000
00000000
00010030
MMMMMMMM
,
00000000
00000100
00001000
00000100
MMMMMMMM
00010000
00001000
MMMMMMMM
,
00020020
00000000
00000000
00030030
;

//---------------dance-double - Gabe (Zenius-I-vanisher.com)----------------
#NOTES:
     dance-double:
     Gabe (Zenius-I-vanisher.com):
     Easy:
     3:
     0.196,0.219,0.132,0.000,0.000,122.000,13.000,0.000,0.000,0.000,0.000,0.196,0.219,0.132,0.000,0.000,122.000,13.000,0.000,0.000,0.000,0.000: // measure 1
00000000
00000000
00000000
00000000
,  // measure 2
00000000
00000000
00000000
00000000
,  // measure 3
00000000
00000000
00000000
00000000
,  // measure 4
00000000
00000000
00000000
00000000
,  // measure 5
00000000
00000000
00000000
00000000
,  // measure 6
00000000
00000000
00000000
00000000
,  // measure 7
10000000
10000000
01000000
01000000
,  // measure 8
00010000
00010000
00100000
00000000
,  // measure 9
00010000
00010000
01000000
01000000
,  // measure 10
10000000
10000000
00100000
00000000
,  // measure 11
00100000
00001000
00100000
00001000
,  // measure 12
00010000
00001000
00010000
00000000
,  // measure 13
00000010
00010000
00000010
00010000
,  // measure 14
00001000
00010000
00001000
00000000
,  // measure 15
00000010
00000010
00000001
00000001
,  // measure 16
00000100
00000100
00001000
00000000
,  // measure 17
00000010
00000010
00001000
00001000
,  // measure 18
00000100
00000100
00000001
00000000
,  // measure 19
00001000
00000100
00001000
00010000
,  // measure 20
00001000
00000100
00001000
00000000
,  // measure 21
00010000
01000000
00010000
00001000
,  // measure 22
00010000
01000000
00010000
00000000
,  // measure 23
01010000
00000000
01000000
00000000
,  // measure 24
11000000
00000000
01000000
00000000
,  // measure 25
10010000
00000000
01000000
00000000
,  // measure 26
01010000
00011000
00001100
00000000
,  // measure 27
00000000
00000001
00001000
00000000
,  // measure 28
00000000
00000100
00001000
00000000
,  // measure 29
00000000
00000010
00000100
00000000
,  // measure 30
00001010
00000000
00011000
00000000
,  // measure 31
00110000
00000000
00000000
00000000
,  // measure 32
00100000
00010000
00100000
00000000
,  // measure 33
00001010
00000000
00000000
00000000
,  // measure 34
00000010
00001000
00000010
00000000
,  // measure 35
00000010
00000010
00001000
00000000
,  // measure 36
00100000
00100000
00010000
00000000
,  // measure 37
00010000
00010000
01000000
00000000
,  // measure 38
00001000
00001000
00000100
00000000
,  // measure 39
00011000
00000000
00000000
00000000
,  // measure 40
00010000
00001000
00010000
00000000
,  // measure 41
00011000
00000000
00000000
00000000
,  // measure 42
00001000
00010000
00001000
00000000
,  // measure 43
00010000
00000000
00000100
00000000
,  // measure 44
00001000
00000000
01000000
00000000
,  // measure 45
00100000
00010000
00100000
00010000
,  // measure 46
00001000
00000100
00001000
00000100
,  // measure 47
00000010
00000001
00000100
00001000
,  // measure 48
00100000
10000000
01000000
00010000
,  // measure 49
00011000
00000000
00000000
00000000
;
