#TITLE:Together Forever;
#SUBTITLE:;
#ARTIST:Ken Cummings;
#TITLETRANSLIT:;
#SUBTITLETRANSLIT:;
#ARTISTTRANSLIT:;
#GENRE:;
#CREDIT:;
#BANNER:;
#BACKGROUND:;
#LYRICSPATH:;
#CDTITLE:;
#MUSIC:Together Forever.ogg;
#OFFSET:0.439;
#SAMPLESTART:42.080;
#SAMPLELENGTH:12.000;
#SELECTABLE:YES;
#BPMS:0.000=112.000;
#STOPS:;
#BGCHANGES:;
#KEYSOUNDS:;

//---------------dance-single - ----------------
#NOTES:
     dance-single:
     :
     Beginner:
     1:
     0.138,0.085,0.116,0.000,0.000:
0000
0000
0000
0000
,
1001
0000
0100
0100
,
0100
0000
1000
0000
,
0001
0000
0001
0000
,
1000
0000
1000
0000
,
0001
0000
0001
0000
,
1000
0000
1001
0000
,
0000
0000
1000
1000
,
1000
0000
0001
0000
,
0000
0000
0001
0001
,
0001
0000
1000
0000
,
0000
0000
1000
1000
,
1000
0000
0001
0000
,
0000
0000
0001
0000
,
1001
0000
0000
0000
,
0000
0000
0100
0100
,
0100
0000
0010
0000
,
0000
0000
0010
0010
,
0010
0000
0100
0000
,
1001
0000
0110
0000
,
1001
0000
0100
0000
,
0010
0010
0010
0000
,
1000
0000
0010
0000
,
0110
0000
0000
0000
,
1001
0000
0100
0000
,
0010
0010
0010
0000
,
1000
0000
0100
0000
,
0001
0000
0100
0000
,
1000
0000
0001
0000
,
1001
0000
0100
0000
,
0010
0000
1000
1000
,
1000
0000
0000
0000
,
0001
0000
1000
0000
,
0001
0000
0000
0000
,
0010
0010
0010
0010
,
0010
0000
0000
0000
,
1000
0000
0001
0000
,
0100
0000
0010
0000
,
1000
0000
0001
0000
,
1001
0000
0100
0000
,
0010
0010
0010
0000
,
0001
0000
0010
0000
,
0110
0000
0000
0000
,
1001
0000
0100
0000
,
0010
0010
0010
0000
,
0001
0000
0100
0000
,
1000
0000
0100
0000
,
0001
0000
1000
0000
,
1001
0000
0000
0000
;

//---------------dance-single - ----------------
#NOTES:
     dance-single:
     :
     Easy:
     4:
     0.191,0.087,0.151,0.080,0.000:
0000
0000
0000
0000
,
1001
0000
0100
0100
,
1001
0000
0010
0010
,
1000
0100
1000
0000
,
0001
0100
0001
0000
,
1000
0010
0001
0010
,
0200
0000
0000
0000
,
0310
0000
1000
1000
,
0001
0000
0100
0000
,
0010
0000
0001
0001
,
1000
0000
0100
0000
,
1000
0000
0001
0001
,
0100
0000
0010
0000
,
0000
0000
1000
0100
,
0010
0000
0000
0000
,
0100
0000
1000
0100
,
0001
0100
0001
0100
,
0010
0000
0001
0100
,
1000
0100
1000
0100
,
0020
0000
0000
0130
,
1001
0110
1001
0000
,
0100
0100
0100
0000
,
0010
0001
0100
1000
,
0010
0000
0000
0000
,
0110
1001
0110
0000
,
0010
0010
0010
0000
,
1000
0000
0100
0000
,
0001
0000
0010
0000
,
1000
0000
0001
0000
,
2002
0000
0000
3003
,
0100
0000
0010
0010
,
0010
0000
0100
0000
,
0001
0000
1000
0001
,
0100
0000
0010
0000
,
1000
0000
0001
1000
,
0100
0100
0100
0100
,
0010
0010
0010
0010
,
0001
0000
1000
0000
,
2002
0003
0020
3030
,
1001
0110
1001
0000
,
0100
0100
0100
0000
,
0010
1000
0100
0001
,
0010
0000
0000
0000
,
0110
1001
0110
0000
,
0100
0100
0100
0000
,
0001
0000
0100
0000
,
1000
0000
0010
0000
,
0001
0000
1000
0000
,
2002
0000
0000
3003
;

//---------------dance-single - ----------------
#NOTES:
     dance-single:
     :
     Medium:
     5:
     0.292,0.152,0.124,0.276,0.009:
0000
0000
0000
0000
,
1001
0000
0110
0000
1000
0010
0010
0000
,
1001
0000
0110
0000
0001
0010
0010
0000
,
1000
1000
0001
0001
,
1000
1000
0010
0000
0001
0001
0010
0000
,
1000
0100
0001
0100
,
0200
0000
0000
0300
,
1001
0100
0100
1000
,
0001
0001
0001
1000
,
0010
0010
0010
0001
,
1000
1000
1000
0100
,
0010
0010
0010
1000
,
0100
0100
0100
0001
,
1000
1000
1000
0010
,
2002
0000
0000
3003
,
0220
0330
0010
0100
,
1000
0000
0000
0001
0000
0001
0000
0000
,
2002
3003
0010
0100
,
0001
0000
0000
1000
0000
0001
0000
0200
,
0000
0000
0020
0000
0330
0000
0000
1000
,
0100
0000
0010
0001
0000
0001
0000
0001
,
0100
0000
0010
2000
0000
0000
0000
0000
,
3001
0000
0001
0100
0010
0000
1000
0020
,
0000
0000
0000
0130
0000
0000
0000
0000
,
0010
0000
0100
0010
0000
0100
0000
0010
,
0100
0000
0010
0200
0000
0000
0001
0301
,
0001
1000
0010
0000
0200
0000
0000
1300
,
0000
0010
0000
0000
0001
0000
0100
0000
0020
0000
0000
0000
1030
0000
0001
0000
,
0000
0001
0100
0000
0010
0000
0010
0000
,
2002
0000
0000
3003
,
1000
1100
0001
0101
,
2001
0000
0000
0000
3100
0100
0100
2000
,
0000
3002
0000
0203
0000
0320
0000
2030
,
0000
3000
0000
1000
0100
1000
0000
1000
,
0000
0001
0000
0001
0100
0001
0000
1000
,
0000
0100
0000
0002
0000
0003
0000
0100
,
0000
0100
0010
0100
0000
0010
0000
0000
,
1100
0000
0000
0001
0000
1000
0000
0020
,
0000
0000
0000
0000
0000
0000
0000
1030
,
0100
0000
0010
1000
0000
1000
0000
1000
,
0100
0000
0010
0002
0000
0000
0000
0000
,
1003
0000
1000
0100
0010
0000
0001
0020
,
0000
0000
0000
0130
0000
0000
0000
0000
,
0010
0000
0100
0010
0000
0100
0000
0010
,
0100
0000
0010
0200
0000
0000
1000
1300
,
1000
0001
0010
0000
0200
0000
0000
0301
,
0000
0010
0000
0000
1000
0000
0100
0000
0020
0000
0000
0000
0031
0000
1000
0000
,
0000
1000
0100
0000
0010
0000
0010
0000
,
2002
0000
0000
3003
;

//---------------dance-single - ----------------
#NOTES:
     dance-single:
     :
     Hard:
     7:
     0.436,0.108,0.471,0.373,0.040: // measure 1
0000
0000
0000
0000
,  // measure 2
1000
0000
0000
0100
0000
0000
0001
0000
0000
0000
1000
0000
0010
0000
0000
0000
,  // measure 3
0001
0000
0000
0100
0000
0000
1000
0000
0000
0000
0001
0000
0010
0000
0000
0000
,  // measure 4
1000
0100
1000
0002
0000
0000
0013
2000
,  // measure 5
0000
0000
3010
0002
0000
0000
0003
0000
,  // measure 6
0001
0100
0001
0020
0000
0000
0130
0002
,  // measure 7
0000
0000
0000
0000
1000
1000
1003
0000
,  // measure 8
0020
0000
0030
0100
0001
1000
0100
0010
,  // measure 9
0002
0000
1003
0200
0000
0300
0100
0000
,  // measure 10
0020
0000
0030
0100
1000
0001
0100
0010
,  // measure 11
2000
0100
0000
3002
0000
0200
0000
0303
,  // measure 12
0101
0000
1010
0010
0100
0001
1000
0001
,  // measure 13
0201
0000
0010
0320
0000
2030
0000
0000
,  // measure 14
3001
0000
0000
0000
0000
0000
0100
0000
0000
0000
0001
0000
0010
0000
0000
0020
,  // measure 15
0000
0000
0130
0000
0010
0100
0010
0000
,  // measure 16
1100
0000
0101
0010
0100
0001
0010
1000
,  // measure 17
1100
0000
0010
0100
0000
0101
0000
0000
,  // measure 18
1010
0000
0011
0100
0010
1000
0100
0001
,  // measure 19
1010
0000
0100
0010
0000
0011
0000
0210
,  // measure 20
0000
0000
0000
0000
0300
0000
0001
0000
0000
0100
0000
0000
0002
0000
0000
0000
0000
0000
0000
0000
0100
0000
0000
0000
0000
0000
0000
0000
0103
0000
0000
0000
,  // measure 21
1001
0010
0100
1010
0000
0011
0000
0110
,  // measure 22
0010
0100
0010
0210
0000
0000
0300
0100
,  // measure 23
1000
0010
0001
0010
1000
0000
0001
2000
,  // measure 24
0000
0000
0001
0001
0000
3001
1000
0000
,  // measure 25
1100
1100
0001
0101
0000
0101
0000
0110
,  // measure 26
0010
0100
0010
0012
0000
0000
1000
1003
,  // measure 27
1001
0100
0010
1000
0100
0000
0011
1100
,  // measure 28
0000
0010
0100
0001
0010
0000
1010
0101
,  // measure 29
0000
1000
0001
0100
0010
0000
0010
2002
,  // measure 30
0000
0000
3003
0000
1000
0100
1000
0000
,  // measure 31
0010
0000
0000
0010
0000
0000
0010
0000
0001
0100
0001
0100
0001
0000
0000
0000
,  // measure 32
2001
0000
0000
0000
0100
0100
3100
0020
,  // measure 33
0000
0001
0001
0031
1000
0100
0000
2020
,  // measure 34
0000
0000
3030
0000
0010
1000
0010
0000
,  // measure 35
0001
0000
0000
0001
0000
0000
0001
0000
0000
0000
1000
0000
0100
0000
0002
0000
,  // measure 36
0000
0023
0000
0230
0000
1300
0000
1100
,  // measure 37
0000
0010
0100
0101
0000
0011
0000
1000
,  // measure 38
0101
0000
0010
1000
0000
0110
0000
2002
,  // measure 39
0000
0000
3003
0000
0220
0000
0030
0310
,  // measure 40
1001
0100
0010
1010
0000
0011
0000
1001
,  // measure 41
0010
0100
0010
2002
0000
0000
3003
0010
,  // measure 42
0010
0100
0100
0010
0110
0000
1100
0012
,  // measure 43
0000
0000
0000
1003
0000
0100
0010
0000
,  // measure 44
0110
0001
0010
0011
0000
1100
0000
1010
,  // measure 45
0100
1000
0010
2010
0000
0000
0001
0001
,  // measure 46
3001
1000
0010
0100
1000
0000
0010
0001
,  // measure 47
0000
1000
0100
0001
1000
0000
0010
0010
,  // measure 48
0000
0001
0001
1000
0100
0000
0010
2002
,  // measure 49
3003
2002
0000
0000
0000
0000
3003
0000
;
