#TITLE:Through My Own Eyes;
#SUBTITLE:-Liberty's Kids Theme-;
#ARTIST:Aaron Carter feat. Kayla Hinkle;
#TITLETRANSLIT:;
#SUBTITLETRANSLIT:;
#ARTISTTRANSLIT:;
#GENRE:;
#CREDIT:;
#BANNER:Through My Own Eyes -Liberty's Kids Theme-.png;
#BACKGROUND:Through My Own Eyes -Liberty's Kids Theme--bg.png;
#LYRICSPATH:;
#CDTITLE:;
#MUSIC:Through My Own Eyes -Liberty's Kids Theme-.ogg;
#OFFSET:0.000;
#SAMPLESTART:27.458;
#SAMPLELENGTH:12.000;
#SELECTABLE:YES;
#BPMS:0.000=140.000;
#STOPS:;
#TIMESIGNATURES:0.000=4=4
;
#BGCHANGES:0.000=Through My Own Eyes -Liberty's Kids Theme-.avi=1.000=0=0=0=StretchNoLoop====,
99999=-nosongbg-=1.000=0=0=0 // don't automatically add -songbackground-
;
#KEYSOUNDS:;

//---------------dance-single - Gabe (Zenius-I-vanisher.com)----------------
#NOTES:
     dance-single:
     Gabe (Zenius-I-vanisher.com):
     Beginner:
     1:
     0.150,0.187,0.053,0.000,0.000,75.000,4.000,0.000,0.000,0.000,0.000,0.150,0.187,0.053,0.000,0.000,75.000,4.000,0.000,0.000,0.000,0.000:
0000
0000
0000
0000
,
0000
0000
0000
0000
,
1000
0000
0001
0000
,
0100
0000
0000
0000
,
0010
0000
0000
0000
,
0100
0000
0000
0000
,
0001
0000
0100
0000
,
1000
0000
0000
0000
,
0000
1000
1000
0000
,
0000
0001
0001
0000
,
0000
0100
0100
0000
,
0010
0000
0000
0000
,
0000
0001
0001
0000
,
0000
1000
1000
0000
,
0000
0100
0100
0000
,
0010
0000
0000
0000
,
1000
1000
1000
0000
,
0001
0000
1000
0000
,
0001
0001
0001
0000
,
1000
0000
0001
0000
,
0010
0010
0010
0000
,
0100
0000
0010
0000
,
0100
0100
0100
0000
,
0010
0010
0010
0000
,
1000
0000
0100
0000
,
0001
0000
0100
0000
,
1000
0000
0010
0000
,
0001
0000
0010
0000
,
1000
0000
0010
0000
,
1000
0000
0100
0000
,
1001
0000
0110
0000
,
0010
0010
0010
0000
,
1001
0000
0000
0000
,
0100
0000
0000
0000
,
0010
0000
0000
0000
,
0100
0000
0000
0000
,
1000
0000
0010
0000
,
1000
0000
0010
0000
,
0001
0001
0001
0000
,
0010
0010
0010
0000
,
1001
0000
0000
0000
;

//---------------dance-single - Gabe (Zenius-I-vanisher.com)----------------
#NOTES:
     dance-single:
     Gabe (Zenius-I-vanisher.com):
     Easy:
     3:
     0.200,0.224,0.053,0.187,0.000,87.000,4.000,14.000,0.000,0.000,0.000,0.200,0.224,0.053,0.187,0.000,87.000,4.000,14.000,0.000,0.000,0.000:
0000
0000
0000
0000
,
0000
0000
0000
0000
,
0010
0000
0010
0000
,
0020
0000
0000
0030
,
1000
0000
0000
0000
,
1000
0000
0000
0000
,
0001
0000
0001
0000
,
0002
0000
0000
0003
,
0000
0010
0010
0000
,
0000
0100
0100
0000
,
0000
0001
1000
0001
,
2000
0000
0000
3000
,
0000
0001
0001
0000
,
0000
0100
0100
0000
,
0000
1000
1000
0010
,
0002
0000
0000
0003
,
0010
0001
0100
0000
,
0010
0000
0010
0000
,
0010
1000
0100
0000
,
0010
0000
0010
0000
,
1000
0010
0001
0000
,
1000
0100
0001
0000
,
0001
0010
1000
0000
,
0001
0100
1000
0000
,
1000
0000
0100
0000
,
1000
0100
1000
0010
,
0001
0000
0001
0000
,
0001
0100
0001
0010
,
1000
1000
0001
0001
,
0010
0010
0100
0100
,
0110
0000
1001
0000
,
0010
0010
0010
0010
,
2000
0000
0000
3000
,
0002
0000
0000
0003
,
2000
0000
0000
3000
,
0002
0000
0000
0003
,
0020
0030
2000
3000
,
0200
0300
0002
0003
,
1000
1000
0001
0000
,
1001
0000
0100
0100
,
2002
0000
0000
0000
,
0000
0000
0000
0000
,
3003
0000
0000
0000
;

//---------------dance-single - Gabe (Zenius-I-vanisher.com)----------------
#NOTES:
     dance-single:
     Gabe (Zenius-I-vanisher.com):
     Medium:
     6:
     0.328,0.448,0.147,0.187,0.000,147.000,11.000,14.000,0.000,0.000,0.000,0.328,0.448,0.147,0.187,0.000,147.000,11.000,14.000,0.000,0.000,0.000:
0000
0000
0000
0000
,
0000
0000
0000
0000
,
1000
1000
1000
0100
,
0020
0000
0000
0000
0030
0010
0100
0000
,
0001
0001
1000
1000
,
0001
0000
0001
0000
1000
0100
0001
0000
,
0001
0000
0001
0100
0000
0100
0000
0020
,
0000
0000
0000
0130
,
0010
0000
0000
0000
0000
1000
1000
0000
,
0100
0000
0000
0000
0000
0001
0001
0000
,
0000
1000
0000
0001
0000
0100
0000
0001
,
0020
0000
0000
0000
,
0030
0000
0100
0000
0100
0000
0100
0020
,
0000
0000
0100
0130
0000
0000
0000
0000
,
0010
1000
0100
0001
,
2002
0000
0000
3003
,
1000
1000
1000
0000
0010
0000
0010
0000
,
0100
0100
0010
0010
,
0001
0001
0001
0000
0010
0000
0010
0000
,
1000
0100
0010
1001
,
1000
0100
1000
0000
0010
0000
0000
0000
,
0001
0001
0100
0000
,
0001
0100
0001
0000
0010
0000
0000
0000
,
1000
1000
0100
0000
,
0010
0000
0000
0000
0001
0001
0001
0000
,
0100
0000
0000
0000
1000
1000
1000
0000
,
0010
0000
0010
0000
0001
1000
0001
0000
,
0100
0000
0100
0000
1000
0001
1000
0000
,
1000
0000
1000
0000
0100
0100
1000
0000
,
0001
0000
0001
0000
0100
0100
0001
0000
,
1001
1001
0110
0110
,
1010
0101
0011
1100
,
2000
0000
0001
0000
,
3100
0100
0010
0010
,
0002
0000
1000
0000
,
0103
0100
0010
0010
,
1000
1000
0001
0000
1000
0000
0100
0000
,
0001
0001
1000
0000
0001
0000
0100
0000
,
0200
0302
2003
3020
,
0230
0000
0010
0310
,
0200
0000
0000
0000
,
0001
0010
0001
0310
,
1001
0000
0000
0000
;

//---------------dance-single - Gabe (Zenius-I-vanisher.com)----------------
#NOTES:
     dance-single:
     Gabe (Zenius-I-vanisher.com):
     Hard:
     7:
     0.545,0.588,0.467,0.413,0.013,220.000,35.000,31.000,0.000,0.000,0.000,0.545,0.588,0.467,0.413,0.013,220.000,35.000,31.000,0.000,0.000,0.000:
0000
0000
0000
0000
,
0000
0000
0000
0000
0000
0000
0000
1000
,
2000
0000
3001
0200
0000
0001
0000
0301
,
0000
1000
0001
0000
0010
0010
0010
0000
,
1001
0000
1000
0000
0001
0000
0100
0020
,
0000
0100
0000
0030
0110
0000
1001
0001
,
0200
0000
0301
2000
0000
0010
0000
0010
,
0000
3000
1000
0001
0000
0001
0100
0010
,
2000
0000
0100
0000
0100
0000
3001
2000
,
0000
0000
3010
2000
0000
0001
3000
0100
,
0100
0000
1000
0000
0001
0000
0000
0000
1000
0000
0000
0010
0000
0000
0100
0000
,
0002
0010
0103
0000
1100
0000
0100
0000
,
0101
0000
0010
0000
0011
0000
1000
0020
,
0000
0000
0130
0020
0000
1000
0030
0100
,
0200
0000
0001
0302
0000
2003
0000
3020
,
0000
0000
0030
0000
0100
0010
0100
0010
,
1001
0001
0100
0000
1000
0100
0001
0100
,
1000
0000
1010
0000
0011
0000
0101
0100
,
0110
0010
1000
0000
0100
1000
0010
0100
,
0001
0000
0011
0000
1001
0000
1100
0001
,
0101
1000
2000
0000
0010
0000
3100
1000
,
0010
1000
0100
0000
1100
0000
0001
1000
,
0100
1000
0001
0000
0202
0000
0303
0000
,
1010
0101
2002
3003
,
1000
0010
0200
0000
0000
0001
0301
0000
,
0001
0010
0100
1000
0010
0010
0010
0000
,
1000
0010
0100
0001
0010
0010
0010
0000
,
0001
1000
0100
0001
0100
0100
0100
0000
,
1000
0100
1000
0200
0010
0310
0110
0000
,
0001
0100
0001
0200
0010
0310
0110
0000
,
1100
0000
1100
0000
1100
0000
0000
0000
0001
0100
0001
0000
0101
0000
0000
0000
,
1000
0001
0100
0010
0110
1010
1001
0000
,
2100
0000
0001
0000
0100
0000
3001
0100
,
0002
0000
1000
0000
0100
0000
1003
0100
,
0020
0000
1000
0000
0100
0000
1030
0001
,
0200
0000
0001
0000
0010
0000
0301
1000
,
0010
1000
0001
0000
0100
0001
1000
0000
,
1100
0000
0101
0000
0220
0000
0330
0010
,
1000
0100
0001
0100
1000
0010
0001
0010
,
0200
0000
0000
0010
0310
0000
1001
0000
,
0210
0000
0301
0000
1000
0001
0010
0100
,
1000
0000
0010
0000
0001
0100
0010
1000
,
0100
0000
0000
0000
;

//---------------dance-single - Gabe (Zenius-I-vanisher.com)----------------
#NOTES:
     dance-single:
     Gabe (Zenius-I-vanisher.com):
     Challenge:
     8:
     0.665,0.616,0.786,0.173,0.147,277.000,59.000,13.000,0.000,0.000,0.000,0.665,0.616,0.786,0.173,0.147,277.000,59.000,13.000,0.000,0.000,0.000:
0000
0000
0000
0000
,
0000
0000
0000
0000
0000
0000
0000
1000
,
0001
0010
0001
0100
0001
1000
0001
0010
,
0001
0100
1000
0000
1010
0000
0100
0000
,
0011
0000
0100
0000
1001
0000
0001
0100
,
1000
0100
0001
0010
1000
1000
1000
0000
,
0010
0010
0001
0100
1000
1000
0100
0001
,
0101
1000
1100
0000
0100
0100
0100
0100
,
0110
0000
0010
0010
0010
0010
0001
1000
,
0100
0100
1000
0001
0010
0010
0001
0100
,
0101
0000
1000
0000
1100
0000
0000
0000
0010
0000
0000
0010
0000
0000
0010
0000
,
0100
0001
0101
0000
0001
0001
1000
1000
,
1010
0000
0001
0000
0011
0000
0100
2100
,
0000
0000
0001
3001
0000
0000
0000
0100
,
0110
0000
0010
0001
1000
0100
1000
0010
,
0100
0100
0100
0100
0010
0010
0010
0010
,
1001
1001
0100
0000
0010
0010
1000
0100
,
1000
1000
0001
0000
0001
0001
1001
0100
,
1100
0101
1000
0000
0010
0010
0001
0100
,
0010
0010
0100
0000
0001
0100
1010
0010
,
1100
0011
0100
0000
0001
0001
1000
0100
,
0010
0010
0001
1000
0001
0100
0101
0010
,
1010
1000
0100
0001
2200
0000
0300
0001
,
3001
0000
0101
0000
2002
0000
3003
0010
,
1001
0000
1001
0000
1001
0000
0000
0000
1000
0000
1000
0001
0000
0001
0000
0000
,
0001
0000
0010
0000
0100
0000
1000
0000
0010
0000
1000
0010
0000
0010
0000
0000
,
0001
0000
1000
0000
0100
0000
0010
0000
0100
0000
1000
0001
0000
0000
0000
0001
,
0100
0000
0100
0010
0000
0010
0000
0000
1000
0000
1000
0100
0000
0000
0100
0000
,
0110
0000
0010
0100
0000
0100
0010
0000
0001
1000
0000
0100
0000
0000
1000
0000
,
0010
0000
1000
0010
0000
0110
0000
0000
1001
0000
0110
0000
1001
0000
0010
0000
,
1010
0000
0011
0000
1010
0000
0000
0000
0010
1000
0100
0000
1100
0000
0000
1000
,
0100
0000
0100
0001
0000
0001
0100
0001
0100
0000
0100
0020
0000
0000
0000
0000
,
0130
0110
0110
0000
1000
1000
0001
0100
,
0002
1000
1003
0000
1000
0001
1100
1000
,
0001
1001
1001
0000
1000
1000
0001
0100
,
0002
0010
0013
0000
0100
0010
0011
1000
,
0101
0101
0010
0000
0001
0001
1000
0100
,
2000
0010
3010
0000
0001
1000
1010
1010
,
1001
1001
0101
0101
0011
0011
0001
0010
,
0200
0000
0000
1300
0002
0000
0103
0000
,
1002
0000
0010
0000
0103
0001
1000
0100
,
2010
0000
3001
0000
0001
0001
0101
0101
,
0110
0000
0000
0000
;

//---------------dance-double - Gabe (Zenius-I-vanisher.com)----------------
#NOTES:
     dance-double:
     Gabe (Zenius-I-vanisher.com):
     Easy:
     4:
     0.267,0.280,0.120,0.227,0.000,114.000,9.000,17.000,0.000,0.000,0.000,0.267,0.280,0.120,0.227,0.000,114.000,9.000,17.000,0.000,0.000,0.000:
00000000
00000000
00000000
00000000
,
00000000
00000000
00000000
00000000
,
00000100
00000100
00001000
00001000
,
00000010
00000010
00000000
00000100
,
00010000
00010000
00000100
00000100
,
00001000
00001000
00010000
00010000
,
00100000
00010000
00001000
00000010
,
00000100
00000100
00000000
00010000
,
00001000
00000000
01000000
00100000
,
00010000
00000000
00000100
00000010
,
00001000
00000010
00000100
00001000
,
02000000
00000000
00000000
00000000
,
03000000
00010000
01010000
00000000
,
00000000
00001000
00001100
00000000
,
00000002
00020003
00032000
20003000
,
30200000
00000000
00000000
00300000
,
00100000
00100000
00010000
00010000
,
00001000
00001000
00000010
00000010
,
00000001
00001000
00000001
00001000
,
00000010
00010000
00001000
01000000
,
01000000
00100000
01000000
00100000
,
01000000
00001000
00010000
00000100
,
00000001
00001000
00001000
00000000
,
00100000
00001000
00001000
00000000
,
10000000
01000000
00100000
00010000
,
00001000
00000100
00000010
00000001
,
00001001
00000000
00001100
00000000
,
00000100
00001000
00000001
00000100
,
00001000
00010000
00001000
00010000
,
01000000
10010000
01000000
01010000
,
00000000
00001100
00000000
00000000
,
00000010
00000010
00000020
00000030
,
00002002
00000000
00000000
00000000
,
00000000
00000000
00000000
00003003
,
00002000
00000000
00000000
00003000
,
00000200
00000000
00000000
00000300
,
00200000
00300000
00020000
00030000
,
20000000
30000000
02000000
03000000
,
10000000
01000000
00100000
00010000
,
00001000
00000100
00000010
00000001
,
00022000
00000000
00000000
00000000
,
00000000
00000000
00000000
00000000
,
00033000
00000000
00000000
00000000
;

//---------------dance-double - Automatic----------------
#NOTES:
     dance-double:
     Automatic:
     Medium:
     6:
     0.326,0.448,0.133,0.187,0.000,147.000,10.000,14.000,0.000,0.000,0.000,0.326,0.448,0.133,0.187,0.000,147.000,10.000,14.000,0.000,0.000,0.000:
00000000
00000000
00000000
00000000
,
00000000
00000000
00000000
00000000
,
10000000
10000000
10000000
01000000
,
00200000
00000000
00000000
00000000
00300000
00100000
01000000
00000000
,
00010000
00010000
10000000
10000000
,
00010000
00000000
00010000
00000000
10000000
01000000
00010000
00000000
,
00001000
00000000
00001000
00100000
00000000
00100000
00000000
00020000
,
00000000
00000000
00000000
00130000
,
00010000
00000000
00000000
00000000
00000000
01000000
01000000
00000000
,
00100000
00000000
00000000
00000000
00000000
00001000
00001000
00000000
,
00000000
00100000
00000000
00000100
00000000
00010000
00000000
00000100
,
00002000
00000000
00000000
00000000
,
00003000
00000000
00010000
00000000
00010000
00000000
00010000
00002000
,
00000000
00000000
00010000
00013000
00000000
00000000
00000000
00000000
,
00000100
00010000
00001000
00000010
,
00020020
00000000
00000000
00030030
,
00010000
00010000
00010000
00000000
00000100
00000000
00000100
00000000
,
00001000
00001000
00000100
00000100
,
00000001
00000001
00000001
00000000
00000010
00000000
00000010
00000000
,
00001000
00000100
00000010
00001001
,
00001000
00000100
00001000
00000000
00000010
00000000
00000000
00000000
,
00000001
00000001
00000100
00000000
,
00000010
00001000
00000010
00000000
00000100
00000000
00000000
00000000
,
00010000
00010000
00001000
00000000
,
00000100
00000000
00000000
00000000
00000010
00000010
00000010
00000000
,
00001000
00000000
00000000
00000000
00010000
00010000
00010000
00000000
,
00001000
00000000
00001000
00000000
00000100
00100000
00000100
00000000
,
00010000
00000000
00010000
00000000
00100000
00000100
00100000
00000000
,
00100000
00000000
00100000
00000000
00010000
00010000
00100000
00000000
,
00000100
00000000
00000100
00000000
00010000
00010000
00000100
00000000
,
01001000
01001000
00110000
00110000
,
01010000
00101000
00011000
01100000
,
02000000
00000000
00001000
00000000
,
03100000
00100000
00010000
00010000
,
00020000
00000000
10000000
00000000
,
01030000
01000000
00100000
00100000
,
10000000
10000000
00010000
00000000
10000000
00000000
01000000
00000000
,
00010000
00010000
10000000
00000000
00010000
00000000
01000000
00000000
,
00200000
00302000
02003000
03020000
,
00230000
00000000
00010000
00310000
,
00200000
00000000
00000000
00000000
,
00001000
00010000
00001000
00310000
,
00100000
00000000
00000000
00000000
;

//---------------dance-double - Automatic----------------
#NOTES:
     dance-double:
     Automatic:
     Hard:
     7:
     0.545,0.588,0.467,0.413,0.013,220.000,35.000,31.000,0.000,0.000,0.000,0.545,0.588,0.467,0.413,0.013,220.000,35.000,31.000,0.000,0.000,0.000:
00000000
00000000
00000000
00000000
,
00000000
00000000
00000000
00000000
00000000
00000000
00000000
10000000
,
20000000
00000000
30010000
02000000
00000000
00010000
00000000
03010000
,
00000000
10000000
00010000
00000000
00100000
00100000
00100000
00000000
,
10010000
00000000
10000000
00000000
00010000
00000000
01000000
00200000
,
00000000
01000000
00000000
00300000
01100000
00000000
10010000
00001000
,
00200000
00000000
00301000
02000000
00000000
00010000
00000000
00010000
,
00000000
03000000
01000000
00001000
00000000
00001000
00100000
00010000
,
02000000
00000000
00100000
00000000
00100000
00000000
03001000
02000000
,
00000000
00000000
03010000
02000000
00000000
00001000
03000000
00010000
,
00010000
00000000
00100000
00000000
00000100
00000000
00000000
00000000
00100000
00000000
00000000
00001000
00000000
00000000
00010000
00000000
,
00000200
00001000
00010300
00000000
00110000
00000000
00010000
00000000
,
00010100
00000000
00001000
00000000
00001100
00000000
00100000
00002000
,
00000000
00000000
00013000
00002000
00000000
00100000
00003000
00001000
,
00002000
00000000
00000010
00003020
00000000
00020030
00000000
00030200
,
00000000
00000000
00000300
00000000
00001000
00000100
00001000
00000100
,
00010010
00000010
00001000
00000000
00010000
00001000
00000010
00001000
,
00010000
00000000
00010100
00000000
00000110
00000000
00001010
00000100
,
00000110
00000010
00001000
00000000
00000100
00001000
00000010
00000100
,
00000001
00000000
00000011
00000000
00001001
00000000
00001100
00000001
,
00000101
00001000
00002000
00000000
00000010
00000000
00003100
00001000
,
00000010
00001000
00000100
00000000
00001100
00000000
00000001
00010000
,
00001000
00010000
00000010
00000000
00002020
00000000
00003030
00000000
,
00010100
00001010
00020020
00030030
,
00010000
00000100
00002000
00000000
00000000
00000010
00003010
00000000
,
00000010
00000100
00001000
00010000
00000100
00000100
00000100
00000000
,
00100000
00001000
00010000
00000100
00001000
00001000
00001000
00000000
,
00000100
00100000
00010000
00000100
00010000
00010000
00010000
00000000
,
00100000
00010000
00100000
00020000
00001000
00031000
00011000
00000000
,
00000100
00010000
00000100
00020000
00001000
00031000
00011000
00000000
,
01100000
00000000
01100000
00000000
01100000
00000000
00000000
00000000
00001000
00100000
00001000
00000000
00101000
00000000
00000000
00000000
,
01000000
00001000
00100000
00010000
00110000
01010000
01001000
00000000
,
02100000
00000000
00001000
00000000
00100000
00000000
03001000
00100000
,
00002000
00000000
01000000
00000000
00100000
00000000
01003000
01000000
,
00200000
00000000
10000000
00000000
01000000
00000000
10300000
00010000
,
02000000
00000000
00010000
00000000
00100000
00000000
03010000
10000000
,
00100000
10000000
00010000
00000000
01000000
00010000
10000000
00000000
,
11000000
00000000
01010000
00000000
02200000
00000000
03300000
00010000
,
01000000
00100000
00001000
00100000
01000000
00010000
00001000
00010000
,
00200000
00000000
00000000
00010000
00310000
00000000
01001000
00000000
,
00210000
00000000
00301000
00000000
01000000
00001000
00010000
00100000
,
01000000
00000000
00010000
00000000
00001000
00100000
00010000
00100000
,
00010000
00000000
00000000
00000000
;

//---------------dance-double - Automatic----------------
#NOTES:
     dance-double:
     Automatic:
     Challenge:
     8:
     0.661,0.616,0.760,0.173,0.147,277.000,57.000,13.000,0.000,0.000,0.000,0.661,0.616,0.760,0.173,0.147,277.000,57.000,13.000,0.000,0.000,0.000: // measure 1
00000000
00000000
00000000
00000000
,  // measure 2
00000000
00000000
00000000
00000000
00000000
00000000
00000000
10000000
,  // measure 3
00010000
00100000
00010000
01000000
00010000
10000000
00010000
00100000
,  // measure 4
00010000
01000000
10000000
00000000
10100000
00000000
01000000
00000000
,  // measure 5
00110000
00000000
01000000
00000000
10010000
00000000
00010000
01000000
,  // measure 6
10000000
01000000
00010000
00100000
10000000
10000000
10000000
00000000
,  // measure 7
00010000
00010000
00001000
00100000
01000000
01000000
00100000
00001000
,  // measure 8
00101000
01000000
01100000
00000000
00100000
00100000
00100000
00100000
,  // measure 9
00110000
00000000
00010000
00010000
00010000
00010000
00001000
01000000
,  // measure 10
00100000
00100000
01000000
00001000
00010000
00010000
00001000
00010000
,  // measure 11
00010100
00000000
00100000
00000000
00110000
00000000
00000000
00000000
00001000
00000000
00000000
00001000
00000000
00000000
00001000
00000000
,  // measure 12
00010000
00000100
00010100
00000000
00000100
00000100
00100000
00100000
,  // measure 13
00101000
00000000
00000100
00000000
00001100
00000000
00010000
00210000
,  // measure 14
00000000
00000000
00000100
00300100
00000000
00000000
00000000
00001000
,  // measure 15
00001100
00000000
00000100
00000010
00010000
00001000
00010000
00000100
,  // measure 16
00001000
00001000
00001000
00001000
00000100
00000100
00000100
00000100
,  // measure 17
00010010
00010010
00001000
00000000
00000100
00000100
00010000
00001000
,  // measure 18
00010000
00010000
00000010
00000000
00000010
00000010
00010010
00000100
,  // measure 19
00001100
00000101
00001000
00000000
00000010
00000010
00000001
00000100
,  // measure 20
00000010
00000010
00000100
00000000
00000001
00000100
00001010
00000010
,  // measure 21
00001100
00000011
00000100
00000000
00000001
00000001
00001000
00000100
,  // measure 22
00000010
00000010
00000001
00001000
00000001
00000100
00000101
00000100
,  // measure 23
00010100
00010000
00001000
00000010
00022000
00000000
00003000
00000010
,  // measure 24
00030010
00000000
00001010
00000000
00020020
00000000
00030030
00000100
,  // measure 25
00010010
00000000
00010010
00000000
00010010
00000000
00000000
00000000
00010000
00000000
00010000
00000010
00000000
00000010
00000000
00000000
,  // measure 26
00000010
00000000
00000100
00000000
00001000
00000000
00010000
00000000
00000100
00000000
00010000
00000100
00000000
00000100
00000000
00000000
,  // measure 27
00000100
00000000
00100000
00000000
00010000
00000000
00001000
00000000
00010000
00000000
00100000
00000100
00000000
00000000
00000000
00000100
,  // measure 28
00010000
00000000
00010000
00001000
00000000
00001000
00000000
00000000
00100000
00000000
00100000
00010000
00000000
00000000
00010000
00000000
,  // measure 29
00011000
00000000
00001000
00010000
00000000
00010000
00001000
00000000
00000100
00100000
00000000
00010000
00000000
00000000
00100000
00000000
,  // measure 30
00001000
00000000
00100000
00001000
00000000
00011000
00000000
00000000
00100000
00000000
00011000
00000000
00100000
00000000
00010000
00000000
,  // measure 31
01010000
00000000
00011000
00000000
01010000
00000000
00000000
00000000
00010000
01000000
00100000
00000000
01100000
00000000
00000000
01000000
,  // measure 32
00100000
00000000
00100000
00001000
00000000
00001000
00100000
00001000
00100000
00000000
00100000
00020000
00000000
00000000
00000000
00000000
,  // measure 33
00130000
00110000
00110000
00000000
01000000
01000000
00001000
00100000
,  // measure 34
00002000
01000000
01003000
00000000
01000000
00001000
01100000
10000000
,  // measure 35
00010000
10010000
10010000
00000000
10000000
10000000
00010000
01000000
,  // measure 36
00020000
00100000
00130000
00000000
01000000
00100000
00110000
10000000
,  // measure 37
01010000
01010000
00100000
00000000
00010000
00010000
10000000
01000000
,  // measure 38
20000000
00100000
30100000
00000000
00010000
10000000
10100000
01010000
,  // measure 39
01001000
01001000
00101000
00101000
00011000
00011000
00001000
00010000
,  // measure 40
00200000
00000000
00000000
01300000
00002000
00000000
00103000
00000000
,  // measure 41
01002000
00000000
00010000
00000000
00103000
00001000
01000000
00100000
,  // measure 42
02010000
00000000
03001000
00000000
00001000
00001000
00101000
00010100
,  // measure 43
00011000
00000000
00000000
00000000
;
