#TITLE:Power Rangers Megaforce Theme;
#SUBTITLE:;
#ARTIST:Noam Kaniel;
#TITLETRANSLIT:;
#SUBTITLETRANSLIT:;
#ARTISTTRANSLIT:;
#GENRE:;
#CREDIT:;
#BANNER:Power Rangers Megaforce Theme.png;
#BACKGROUND:Power Rangers Megaforce Theme-bg.png;
#LYRICSPATH:;
#CDTITLE:;
#MUSIC:Power Rangers Megaforce Theme.ogg;
#OFFSET:0.400;
#SAMPLESTART:36.600;
#SAMPLELENGTH:12.000;
#SELECTABLE:YES;
#BPMS:0.000=183.002,23.000=195.004,172.000=183.005;
#STOPS:23.000=0.900
,166.000=0.300
,169.000=0.300
,172.000=0.300
;
#TIMESIGNATURES:0.000=4=4
;
#BGCHANGES:1.229=Power Rangers Megaforce Theme.avi=1.000=0=0=1=====,
99999=-nosongbg-=1.000=0=0=0 // don't automatically add -songbackground-
;
#KEYSOUNDS:;

//---------------dance-single - G.Ramos----------------
#NOTES:
     dance-single:
     G.Ramos:
     Beginner:
     2:
     0.243,0.339,0.150,0.000,0.000,93.000,9.000,0.000,0.000,0.000,0.000,0.243,0.339,0.150,0.000,0.000,93.000,9.000,0.000,0.000,0.000,0.000:
0000
0000
0000
0000
,
0000
0000
0000
0000
,
0000
0000
0000
0000
,
0000
0000
0000
0010
,
0000
0010
0000
0010
,
0000
0010
0000
1001
,
0000
0100
0100
0000
,
0010
0010
0000
0000
,
0100
0000
0010
0000
,
0100
0000
0010
0000
,
1000
1000
1000
0000
,
0001
0001
0000
0000
,
1000
0000
0001
0000
,
1000
0000
0001
0000
,
0110
0000
0000
0000
,
0000
0000
0000
0000
,
0010
0000
0001
0000
,
0100
0000
1000
0000
,
1001
0000
0001
0000
,
0001
0000
0100
0000
,
0100
0000
0010
0000
,
0010
0010
0010
0010
,
0010
0010
0010
0000
,
0001
0001
0001
0001
,
0001
0001
0001
0000
,
0100
0100
0100
0100
,
0100
0100
0100
0000
,
1000
1000
1000
0000
,
1001
1001
1001
0000
,
0010
0010
0010
0000
,
0100
0100
0000
0000
,
0010
0000
0100
0000
,
0010
0000
0100
0000
,
0001
0001
0001
0000
,
1000
1000
0000
0000
,
0001
0000
1000
0000
,
0001
0000
1000
0000
,
0110
0000
0000
0000
,
0000
0000
0000
0000
,
0010
0000
1000
0000
,
0100
0000
0001
0000
,
1001
0000
0010
0010
,
0000
0100
0100
0000
,
0000
1000
0000
0001
,
0000
1000
0000
0001
,
0000
1001
0000
0000
;

//---------------dance-single - G.Ramos----------------
#NOTES:
     dance-single:
     G.Ramos:
     Easy:
     6:
     0.488,0.613,0.650,0.433,0.017,140.000,39.000,26.000,0.000,0.000,0.000,0.488,0.613,0.650,0.433,0.017,140.000,39.000,26.000,0.000,0.000,0.000:
0000
0000
0000
0000
,
0000
0000
0000
0000
,
0000
0000
0000
0000
,
0000
0000
0000
0010
,
0000
1000
0000
0000
0100
0000
0000
0010
,
0000
0000
0000
0000
0000
0000
0001
0000
0000
0100
0000
0000
0200
0000
0000
0000
,
0310
0000
0010
0000
0010
0000
0000
0100
,
0000
0200
0000
0000
0000
0000
0300
0000
,
1000
0001
1000
0001
,
1000
1000
0001
0001
,
0100
0000
0100
0000
0100
0000
0000
0010
,
0000
0020
0000
0000
0000
0000
0030
0000
,
0001
1000
0001
1000
,
0001
0001
1000
1000
,
1001
1001
1001
1001
,
1001
1001
1001
1001
,
0110
0110
1001
1001
,
0010
1010
0010
0011
,
0100
1000
0022
0033
,
0100
0001
2020
3030
,
0010
0100
2002
3003
,
2000
0010
0010
0010
,
3002
0100
0100
0100
,
2003
0100
0100
0100
,
3002
0010
0010
0010
,
2003
0000
0020
3030
,
2020
3030
0022
0033
,
2002
0000
0000
3003
,
0110
0110
2002
3003
,
0001
0000
0001
0000
0001
0000
0000
0010
,
0000
0020
0000
0000
0000
0000
0030
0000
,
1000
0100
1000
0100
,
0001
0001
0100
0100
,
1000
0000
1000
0000
1000
0000
0000
0010
,
0000
0020
0000
0000
0000
0000
0030
0000
,
0001
0100
0001
0100
,
1000
1000
0100
0100
,
0110
0110
0110
0110
,
0110
0110
0110
0110
,
1001
1001
0110
0110
,
0011
1100
1010
0101
,
0001
0000
0000
0001
0100
0000
0100
0000
,
0000
0100
0010
0000
0010
0000
0000
0010
,
1000
0000
0010
0000
0000
0001
0000
0000
,
0100
0000
0000
0010
0000
0000
0000
1000
,
0000
0100
0000
0000
0200
0000
0000
0000
0000
0000
0000
0000
0000
0000
0000
0000
,
0300
0000
0000
0000
;

//---------------dance-single - G.Ramos----------------
#NOTES:
     dance-single:
     G.Ramos:
     Medium:
     7:
     0.648,0.613,1.000,0.400,0.017,169.000,79.000,24.000,0.000,0.000,0.000,0.648,0.613,1.000,0.400,0.017,169.000,79.000,24.000,0.000,0.000,0.000:
0000
0000
0000
0000
,
0000
0000
0000
0000
,
0000
0000
0000
0000
,
0000
0000
0000
0010
,
0000
0001
0000
0000
0100
0000
0000
0110
,
0000
0000
0000
0000
0000
0000
1000
0000
0000
0100
0000
0000
0200
0000
0000
0000
,
1300
0000
1001
0000
1000
0001
0000
1001
,
0000
2002
0000
0000
0000
0000
3003
0000
,
1000
0100
1000
0000
0001
0100
0001
0000
,
1001
0110
1100
0101
,
0100
0000
0110
0000
0010
0100
0000
0110
,
0000
0220
0000
0000
0000
0000
0330
0000
,
0100
1000
0100
0000
0100
0001
0100
0000
,
0110
1001
0101
1100
,
1001
1001
1001
1001
,
1001
1001
1001
1001
,
1000
0001
0000
0020
0000
0000
0130
0000
,
1100
0000
1000
0002
0000
0000
0013
0000
,
0011
1100
2002
3003
,
1010
0101
2002
3003
,
0110
0110
1001
1001
,
0100
0001
0001
0000
0001
0001
0001
0000
,
0100
1000
1000
0000
1000
1000
1000
0000
,
0100
0001
0001
0001
0001
0001
0001
0001
,
0100
1000
1000
1000
1000
1000
1000
1000
,
0022
0003
0200
0330
,
2020
3000
0200
0330
,
1001
1001
0110
0110
,
0011
1010
1100
0101
,
1100
0000
0101
0000
1000
0001
0000
1100
,
0000
0202
0000
0000
0000
0000
0303
0000
,
1000
0010
1000
0000
0001
0010
0001
0000
,
1100
1010
0101
0011
,
0101
0000
1100
0000
0001
1000
0000
0101
,
0000
2200
0000
0000
0000
0000
3300
0000
,
0001
0010
0001
0000
1000
0010
1000
0000
,
0101
0011
1100
1010
,
0110
0110
0110
0110
,
0110
0110
0110
0110
,
0001
1000
0000
0200
0000
0000
0310
0000
,
0101
0000
0001
2000
0000
0000
3010
0000
,
1010
0101
1001
0011
,
1100
1001
0110
0110
,
1001
0000
0010
0000
0000
1000
0000
0000
,
0100
0000
0000
0110
0000
0000
0000
0001
,
0000
0100
0000
0000
0200
0000
0000
0000
0000
0000
0000
0000
0000
0000
0000
0000
,
0300
0000
0000
0000
;

//---------------dance-single - G.Ramos----------------
#NOTES:
     dance-single:
     G.Ramos:
     Hard:
     8:
     0.702,0.613,1.000,0.350,0.017,214.000,60.000,21.000,0.000,0.000,0.000,0.702,0.613,1.000,0.350,0.017,214.000,60.000,21.000,0.000,0.000,0.000:
0000
0000
0000
0000
,
0000
0000
0000
0000
,
0000
0000
0000
0000
,
0000
0000
0000
0001
,
0000
0010
0000
0000
0100
0000
0000
1000
,
0000
0000
0000
0000
0000
0000
0100
0000
0000
0001
0000
0000
0200
0000
0300
0000
,
1001
0000
0110
0000
0100
0010
0000
1010
,
0000
0202
0000
0000
0000
0000
0303
0000
,
1000
0010
1000
0000
0001
0100
0001
0000
,
1010
1010
0101
0101
,
1001
0000
0110
0000
0100
0010
0000
0011
,
0000
2200
0000
0000
0000
0000
3300
0000
,
0001
0010
0001
0000
1000
0100
1000
0000
,
0001
0010
0100
1000
0010
0100
0001
0010
,
0011
1001
0101
1001
,
1010
1001
1100
1001
,
0100
0010
0000
0210
0000
0010
0310
0000
,
0010
1000
0100
0001
0100
1000
0010
0100
,
0001
0010
0001
0100
2001
0000
3001
0000
,
1000
0010
1000
0100
1002
0000
1003
0000
,
1000
0010
0100
0001
1000
0010
1001
0000
,
1000
0100
1000
0100
1000
0100
1000
0100
,
0010
0001
0010
0001
0010
0001
0010
0001
,
1000
0100
0001
0100
1000
0100
0001
0100
,
1000
0010
0001
0010
1000
0010
0001
0010
,
1020
0130
0021
0130
,
2001
3100
1002
0103
,
0010
0100
0010
0100
0010
0100
0010
0100
,
0020
2030
3001
1001
,
0110
0000
1001
0000
0010
0100
0000
1100
,
0000
0022
0000
0000
0000
0000
0033
0000
,
0100
1000
0100
0000
0010
0001
0010
0000
,
1100
0011
1100
0011
,
0110
0000
1001
0000
0010
0100
0000
0101
,
0000
2020
0000
0000
0000
0000
3030
0000
,
0100
0001
0100
0000
0010
1000
0010
0000
,
0001
0010
0100
1000
0010
0100
0001
1000
,
1100
1001
1010
1001
,
0101
1001
0011
1001
,
0010
0100
0000
0120
0000
0100
0130
0000
,
0010
1000
0001
0100
0010
0100
0001
1000
,
0010
0100
1000
0001
0110
0000
0010
0001
,
0100
1000
1100
0000
1000
0001
0100
0010
,
0110
0000
1010
0000
0000
1100
0000
0000
,
0011
0000
0000
0101
0000
0000
0000
1001
,
0000
0110
0000
0000
2002
0000
0000
0000
0000
0000
0000
0000
0000
0000
0000
0000
,
3003
0000
0000
0000
;

//---------------dance-double - G.Ramos----------------
#NOTES:
     dance-double:
     G.Ramos:
     Easy:
     6:
     0.479,0.613,0.583,0.433,0.017,140.000,35.000,26.000,0.000,0.000,0.000,0.479,0.613,0.583,0.433,0.017,140.000,35.000,26.000,0.000,0.000,0.000:
00000000
00000000
00000000
00000000
,
00000000
00000000
00000000
00000000
,
00000000
00000000
00000000
00000000
,
00000000
00000000
00000000
00100000
,
00000000
10000000
00000000
00000000
01000000
00000000
00000000
00100000
,
00000000
00000000
00000000
00000000
00000000
00000000
00010000
00000000
00000000
01000000
00000000
00000000
02000000
00000000
00000000
00000000
,
03100000
00000000
00100000
00000000
00100000
00000000
00000000
01000000
,
00000000
00200000
00000000
00000000
00000000
00000000
00300000
00000000
,
01000000
00001000
01000000
00001000
,
01000000
01000000
00001000
00001000
,
00100000
00000000
00100000
00000000
00100000
00000000
00000000
00010000
,
00000000
00002000
00000000
00000000
00000000
00000000
00003000
00000000
,
00000100
00100000
00000100
00100000
,
00000100
00000100
00100000
00100000
,
00100000
00100000
00100000
00100000
,
00010010
00010010
00010010
00010010
,
00001100
00001100
00010010
00010010
,
00000100
00010100
00000100
00000110
,
00001000
00010000
00000220
00000330
,
00000100
00000001
00002020
00003030
,
00000010
00000100
00002002
00003003
,
00002000
00000010
00000010
00000010
,
00003002
00000100
00000100
00000100
,
00002003
00000100
00000100
00000100
,
00003002
00000010
00000010
00000010
,
00002003
00000000
00000020
00003030
,
00020200
00030300
00000220
00000330
,
00020020
00000000
00000000
00030030
,
00001100
00001100
00020020
00030030
,
00000010
00000000
00000010
00000000
00000010
00000000
00000000
00000100
,
00000000
00002000
00000000
00000000
00000000
00000000
00003000
00000000
,
00100000
00010000
00100000
00010000
,
00000100
00000100
00010000
00010000
,
00100000
00000000
00100000
00000000
00100000
00000000
00000000
00001000
,
00000000
00020000
00000000
00000000
00000000
00000000
00030000
00000000
,
00001000
00100000
00001000
00100000
,
01000000
01000000
00100000
00100000
,
00110000
00110000
00110000
00110000
,
01100000
01100000
01100000
01100000
,
10010000
10010000
01100000
01100000
,
00110000
11000000
10100000
01010000
,
00010000
00000000
00000000
00010000
01000000
00000000
01000000
00000000
,
00000000
00100000
00010000
00000000
00010000
00000000
00000000
00010000
,
01000000
00000000
00010000
00000000
00000000
00001000
00000000
00000000
,
00100000
00000000
00000000
00010000
00000000
00000000
00000000
01000000
,
00000000
00100000
00000000
00000000
00200000
00000000
00000000
00000000
00000000
00000000
00000000
00000000
00000000
00000000
00000000
00000000
,
00300000
00000000
00000000
00000000
;

//---------------dance-double - G.Ramos----------------
#NOTES:
     dance-double:
     G.Ramos:
     Medium:
     7:
     0.629,0.613,1.000,0.400,0.017,169.000,71.000,24.000,0.000,0.000,0.000,0.629,0.613,1.000,0.400,0.017,169.000,71.000,24.000,0.000,0.000,0.000:
00000000
00000000
00000000
00000000
,
00000000
00000000
00000000
00000000
,
00000000
00000000
00000000
00000000
,
00000000
00000000
00000000
00100000
,
00000000
00010000
00000000
00000000
01000000
00000000
00000000
01100000
,
00000000
00000000
00000000
00000000
00000000
00000000
10000000
00000000
00000000
01000000
00000000
00000000
02000000
00000000
00000000
00000000
,
13000000
00000000
10010000
00000000
10000000
00010000
00000000
10010000
,
00000000
02002000
00000000
00000000
00000000
00000000
03003000
00000000
,
01000000
00100000
01000000
00000000
00001000
00100000
00001000
00000000
,
01001000
00110000
01100000
00101000
,
00100000
00000000
00110000
00000000
00010000
00100000
00000000
00110000
,
00000000
00022000
00000000
00000000
00000000
00000000
00033000
00000000
,
00010000
00100000
00010000
00000000
00010000
00000100
00010000
00000000
,
00011000
00100000
00010100
00110000
,
00100000
00100000
00100000
00100000
,
00010010
00010010
00010010
00010010
,
00010000
00000010
00000000
00000200
00000000
00000000
00001300
00000000
,
00011000
00000000
00010000
00000020
00000000
00000000
00000130
00000000
,
00000110
00011000
00020020
00030030
,
00001010
00000101
00002002
00003003
,
00000110
00000110
00001001
00001001
,
00000100
00000001
00000001
00000000
00000001
00000001
00000001
00000000
,
00000100
00001000
00001000
00000000
00001000
00001000
00001000
00000000
,
00001000
00000010
00000010
00000010
00000010
00000010
00000010
00000010
,
00001000
00010000
00010000
00010000
00010000
00010000
00010000
00010000
,
00000220
00000030
00002000
00003300
,
00020200
00030000
00002000
00003300
,
00100000
00100000
00011000
00011000
,
00001100
00101000
00110000
00010100
,
00110000
00000000
00010100
00000000
00100000
00000100
00000000
00110000
,
00000000
00020200
00000000
00000000
00000000
00000000
00030300
00000000
,
01000000
00010000
01000000
00000000
00001000
00010000
00001000
00000000
,
01100000
01010000
00101000
00011000
,
00101000
00000000
01100000
00000000
00001000
01000000
00000000
00101000
,
00000000
02200000
00000000
00000000
00000000
00000000
03300000
00000000
,
00010000
00100000
00010000
00000000
10000000
00100000
10000000
00000000
,
01010000
00110000
11000000
10100000
,
01100000
01100000
01100000
01100000
,
01100000
01100000
01100000
01100000
,
00001000
01000000
00000000
00200000
00000000
00000000
00310000
00000000
,
00101000
00000000
00001000
02000000
00000000
00000000
03010000
00000000
,
01010000
00101000
01001000
00011000
,
01100000
01001000
00110000
00110000
,
00100000
00000000
00001000
00000000
00000000
00100000
00000000
00000000
,
00010000
00000000
00000000
00011000
00000000
00000000
00000000
00000100
,
00000000
00010000
00000000
00000000
00020000
00000000
00000000
00000000
00000000
00000000
00000000
00000000
00000000
00000000
00000000
00000000
,
00030000
00000000
00000000
00000000
;

//---------------dance-double - G.Ramos----------------
#NOTES:
     dance-double:
     G.Ramos:
     Hard:
     8:
     0.693,0.613,0.933,0.350,0.017,214.000,56.000,21.000,0.000,0.000,0.000,0.693,0.613,0.933,0.350,0.017,214.000,56.000,21.000,0.000,0.000,0.000:
00000000
00000000
00000000
00000000
,
00000000
00000000
00000000
00000000
,
00000000
00000000
00000000
00000000
,
00000000
00000000
00000000
00010000
,
00000000
00100000
00000000
00000000
01000000
00000000
00000000
10000000
,
00000000
00000000
00000000
00000000
00000000
00000000
01000000
00000000
00000000
00010000
00000000
00000000
02000000
00000000
03000000
00000000
,
01001000
00000000
00110000
00000000
00100000
00010000
00000000
01010000
,
00000000
00202000
00000000
00000000
00000000
00000000
00303000
00000000
,
01000000
00010000
01000000
00000000
00001000
00100000
00001000
00000000
,
01010000
01010000
00101000
00101000
,
00100000
00000000
00011000
00000000
00010000
00001000
00000000
00001100
,
00000000
00220000
00000000
00000000
00000000
00000000
00330000
00000000
,
00000100
00001000
00000100
00000000
00100000
00010000
00100000
00000000
,
00000100
00001000
00010000
00100000
00001000
00010000
00000100
00001000
,
00000110
00010010
00001010
00010010
,
00010100
00010010
00011000
00010010
,
00001000
00000100
00000000
00002100
00000000
00000100
00003100
00000000
,
00000100
00010000
00001000
00000010
00001000
00010000
00000100
00001000
,
00000001
00000010
00000001
00000100
00002001
00000000
00003001
00000000
,
00001000
00000010
00001000
00000100
00001002
00000000
00001003
00000000
,
00001000
00000010
00000100
00000001
00001000
00000010
00001001
00000000
,
00001000
00000100
00001000
00000100
00001000
00000100
00001000
00000100
,
00000100
00000010
00000100
00000010
00000100
00000010
00000100
00000010
,
00010000
00001000
00000010
00001000
00010000
00001000
00000010
00001000
,
00010000
00000100
00000010
00000100
00010000
00000100
00000010
00000100
,
00010200
00001300
00000210
00001300
,
00200100
00310000
00100200
00010300
,
00001000
00010000
00001000
00010000
00001000
00010000
00001000
00010000
,
00002000
00203000
00300100
00100000
,
00011000
00000000
00100000
00000000
00001000
00010000
00000000
00110000
,
00000000
00022000
00000000
00000000
00000000
00000000
00033000
00000000
,
00100000
01000000
00100000
00000000
00010000
00001000
00010000
00000000
,
01100000
00011000
01100000
00011000
,
00110000
00000000
01001000
00000000
00010000
00100000
00000000
00101000
,
00000000
20200000
00000000
00000000
00000000
00000000
30300000
00000000
,
01000000
00010000
01000000
00000000
00100000
10000000
00100000
00000000
,
00010000
00100000
01000000
10000000
00100000
01000000
00010000
10000000
,
11000000
10010000
10100000
10010000
,
00101000
01001000
00011000
01001000
,
00010000
00100000
00000000
00120000
00000000
00100000
00130000
00000000
,
00010000
01000000
00001000
00100000
00010000
00100000
00001000
01000000
,
00010000
00100000
01000000
00001000
00110000
00000000
00010000
00001000
,
00010000
00100000
00110000
00000000
00100000
00000100
00010000
00001000
,
00011000
00000000
00101000
00000000
00000000
00110000
00000000
00000000
,
00001100
00000000
00000000
00010100
00000000
00000000
00000000
00100000
,
00000000
00011000
00000000
00000000
00200200
00000000
00000000
00000000
00000000
00000000
00000000
00000000
00000000
00000000
00000000
00000000
,
00300300
00000000
00000000
00000000
;
