#TITLE:Perfect!;
#SUBTITLE:;
#ARTIST:Diva;
#TITLETRANSLIT:;
#SUBTITLETRANSLIT:;
#ARTISTTRANSLIT:;
#GENRE:;
#CREDIT:;
#BANNER:Perfect!.png;
#BACKGROUND:Perfect!-bg.png;
#LYRICSPATH:;
#CDTITLE:;
#MUSIC:Perfect!.ogg;
#OFFSET:0.560;
#SAMPLESTART:59.140;
#SAMPLELENGTH:12.000;
#SELECTABLE:YES;
#BPMS:0.000=132.001;
#STOPS:;
#TIMESIGNATURES:0.000=4=4
;
#BGCHANGES:0.500=Perfect!.avi=1.000=0=0=0=StretchNoLoop====,
99999=-nosongbg-=1.000=0=0=0 // don't automatically add -songbackground-
;
#KEYSOUNDS:;

//---------------dance-single - Gabe (Zenius-I-vanisher.com)----------------
#NOTES:
     dance-single:
     Gabe (Zenius-I-vanisher.com):
     Beginner:
     1:
     0.125,0.133,0.020,0.000,0.000,87.000,2.000,0.000,0.000,0.000,0.000,0.125,0.133,0.020,0.000,0.000,87.000,2.000,0.000,0.000,0.000,0.000:
0000
0000
0000
0000
,
0000
0000
0000
0000
,
0000
0000
0000
0000
,
0000
0000
0000
0000
,
0000
0000
0000
0000
,
1000
0000
0000
0000
,
1000
0000
0000
0000
,
1000
0000
0000
0001
,
0001
0000
0000
0000
,
1000
0000
0000
0000
,
1000
0000
1000
0000
,
0001
0000
0000
0000
,
0001
0000
0001
0000
,
0000
0010
0010
0000
,
0100
0000
0100
0000
,
1000
0000
0000
0000
,
0001
0000
0000
0000
,
1000
1000
1000
0000
,
0001
0000
0001
0000
,
1000
0000
1000
0000
,
0010
0000
0010
0000
,
0001
0001
0001
0000
,
1000
0000
1000
0000
,
0001
0000
0001
0000
,
1001
0000
0000
0000
,
0100
0000
0000
0000
,
0010
0000
0010
0000
,
0010
0000
0000
0000
,
0001
0000
0001
0000
,
0001
0000
0000
0000
,
0010
0000
0010
0000
,
0010
0000
0000
0000
,
1000
1000
1000
0000
,
0100
0000
0100
0000
,
1000
0000
1000
0000
,
0100
0000
0100
0000
,
0001
0000
0001
0000
,
0010
0000
0001
0000
,
0010
0000
1000
0000
,
0100
0000
1000
0000
,
0001
0000
0001
0000
,
0100
0100
0000
0000
,
0010
0010
0000
0000
,
1000
1000
0000
0000
,
0001
0001
0000
0000
,
0001
0000
0001
0000
,
0100
0000
0100
0000
,
1000
0000
1000
0000
,
0001
0000
1001
0000
,
0100
0000
0000
0000
,
1000
0000
0100
0000
,
0001
0000
0100
0000
,
1000
0000
0000
0000
,
0001
0000
0000
0000
,
0010
0000
0000
0000
;

//---------------dance-single - Gabe (Zenius-I-vanisher.com)----------------
#NOTES:
     dance-single:
     Gabe (Zenius-I-vanisher.com):
     Easy:
     5:
     0.264,0.302,0.049,0.167,0.005,166.000,5.000,17.000,0.000,0.000,0.000,0.264,0.302,0.049,0.167,0.005,166.000,5.000,17.000,0.000,0.000,0.000: // measure 1
0000
0000
0000
0000
,  // measure 2
0000
0000
0000
0000
,  // measure 3
0000
0000
0000
0000
,  // measure 4
0000
0000
0000
0000
,  // measure 5
0000
0000
0000
0000
,  // measure 6
1000
1000
0100
0000
,  // measure 7
0001
0001
0100
0000
,  // measure 8
0010
0000
0100
0000
0000
0010
0010
0020
,  // measure 9
0000
0000
0000
0030
,  // measure 10
0000
0001
0000
1000
,  // measure 11
0010
0001
0100
1000
,  // measure 12
0000
1000
0000
0001
,  // measure 13
0010
1000
0100
0001
,  // measure 14
0000
0001
0100
1000
,  // measure 15
0000
1000
0010
0001
,  // measure 16
1000
1000
0001
0010
,  // measure 17
2002
0000
0000
3003
,  // measure 18
1000
0100
1000
0000
0001
0000
0001
0000
,  // measure 19
0100
0100
0001
0001
,  // measure 20
0010
0001
1000
0100
,  // measure 21
0010
1000
0001
0100
,  // measure 22
0001
0100
0001
0000
1000
0000
1000
0000
,  // measure 23
0100
0100
1000
1000
,  // measure 24
0010
0001
0100
1000
,  // measure 25
2002
0000
0000
3003
,  // measure 26
1000
0000
0001
0001
,  // measure 27
1000
0000
1000
1000
,  // measure 28
0001
0000
0010
0001
,  // measure 29
1000
0000
0010
1000
,  // measure 30
0001
0000
1000
0100
,  // measure 31
0010
0000
0001
0100
,  // measure 32
0010
0010
1000
0100
,  // measure 33
1100
0101
1001
0000
,  // measure 34
0002
1000
0200
0303
,  // measure 35
2000
0001
0200
3300
,  // measure 36
0010
1000
0100
0001
,  // measure 37
0100
1000
0010
0000
,  // measure 38
2000
0001
0020
3030
,  // measure 39
0002
1000
0020
0033
,  // measure 40
0010
1000
0100
0001
,  // measure 41
0100
1000
0010
0000
,  // measure 42
1000
0010
1000
0000
0001
0100
0001
0000
,  // measure 43
1000
0100
0001
0010
,  // measure 44
0001
0010
1000
0100
,  // measure 45
0010
0000
0010
0000
0001
1000
0001
0000
,  // measure 46
0010
1000
0100
1000
,  // measure 47
0000
0001
0001
0001
,  // measure 48
0010
0001
0100
0001
,  // measure 49
1000
0010
0200
0000
,  // measure 50
0320
0000
0000
0030
,  // measure 51
1000
1000
0100
0000
,  // measure 52
0001
0001
0100
0000
,  // measure 53
0010
0000
0100
0000
0000
0010
0010
0020
,  // measure 54
0000
0000
0000
0030
,  // measure 55
0100
0000
0000
0000
0100
0000
0000
0000
0100
0000
0100
0000
0000
0000
0000
0200
,  // measure 56
0000
0000
0000
0300
;

//---------------dance-single - Gabe (Zenius-I-vanisher.com)----------------
#NOTES:
     dance-single:
     Gabe (Zenius-I-vanisher.com):
     Medium:
     6:
     0.322,0.329,0.177,0.167,0.010,194.000,18.000,17.000,0.000,0.000,0.000,0.322,0.329,0.177,0.167,0.010,194.000,18.000,17.000,0.000,0.000,0.000: // measure 1
0000
0000
0000
0000
,  // measure 2
0000
0000
0000
0000
,  // measure 3
0000
0000
0000
0000
,  // measure 4
0000
0000
0000
0000
,  // measure 5
0000
0000
0000
0000
,  // measure 6
0010
0100
0001
1000
,  // measure 7
0010
0100
1000
0001
,  // measure 8
0101
0000
1100
0000
0000
0010
0010
0020
,  // measure 9
0000
0000
0000
0030
,  // measure 10
1000
1000
0100
0100
,  // measure 11
1000
1000
0010
0010
,  // measure 12
0001
0001
0100
0100
,  // measure 13
0001
0001
0010
0010
,  // measure 14
0100
0001
0010
0001
,  // measure 15
0100
1000
0010
1000
,  // measure 16
0010
0100
0001
1000
,  // measure 17
2002
0000
3000
0103
,  // measure 18
0001
1000
0100
0000
0001
0000
0001
0000
,  // measure 19
1000
1000
0100
0100
,  // measure 20
0010
0001
0100
1000
,  // measure 21
0010
1000
0100
0001
,  // measure 22
1000
0001
0100
0000
1000
0000
1000
0000
,  // measure 23
0001
0001
0100
0100
,  // measure 24
0001
1000
0100
0010
,  // measure 25
0020
0200
0000
0000
0000
0000
0330
0000
,  // measure 26
0002
0100
1000
0100
,  // measure 27
2003
0100
0001
0100
,  // measure 28
3002
0010
1000
0010
,  // measure 29
2003
0010
0001
0010
,  // measure 30
3002
1000
0010
0103
,  // measure 31
2000
0001
0010
0100
,  // measure 32
3002
1000
0100
0013
,  // measure 33
0011
0101
1001
0000
,  // measure 34
0001
0100
0001
0000
0101
0000
0000
0000
,  // measure 35
0001
0010
0001
0000
0011
0000
0000
0000
,  // measure 36
1000
0100
0001
0010
,  // measure 37
1100
1010
0011
0000
,  // measure 38
1000
0100
1000
0000
1100
0000
0000
0000
,  // measure 39
1000
0010
1000
0000
1010
0000
0000
0000
,  // measure 40
0001
0100
1000
0010
,  // measure 41
0101
0011
1010
0000
,  // measure 42
1000
0100
1000
0000
0001
0100
0001
0000
,  // measure 43
1000
0000
0001
0000
1000
0100
0001
0000
,  // measure 44
0001
1000
0010
0000
1000
0001
0010
0000
,  // measure 45
1000
0000
0001
0000
1000
0010
0001
0000
,  // measure 46
1000
1000
0100
0100
,  // measure 47
0000
1000
0100
0000
0010
0000
0010
0000
,  // measure 48
0001
0001
0100
0100
,  // measure 49
0010
0000
0000
0010
0000
0000
0010
0000
0200
0000
0000
0000
0000
0000
0000
0000
,  // measure 50
0020
0000
0000
0330
,  // measure 51
0010
0100
0001
1000
,  // measure 52
0010
0100
1000
0001
,  // measure 53
0101
0000
1100
0000
0000
0001
1000
0002
,  // measure 54
0000
2000
0000
0000
0000
0000
3003
0000
,  // measure 55
0001
0000
0000
0000
1000
0000
0000
0000
0001
0000
1000
0000
0000
0000
0000
0020
,  // measure 56
0000
0000
0000
0030
;

//---------------dance-single - Gabe (Zenius-I-vanisher.com)----------------
#NOTES:
     dance-single:
     Gabe (Zenius-I-vanisher.com):
     Hard:
     8:
     0.533,0.576,0.374,0.364,0.084,304.000,38.000,37.000,0.000,0.000,0.000,0.533,0.576,0.374,0.364,0.084,304.000,38.000,37.000,0.000,0.000,0.000: // measure 1
0000
0000
0000
0000
,  // measure 2
0000
0000
0000
0000
,  // measure 3
0000
0000
0000
0000
,  // measure 4
0000
0000
0000
0000
,  // measure 5
0000
0000
0000
0000
0000
0010
0100
0010
,  // measure 6
0110
0000
1000
0100
0101
0000
1000
0010
,  // measure 7
0011
0000
0001
0100
1100
0000
0010
0002
,  // measure 8
0000
0203
0000
0300
0000
0100
0010
2002
,  // measure 9
0000
3003
0110
1001
,  // measure 10
0001
1000
0100
0000
0001
0000
0001
0000
,  // measure 11
0010
0001
0100
0000
0010
1000
0100
0000
,  // measure 12
1000
0001
0100
0000
1000
0000
1000
0000
,  // measure 13
0010
1000
0100
0000
0010
0001
0100
0000
,  // measure 14
1001
0000
1000
0100
0001
0010
1000
0000
,  // measure 15
0010
0000
0100
0000
0010
0001
0010
0000
,  // measure 16
1000
0001
0010
0100
,  // measure 17
0220
0000
0300
0000
0100
0130
0110
0000
,  // measure 18
1000
0010
1000
0010
1000
0010
1000
0000
,  // measure 19
1000
0100
1000
0100
1000
0100
1000
0000
,  // measure 20
0001
0010
0001
0010
0001
0010
0001
0000
,  // measure 21
0001
0100
0001
0100
0001
0100
0001
0000
,  // measure 22
1000
0100
0001
0100
1000
0100
0001
0000
,  // measure 23
1000
0010
0001
0010
1000
0010
0001
0000
,  // measure 24
0010
1000
0100
0001
0100
1000
0010
0001
,  // measure 25
0001
0002
0000
1000
1000
2000
0000
3003
,  // measure 26
0100
0010
0001
0200
0010
0010
0310
0000
,  // measure 27
0100
0010
1000
0200
0010
0010
0310
0000
,  // measure 28
0001
0010
0100
2000
0001
0001
3001
0000
,  // measure 29
1000
0010
0100
0002
1000
1000
1003
0000
,  // measure 30
2000
0100
0100
0010
3002
0100
0103
0000
,  // measure 31
0002
0100
0100
0010
2003
0100
3100
0000
,  // measure 32
1000
2000
0001
3002
0100
0203
0310
0110
,  // measure 33
0000
0100
0010
0000
1001
0000
1000
0200
,  // measure 34
0000
1000
1300
0000
1100
0000
0200
0001
,  // measure 35
0000
0301
0100
0001
0101
0000
1000
0200
,  // measure 36
0000
0000
1300
0000
0010
0000
0100
0000
0001
0000
0000
0010
0000
0000
0100
0000
,  // measure 37
1000
0010
1000
0001
1000
1100
0000
0102
,  // measure 38
0000
0013
0100
0010
1001
0000
0001
2010
,  // measure 39
0000
3100
0010
0100
1001
0000
0110
1001
,  // measure 40
0000
0000
1000
0000
0001
0000
0100
0000
0020
0000
0000
2000
0030
0000
0002
0000
,  // measure 41
0000
0000
0000
0000
3003
0100
0100
0100
,  // measure 42
0010
1000
0010
1000
0010
0000
0000
0000
0100
0001
0100
0001
0100
0000
0000
0000
,  // measure 43
0010
0000
0000
0010
0000
0000
0010
0000
0100
0000
0001
0000
1000
0100
1000
0000
,  // measure 44
0010
0001
0010
0001
0010
0000
0001
0000
0100
1000
0100
1000
0100
0000
0010
0000
,  // measure 45
0100
0000
0000
0100
0000
0000
0100
0000
0011
0000
1100
0000
1001
0000
0000
0000
,  // measure 46
2000
0000
0010
0010
0010
0000
3010
0000
,  // measure 47
0002
0100
0100
0100
0100
0000
0013
0000
,  // measure 48
2001
0000
0010
0100
3010
0000
0101
0000
,  // measure 49
0011
0000
0000
1100
0000
0000
0110
0000
1001
0000
0000
0000
0001
0100
0001
0100
,  // measure 50
0002
0000
0000
0000
0000
0100
0100
0100
,  // measure 51
0013
0000
0001
0100
0101
0000
1000
0010
,  // measure 52
1010
0000
1000
0100
1100
0000
0002
0100
,  // measure 53
0000
0023
0000
0000
0030
0001
1000
0020
,  // measure 54
0000
0200
0000
0000
0000
0000
0030
0310
,  // measure 55
0110
0000
0000
0000
0110
0000
0000
0000
1001
0000
1001
0000
0000
0000
0000
0220
,  // measure 56
0000
0000
0000
0330
;

//---------------dance-single - Gabe, with recycled steps----------------
#NOTES:
     dance-single:
     Gabe, with recycled steps:
     Challenge:
     9:
     0.565,0.603,0.403,0.059,0.369,355.000,41.000,6.000,0.000,0.000,0.000,0.565,0.603,0.403,0.059,0.369,355.000,41.000,6.000,0.000,0.000,0.000: // measure 1
0000
0000
0000
0000
,  // measure 2
0000
0000
0000
0000
,  // measure 3
0000
0000
0000
0000
,  // measure 4
0000
0000
0000
0000
,  // measure 5
0000
0000
0000
0000
,  // measure 6
0101
0000
0000
0100
0001
0000
0000
0001
0100
0000
0001
0000
0100
0000
0000
0000
,  // measure 7
1100
0000
0000
0100
1000
0000
0000
1000
0100
0000
1000
0000
0100
0000
0000
0000
,  // measure 8
0110
0000
0000
0010
0100
0000
0000
0100
0010
0000
1001
0000
1001
0000
2002
0000
,  // measure 9
0000
0000
0000
3003
0110
0000
1001
0000
,  // measure 10
0100
0001
0010
0000
1100
0000
0101
0000
,  // measure 11
0010
0001
0100
0000
1010
0000
0100
0000
,  // measure 12
1100
0010
0011
0110
,  // measure 13
0001
0100
0010
1000
0001
0000
0000
0000
,  // measure 14
0000
1000
0010
0100
0101
1000
1100
0010
,  // measure 15
0001
0000
1001
0010
0100
0000
1001
0000
,  // measure 16
0000
0000
0010
1000
0001
1000
0100
1000
,  // measure 17
0110
0000
0000
0000
0000
0000
0000
0000
0010
0000
1000
0000
0001
1000
0000
0000
,  // measure 18
1000
0100
1000
0100
1000
0000
0000
0000
0001
0000
0010
0000
0100
0000
0000
0000
,  // measure 19
1000
0010
1000
0010
1000
0000
0000
0000
0100
0000
0010
0000
0001
0000
0000
0000
,  // measure 20
0100
0010
0100
0010
0100
0000
0000
0000
0001
0000
1000
0000
0100
0000
0000
0000
,  // measure 21
0010
0001
0010
0001
0010
0000
0000
0000
0100
1000
0100
1000
0100
0000
0000
0000
,  // measure 22
0001
0100
0001
0100
0001
0000
0000
0000
0010
0000
1000
0000
0100
0000
0000
0000
,  // measure 23
0010
0001
0010
0001
0010
0000
0000
0000
0100
0000
1000
0000
0001
0000
0000
0000
,  // measure 24
0010
0100
0000
1000
0001
0000
0010
0100
0000
1000
0001
0000
0010
0000
0100
0000
,  // measure 25
1001
0000
0010
0010
0001
0001
0100
0100
,  // measure 26
0010
0000
1000
0100
1000
0000
1000
0000
0001
0000
0100
0010
0100
0000
0000
0000
,  // measure 27
0001
0000
1000
0100
1000
0000
0001
0000
0100
0000
0010
1000
0010
0000
0000
0000
,  // measure 28
0100
0000
0001
0010
0001
0000
1000
0000
0100
0000
0010
0001
0010
0000
0000
0000
,  // measure 29
1000
0000
0100
0010
0100
0000
1000
0000
0001
0100
0001
0000
1000
0000
0100
0000
,  // measure 30
0010
0000
0001
1000
0001
0000
0100
0000
0010
0000
1000
0001
0100
0000
0000
0000
,  // measure 31
0010
0000
1000
0100
1000
0000
0010
0000
0100
0000
0001
1000
0100
0000
0000
0000
,  // measure 32
0010
0000
0001
0100
0001
0000
0010
0000
0100
0000
1000
0001
0100
0000
0000
0000
,  // measure 33
0010
0000
1000
0001
0100
0000
0010
1000
0001
0000
0010
0000
0100
1000
0001
0000
,  // measure 34
0100
0000
0000
0000
0100
0000
0000
0010
0001
0000
1000
0000
0010
0000
0100
0000
,  // measure 35
0000
0000
0100
0000
0100
0000
0000
0000
0001
0000
0000
0001
0000
0000
0001
0000
,  // measure 36
1000
0000
0000
0000
1000
0000
0000
0100
0010
0000
0001
0000
0010
0000
1000
0000
,  // measure 37
0000
0000
0010
0000
0010
0000
0000
0000
0001
0000
0000
1000
0000
0000
0100
0000
,  // measure 38
0000
0010
0001
0100
0010
0000
1000
0100
,  // measure 39
0000
0010
0001
0100
0010
0000
1001
0000
,  // measure 40
0000
0000
0010
0000
0100
0000
0000
0000
1000
0000
0000
1000
0000
0000
0001
0000
,  // measure 41
0000
0100
0010
1000
0001
1100
0000
0000
,  // measure 42
0101
0000
0000
0000
1100
0000
0010
1000
0100
1000
0010
1000
0100
0000
0000
0000
,  // measure 43
0101
0000
0000
0000
1100
0000
0010
1000
0100
1000
0010
1000
0100
0000
0000
0000
,  // measure 44
0101
0000
0000
0000
1100
0000
0010
1000
0100
1000
0010
1000
0100
0000
0000
0000
,  // measure 45
0011
1010
0100
0100
,  // measure 46
0010
0100
0010
0100
0010
0000
1000
0000
0001
0000
0001
0000
0010
0000
0100
0000
,  // measure 47
1000
0010
1000
0010
1000
0000
0100
0000
0010
0000
0010
0000
0001
1000
0000
0000
,  // measure 48
0010
0100
0010
0100
0010
0000
0000
0000
1000
0100
1000
0100
1000
0000
0000
0000
,  // measure 49
0011
0000
0000
1100
0000
0000
0110
0000
1001
0000
0000
0000
0001
0100
0001
0100
,  // measure 50
0002
0000
0000
0000
0000
0100
0100
0103
,  // measure 51
0101
0000
0000
0100
0001
0000
0000
0001
0100
0000
0001
0000
0100
0000
0000
0000
,  // measure 52
1100
0000
0000
0100
1000
0000
0000
1000
0100
0000
1000
0000
0100
0000
0000
0000
,  // measure 53
0110
0000
0000
0010
0100
0000
0000
0100
0010
0000
1001
0000
1001
0000
1001
0000
,  // measure 54
0000
0002
0000
0000
0000
0000
0003
0001
,  // measure 55
1000
0000
0000
0000
0010
0000
0000
0000
1000
0000
0001
0000
0000
0000
0000
2200
,  // measure 56
0000
0000
0000
3300
;
