#TITLE:Not My Battle;
#SUBTITLE:;
#ARTIST:Gundrill;
#TITLETRANSLIT:;
#SUBTITLETRANSLIT:;
#ARTISTTRANSLIT:;
#GENRE:;
#CREDIT:;
#BANNER:notmybattle.png;
#BACKGROUND:notmybattle-bg.png;
#LYRICSPATH:;
#CDTITLE:;
#MUSIC:NotMyBattle.ogg;
#OFFSET:-0.063;
#SAMPLESTART:0.070;
#SAMPLELENGTH:12.000;
#SELECTABLE:YES;
#BPMS:0.000=155.880,168.000=77.940,200.000=155.880;
#STOPS:;
#BGCHANGES:;
#KEYSOUNDS:;

//---------------dance-single - ----------------
#NOTES:
     dance-single:
     :
     Easy:
     5:
     0.331,0.000,0.371,0.109,0.036:
0000
0000
0000
0000
,
0000
0000
0000
0000
,
0000
0000
0000
0000
,
0000
0000
0000
0000
,
0001
0000
0000
1000
0000
0000
1010
0000
,
1000
0000
0000
0001
0000
0000
0101
0000
,
0001
0000
0000
1000
0000
0000
1100
0000
,
1000
0000
0010
0001
0000
0000
0011
0000
,
1000
0000
0000
0010
0000
0000
0000
0000
,
0001
0000
0000
0010
0000
0000
0110
0000
,
0010
0000
0000
0001
0000
0000
0000
0000
,
1000
0000
0000
0010
0000
0000
1001
0000
,
0100
0000
0000
1000
0000
0000
0001
0000
,
0010
0000
0000
0010
0000
0000
0110
0000
,
0001
0000
0000
1000
0000
0000
1000
0000
,
0100
0000
0000
0100
0000
0000
1001
0000
,
0010
0000
0000
2000
0000
0000
0000
3000
,
0001
0100
0001
0010
,
0010
0000
0000
0002
0000
0000
0000
0003
,
0010
0100
1000
0010
,
0010
0000
0000
0002
0000
0000
0000
0003
,
0100
1000
0001
0100
,
0010
0000
0000
2000
0000
0000
0000
3000
,
1001
0010
0110
1000
,
0001
0000
0000
0200
0000
0000
0000
0301
,
0001
0010
1000
0100
,
0001
0000
0000
0020
0000
0000
0000
0031
,
0011
0011
0101
1100
,
0001
0000
0000
0200
0000
0000
0000
0310
,
0001
0000
0000
0020
0000
0000
0000
1030
,
0001
0000
0000
0100
0000
0000
1000
0000
0000
0000
0000
0000
0000
0000
0000
0000
,
0001
0000
0000
0100
0000
0000
0200
0000
0000
0000
0010
0000
0001
0000
0300
0000
,
1000
0000
0000
0010
0000
0000
0001
0000
0000
0000
0000
0000
0000
0000
0000
0000
,
1000
0000
0000
0100
0000
0000
0200
0000
0000
0000
0010
0000
1000
0000
0300
0000
,
0001
0000
0000
0100
0000
0000
1000
0000
0000
0000
0000
0000
0000
0000
0000
0000
,
0001
0000
0000
0010
0000
0000
0020
0000
0000
0000
0001
0000
0100
0000
0030
0000
,
1000
0000
0000
0010
0000
0000
0001
0000
0000
0000
0000
0000
0000
0000
0000
0000
,
1000
0000
0000
0001
0000
0000
0020
0000
0000
0000
1000
0000
0100
0000
0030
0000
,
0001
1000
0000
0100
0001
0000
1010
0000
,
1001
0000
1000
0010
0000
0001
0100
0000
,
0001
1000
0000
1000
0100
0000
0011
0000
,
0110
0000
0001
0010
0000
0001
0100
0000
,
1010
0100
0000
1000
0011
0000
1000
0001
,
1010
0100
0000
0010
0011
0000
1000
0010
,
1010
0100
0000
1000
0011
0000
1000
0001
,
1010
0100
0000
0010
0011
0000
1000
0010
,
0011
1000
0001
0000
0110
0000
1000
0001
,
0011
0100
1000
0000
0100
0000
1001
1001
,
0011
1000
0001
0000
0110
0000
1000
0001
,
0011
0100
1000
0000
0010
0000
1001
1001
,
1000
0000
0000
0010
0000
0000
0000
0000
,
0001
0000
0000
0010
0000
0000
0110
0000
,
0010
0000
0000
0001
0000
0000
0000
0000
,
1000
0000
0000
0010
0000
0000
1001
0000
,
0100
0000
0000
1000
0000
0000
0001
0000
,
0010
0000
0000
0010
0000
0000
0110
0000
,
0001
0000
0000
1000
0000
0100
1000
0000
,
0100
0000
0000
0001
0000
0000
1001
0000
,
0110
0000
0000
0000
;

//---------------dance-single - ----------------
#NOTES:
     dance-single:
     :
     Medium:
     6:
     0.404,0.000,0.380,0.109,0.072:
0000
0000
0000
0000
,
0000
0000
0000
0000
,
0000
0000
0000
0000
,
0000
0000
0000
0000
,
0001
0000
0010
1000
0000
0000
1010
0000
,
1000
0000
0100
0001
0000
0000
0101
0000
,
0001
0000
0100
1000
0000
0000
1100
0000
,
1000
0100
0010
0001
0000
0000
0011
0000
,
1000
0000
0100
0010
0000
0000
0000
0000
,
0001
0000
1000
0010
0000
0000
0110
0000
,
0010
0000
0100
0001
0000
0000
0000
0000
,
1000
0000
0001
0010
0000
0000
1001
0000
,
0100
0000
0001
1000
0000
0000
0001
0000
,
0010
0000
0100
0010
0000
0000
0110
0000
,
0001
0000
0010
1000
0000
0000
1000
0000
,
0100
0000
1000
0100
0000
0000
1001
0000
,
0010
0000
0100
2000
0000
0000
0000
3000
,
0001
0000
0100
0000
0001
0100
0010
0000
,
0010
0000
0100
0002
0000
0000
0000
0003
,
0010
0100
1000
0010
,
0010
0000
0100
0002
0000
0000
0000
0003
,
0100
0000
1000
0000
0001
0010
0100
0000
,
0010
0000
0100
2000
0000
0000
0000
3000
,
1001
0000
0010
0000
0110
0100
1000
0000
,
0001
0000
0010
0200
0000
0000
0000
0301
,
0001
0000
0010
0000
1000
0010
0100
0000
,
0001
0000
0100
0020
0000
0000
0000
0031
,
0011
0011
0101
1100
,
0001
0000
1000
0200
0000
0000
0000
0310
,
0001
0000
0100
0020
0000
0000
0000
1030
,
0001
0000
0000
0100
0000
0000
1000
0000
0000
0000
0000
0000
0000
0000
0000
0000
,
0001
0000
0000
0100
0000
0000
0200
0000
0000
0000
0010
0000
0001
0000
0300
0000
,
1000
0000
0000
0010
0000
0000
0001
0000
0000
0000
0000
0000
0000
0000
0000
0000
,
1000
0000
0000
0100
0000
0000
0200
0000
0000
0000
0010
0000
1000
0000
0310
0000
,
0001
0000
0000
0100
0000
0000
1000
0000
0000
0000
0000
0000
0000
0000
0000
0000
,
0001
0000
0000
0010
0000
0000
0020
0000
0000
0000
0001
0000
0100
0000
0030
0000
,
1000
0000
0000
0010
0000
0000
0001
0000
0000
0000
0000
0000
0000
0000
0000
0000
,
1000
0000
0000
0001
0000
0000
0020
0000
0000
0000
1000
0000
0100
0000
1030
0000
,
0001
1000
0010
0100
0001
0000
1010
0000
,
1001
0000
1000
0010
1000
0001
0100
0000
,
0001
1000
0010
1000
0100
0000
0011
0000
,
0110
0000
0001
0010
0001
0001
0100
0000
,
1010
0100
0001
1000
0011
0000
1000
0001
,
1010
0100
0001
0010
0011
0000
1000
0010
,
1010
0100
0001
1000
0011
0000
1000
0001
,
1010
0100
0001
0010
0011
0000
1000
0010
,
0011
0000
1000
0000
0001
0010
0100
0000
0110
0000
0000
0000
1000
1000
0001
0000
,
0011
0000
0100
0000
1000
0001
0010
0000
0100
0010
0000
0000
1001
0000
1001
0000
,
0011
0000
1000
0000
0001
0010
0100
0000
0110
0000
0000
0000
1000
1000
0001
0000
,
0011
0000
0100
0000
1000
0001
0100
0000
0010
0100
0000
0000
1001
0000
1001
0000
,
1000
0000
0100
0010
0000
0000
0000
0000
,
0001
0000
1000
0010
0000
0000
0110
0000
,
0010
0000
0100
0001
0000
0000
0000
0000
,
1000
0000
0001
0010
0000
0000
1001
0000
,
0100
0000
0001
1000
0000
0001
0001
0000
,
0010
0000
0100
0010
0000
0110
0110
0000
,
0001
0000
0010
1000
0000
0100
1000
0000
,
0100
0000
1000
0001
0000
0000
1001
0000
,
0110
0000
0000
0000
;

//---------------dance-single - ----------------
#NOTES:
     dance-single:
     :
     Hard:
     8:
     0.469,0.000,0.452,0.109,0.109:
0000
0000
0000
0000
,
0000
0000
0000
0000
,
0000
0000
0000
0000
,
0000
0000
0000
0000
,
0001
0100
0010
1000
0000
0000
1010
0000
,
1000
0010
0100
0001
0000
0000
0101
0000
,
0001
0010
0100
1000
0000
0000
1100
0000
,
1000
0100
0010
0001
0000
0000
0011
0000
,
1010
0000
0100
0010
0000
0000
0000
0000
,
0011
0000
1000
0010
0000
0000
0110
0000
,
1100
0000
0100
0001
0000
0000
0000
0000
,
0101
0000
0001
0010
0000
0000
1001
0000
,
1010
0000
0001
1000
0000
0000
0001
0000
,
1100
0000
0100
0010
0000
0000
0110
0000
,
0101
0000
0010
1000
0000
0000
1000
0000
,
0011
0000
1000
0100
0000
0000
1001
0000
,
0010
1000
0100
2000
0000
0000
0001
3000
,
0001
0010
0100
0000
0001
0100
0010
0000
,
0010
1000
0100
0002
0000
0000
0000
0003
,
0010
0100
1000
0010
,
0010
0001
0100
0002
0000
0000
1000
0003
,
0100
0010
1000
0000
0001
0010
0100
0000
,
0010
0001
0100
2000
0000
0000
0100
3000
,
1001
0001
0010
0000
0110
0100
1000
0000
,
0001
1000
0010
0200
0000
0000
1000
0301
,
0001
0100
0010
0000
1000
0010
0100
0000
,
0001
0010
0100
0020
0000
0000
0100
0031
,
0011
0011
0101
1100
,
0001
0100
1000
0200
0000
0000
1000
0310
,
0001
0010
0100
0020
0000
0000
1000
1030
,
0001
0000
0000
0100
0000
0010
1000
0000
0000
0000
0000
0000
0000
0000
0000
0000
,
0001
0000
0000
0100
0000
0010
0200
0000
0000
0000
0010
0000
0001
0000
0310
0000
,
1000
0000
0000
0010
0000
0100
0001
0000
0000
0000
0000
0000
0000
0000
0000
0000
,
1000
0000
0000
0100
0000
0010
0200
0000
0000
0000
0010
0000
1000
0000
0310
0000
,
0001
0000
0000
0100
0000
0010
1000
0000
0000
0000
0000
0000
0000
0000
0000
0000
,
0001
0000
0000
0010
0000
0100
0020
0000
0000
0000
0001
0000
0100
0000
0031
0000
,
1000
0000
0000
0010
0000
0100
0001
0000
0000
0000
0000
0000
0000
0000
0000
0000
,
1000
0000
0000
0001
0000
0100
0020
0000
0000
0000
1000
0000
0100
0000
1030
0000
,
0001
1000
0010
0100
0001
0000
1010
1000
,
1001
0000
1000
0010
1000
0001
0100
0000
,
0001
1000
0010
1000
0100
0000
0011
0010
,
0110
0000
0001
0010
0001
0001
0100
0000
,
1010
0100
0001
1000
0011
0100
1000
0001
,
1010
0100
0001
0010
0011
0100
1000
0010
,
1010
0100
0001
1000
0011
0100
1000
0001
,
1010
0100
0001
0010
0011
0100
1000
0010
,
0011
0000
1000
0000
0001
0010
0100
0000
0110
0000
0001
0000
1000
1000
0001
0000
,
0011
0000
0100
0000
1000
0001
0010
0000
0100
0010
0001
0000
1001
0000
1001
0000
,
0011
0000
1000
0000
0001
0010
0100
0000
0110
0000
0001
0000
1000
1000
0001
0000
,
0011
0000
0100
0000
1000
0001
0100
0000
0010
0100
0001
0000
1001
0000
1001
0000
,
1000
0000
0100
0010
0000
0000
0000
0000
,
0001
0000
1000
0010
0000
0000
0110
0000
,
0010
0000
0100
0001
0000
0000
0000
0000
,
1000
0000
0001
0010
0000
0000
1001
0000
,
0100
0000
0001
1000
0000
0001
0001
0000
,
0010
0000
0100
0010
0000
0110
0110
0000
,
0001
0000
0010
1000
0000
0100
1000
0000
,
0100
0000
1000
0001
0000
0000
1001
0000
,
0110
0000
0000
0000
;

//---------------dance-double - ----------------
#NOTES:
     dance-double:
     :
     Easy:
     5:
     0.328,0.000,0.353,0.109,0.036:
00000000
00000000
00000000
00000000
,
00000000
00000000
00000000
00000000
,
00000000
00000000
00000000
00000000
,
00000000
00000000
00000000
00000000
,
00001000
00000000
00000000
01000000
00000000
00000000
01010000
00000000
,
01000000
00000000
00000000
00001000
00000000
00000000
00101000
00000000
,
00001000
00000000
00000000
01000000
00000000
00000000
01100000
00000000
,
01000000
00000000
00010000
00001000
00000000
00000000
00011000
00000000
,
00100000
00000000
00000000
00001000
00000000
00000000
00000000
00000000
,
00000100
00000000
00000000
00001000
00000000
00000000
00011000
00000000
,
00001000
00000000
00000000
00000100
00000000
00000000
00000000
00000000
,
00100000
00000000
00000000
00001000
00000000
00000000
00100000
00000000
,
00001000
00000000
00000000
00010000
00000000
00000000
00000010
00000000
,
00000100
00000000
00000000
00000100
00000000
00000000
00001100
00000000
,
00000010
00000000
00000000
00010000
00000000
00000000
00010000
00000000
,
00001000
00000000
00000000
00001000
00000000
00000000
00010010
00000000
,
00000010
00000000
00000000
00002000
00000000
00000000
00000000
00003000
,
00000001
00000100
00000001
00000010
,
00000010
00000000
00000000
00000002
00000000
00000000
00000000
00000003
,
00000010
00000100
00001000
00000010
,
00000100
00000000
00000000
00000020
00000000
00000000
00000000
00000030
,
00001000
00010000
00000010
00001000
,
00000100
00000000
00000000
00020000
00000000
00000000
00000000
00030000
,
00010010
00000100
00001100
00010000
,
00000100
00000000
00000000
00020000
00000000
00000000
00000000
00030100
,
00000100
00001000
00100000
00010000
,
00000100
00000000
00000000
00002000
00000000
00000000
00000000
00003100
,
00001100
00001100
00010100
00110000
,
00001000
00000000
00000000
00200000
00000000
00000000
00000000
00310000
,
00001000
00000000
00000000
00020000
00000000
00000000
00000000
01030000
,
00001000
00000000
00000000
00100000
00000000
00000000
01000000
00000000
00000000
00000000
00000000
00000000
00000000
00000000
00000000
00000000
,
00001000
00000000
00000000
00100000
00000000
00000000
00200000
00000000
00000000
00000000
00010000
00000000
00001000
00000000
00300000
00000000
,
10000000
00000000
00000000
00100000
00000000
00000000
00010000
00000000
00000000
00000000
00000000
00000000
00000000
00000000
00000000
00000000
,
10000000
00000000
00000000
01000000
00000000
00000000
02000000
00000000
00000000
00000000
00100000
00000000
10000000
00000000
03000000
00000000
,
00010000
00000000
00000000
01000000
00000000
00000000
10000000
00000000
00000000
00000000
00000000
00000000
00000000
00000000
00000000
00000000
,
00010000
00000000
00000000
00100000
00000000
00000000
00200000
00000000
00000000
00000000
00010000
00000000
01000000
00000000
00300000
00000000
,
01000000
00000000
00000000
00010000
00000000
00000000
00001000
00000000
00000000
00000000
00000000
00000000
00000000
00000000
00000000
00000000
,
01000000
00000000
00000000
00001000
00000000
00000000
00020000
00000000
00000000
00000000
01000000
00000000
00100000
00000000
00030000
00000000
,
00001000
01000000
00000000
00100000
00001000
00000000
01010000
00000000
,
01001000
00000000
01000000
00010000
00000000
00001000
00100000
00000000
,
00000100
00100000
00000000
00100000
00010000
00000000
00001100
00000000
,
00011000
00000000
00000100
00001000
00000000
00000100
00010000
00000000
,
00101000
00010000
00000000
00100000
00001100
00000000
00100000
00000100
,
00101000
00010000
00000000
00001000
00001100
00000000
00100000
00001000
,
00010100
00001000
00000000
00010000
00000110
00000000
00010000
00000010
,
00010100
00001000
00000000
00000100
00000110
00000000
00010000
00000100
,
00000110
00010000
00000010
00000000
00001100
00000000
00010000
00000010
,
00000110
00001000
00010000
00000000
00001000
00000000
00010010
00010010
,
00000011
00001000
00000001
00000000
00000110
00000000
00001000
00000001
,
00000011
00000100
00001000
00000000
00000010
00000000
00001001
00001001
,
00001000
00000000
00000000
00000010
00000000
00000000
00000000
00000000
,
00000001
00000000
00000000
00000010
00000000
00000000
00000110
00000000
,
00000100
00000000
00000000
00000010
00000000
00000000
00000000
00000000
,
00010000
00000000
00000000
00000100
00000000
00000000
00010010
00000000
,
00001000
00000000
00000000
00010000
00000000
00000000
00000010
00000000
,
00000100
00000000
00000000
00000100
00000000
00000000
00001100
00000000
,
00000100
00000000
00000000
00100000
00000000
00010000
00100000
00000000
,
00010000
00000000
00000000
00000100
00000000
00000000
00100000
00000000
,
00011000
00000000
00000000
00000000
;

//---------------dance-double - ----------------
#NOTES:
     dance-double:
     :
     Medium:
     6:
     0.402,0.000,0.362,0.109,0.072:
00000000
00000000
00000000
00000000
,
00000000
00000000
00000000
00000000
,
00000000
00000000
00000000
00000000
,
00000000
00000000
00000000
00000000
,
00001000
00000000
00010000
01000000
00000000
00000000
01010000
00000000
,
01000000
00000000
00100000
00001000
00000000
00000000
00101000
00000000
,
00001000
00000000
00100000
01000000
00000000
00000000
01100000
00000000
,
01000000
00100000
00010000
00001000
00000000
00000000
00011000
00000000
,
00100000
00000000
00010000
00001000
00000000
00000000
00000000
00000000
,
00000100
00000000
00100000
00001000
00000000
00000000
00011000
00000000
,
00001000
00000000
00010000
00000100
00000000
00000000
00000000
00000000
,
00100000
00000000
00000100
00001000
00000000
00000000
00100000
00000000
,
00001000
00000000
00000010
00010000
00000000
00000000
00000010
00000000
,
00000100
00000000
00001000
00000100
00000000
00000000
00001100
00000000
,
00000010
00000000
00000100
00010000
00000000
00000000
00010000
00000000
,
00001000
00000000
00010000
00001000
00000000
00000000
00010010
00000000
,
00000010
00000000
00000100
00002000
00000000
00000000
00000000
00003000
,
00000001
00000000
00000100
00000000
00000001
00000100
00000010
00000000
,
00000010
00000000
00000100
00000002
00000000
00000000
00000000
00000003
,
00000010
00000100
00001000
00000010
,
00000100
00000000
00001000
00000020
00000000
00000000
00000000
00000030
,
00001000
00000000
00010000
00000000
00000010
00000100
00001000
00000000
,
00000100
00000000
00001000
00020000
00000000
00000000
00000000
00030000
,
00010010
00000000
00000100
00000000
00001100
00001000
00010000
00000000
,
00000100
00000000
00001000
00020000
00000000
00000000
00000000
00030100
,
00000100
00000000
00001000
00000000
00100000
00001000
00010000
00000000
,
00000100
00000000
00010000
00002000
00000000
00000000
00000000
00003100
,
00001100
00001100
00010100
00110000
,
00001000
00000000
01000000
00200000
00000000
00000000
00000000
00310000
,
00001000
00000000
00100000
00020000
00000000
00000000
00000000
01030000
,
00001000
00000000
00000000
00100000
00000000
00000000
01000000
00000000
00000000
00000000
00000000
00000000
00000000
00000000
00000000
00000000
,
00001000
00000000
00000000
00100000
00000000
00000000
00200000
00000000
00000000
00000000
00010000
00000000
00001000
00000000
00300000
00000000
,
10000000
00000000
00000000
00100000
00000000
00000000
00010000
00000000
00000000
00000000
00000000
00000000
00000000
00000000
00000000
00000000
,
10000000
00000000
00000000
01000000
00000000
00000000
02000000
00000000
00000000
00000000
00100000
00000000
10000000
00000000
03100000
00000000
,
00010000
00000000
00000000
01000000
00000000
00000000
10000000
00000000
00000000
00000000
00000000
00000000
00000000
00000000
00000000
00000000
,
00010000
00000000
00000000
00100000
00000000
00000000
00200000
00000000
00000000
00000000
00010000
00000000
01000000
00000000
00300000
00000000
,
01000000
00000000
00000000
00010000
00000000
00000000
00001000
00000000
00000000
00000000
00000000
00000000
00000000
00000000
00000000
00000000
,
01000000
00000000
00000000
00001000
00000000
00000000
00020000
00000000
00000000
00000000
01000000
00000000
00100000
00000000
01030000
00000000
,
00001000
01000000
00010000
00100000
00001000
00000000
01010000
00000000
,
01001000
00000000
01000000
00010000
01000000
00001000
00100000
00000000
,
00000100
00100000
00001000
00100000
00010000
00000000
00001100
00000000
,
00011000
00000000
00000100
00001000
00000100
00000100
00010000
00000000
,
00101000
00010000
00000100
00100000
00001100
00000000
00100000
00000100
,
00101000
00010000
00000100
00001000
00001100
00000000
00100000
00001000
,
00010100
00001000
00000010
00010000
00000110
00000000
00010000
00000010
,
00010100
00001000
00000010
00000100
00000110
00000000
00010000
00000100
,
00000110
00000000
00010000
00000000
00000010
00000100
00001000
00000000
00001100
00000000
00000000
00000000
00010000
00010000
00000010
00000000
,
00000110
00000000
00001000
00000000
00010000
00000010
00000100
00000000
00001000
00000100
00000000
00000000
00010010
00000000
00010010
00000000
,
00000011
00000000
00001000
00000000
00000001
00000010
00000100
00000000
00000110
00000000
00000000
00000000
00001000
00001000
00000001
00000000
,
00000011
00000000
00000100
00000000
00001000
00000001
00000100
00000000
00000010
00000100
00000000
00000000
00001001
00000000
00001001
00000000
,
00001000
00000000
00000100
00000010
00000000
00000000
00000000
00000000
,
00000001
00000000
00001000
00000010
00000000
00000000
00000110
00000000
,
00000100
00000000
00001000
00000010
00000000
00000000
00000000
00000000
,
00010000
00000000
00000010
00000100
00000000
00000000
00010010
00000000
,
00001000
00000000
00000010
00010000
00000000
00000010
00000010
00000000
,
00000100
00000000
00001000
00000100
00000000
00001100
00001100
00000000
,
00000100
00000000
00001000
00100000
00000000
00010000
00100000
00000000
,
00010000
00000000
00100000
00000100
00000000
00000000
00100000
00000000
,
00011000
00000000
00000000
00000000
;

//---------------dance-double - ----------------
#NOTES:
     dance-double:
     :
     Hard:
     8:
     0.466,0.000,0.434,0.109,0.109:
00000000
00000000
00000000
00000000
,
00000000
00000000
00000000
00000000
,
00000000
00000000
00000000
00000000
,
00000000
00000000
00000000
00000000
,
00001000
00100000
00010000
01000000
00000000
00000000
01010000
00000000
,
01000000
00010000
00100000
00001000
00000000
00000000
00101000
00000000
,
00001000
00010000
00100000
01000000
00000000
00000000
01100000
00000000
,
01000000
00100000
00010000
00001000
00000000
00000000
00011000
00000000
,
00101000
00000000
00010000
00001000
00000000
00000000
00000000
00000000
,
00001100
00000000
00100000
00001000
00000000
00000000
00011000
00000000
,
00110000
00000000
00010000
00000100
00000000
00000000
00000000
00000000
,
00010100
00000000
00000100
00001000
00000000
00000000
00100000
00000000
,
00010100
00000000
00000010
00010000
00000000
00000000
00000010
00000000
,
00011000
00000000
00001000
00000100
00000000
00000000
00001100
00000000
,
00001010
00000000
00000100
00010000
00000000
00000000
00010000
00000000
,
00000110
00000000
00010000
00001000
00000000
00000000
00010010
00000000
,
00000010
00001000
00000100
00002000
00000000
00000000
00000001
00003000
,
00000001
00000010
00000100
00000000
00000001
00000100
00000010
00000000
,
00000010
00001000
00000100
00000002
00000000
00000000
00000000
00000003
,
00000010
00000100
00001000
00000010
,
00000100
00000010
00001000
00000020
00000000
00000000
00010000
00000030
,
00001000
00000100
00010000
00000000
00000010
00000100
00001000
00000000
,
00000100
00000010
00001000
00020000
00000000
00000000
00001000
00030000
,
00010010
00000010
00000100
00000000
00001100
00001000
00010000
00000000
,
00000100
00100000
00001000
00020000
00000000
00000000
00100000
00030100
,
00000100
00010000
00001000
00000000
00100000
00001000
00010000
00000000
,
00000100
00001000
00010000
00002000
00000000
00000000
00010000
00003100
,
00001100
00001100
00010100
00110000
,
00001000
00100000
01000000
00200000
00000000
00000000
01000000
00310000
,
00001000
00010000
00100000
00020000
00000000
00000000
01000000
01030000
,
00001000
00000000
00000000
00100000
00000000
00010000
01000000
00000000
00000000
00000000
00000000
00000000
00000000
00000000
00000000
00000000
,
00001000
00000000
00000000
00100000
00000000
00010000
00200000
00000000
00000000
00000000
00010000
00000000
00001000
00000000
00310000
00000000
,
10000000
00000000
00000000
00100000
00000000
01000000
00010000
00000000
00000000
00000000
00000000
00000000
00000000
00000000
00000000
00000000
,
10000000
00000000
00000000
01000000
00000000
00100000
02000000
00000000
00000000
00000000
00100000
00000000
10000000
00000000
03100000
00000000
,
00010000
00000000
00000000
01000000
00000000
00100000
10000000
00000000
00000000
00000000
00000000
00000000
00000000
00000000
00000000
00000000
,
00010000
00000000
00000000
00100000
00000000
01000000
00200000
00000000
00000000
00000000
00010000
00000000
01000000
00000000
00310000
00000000
,
01000000
00000000
00000000
00010000
00000000
00100000
00001000
00000000
00000000
00000000
00000000
00000000
00000000
00000000
00000000
00000000
,
01000000
00000000
00000000
00001000
00000000
00100000
00020000
00000000
00000000
00000000
01000000
00000000
00100000
00000000
01030000
00000000
,
00001000
01000000
00010000
00100000
00001000
00000000
01010000
01000000
,
01001000
00000000
01000000
00010000
01000000
00001000
00100000
00000000
,
00000100
00100000
00001000
00100000
00010000
00000000
00001100
00001000
,
00011000
00000000
00000100
00001000
00000100
00000100
00010000
00000000
,
00101000
00010000
00000100
00100000
00001100
00010000
00100000
00000100
,
00101000
00010000
00000100
00001000
00001100
00010000
00100000
00001000
,
00010100
00001000
00000010
00010000
00000110
00001000
00010000
00000010
,
00010100
00001000
00000010
00000100
00000110
00001000
00010000
00000100
,
00000110
00000000
00010000
00000000
00000010
00000100
00001000
00000000
00001100
00000000
00000010
00000000
00010000
00010000
00000010
00000000
,
00000110
00000000
00001000
00000000
00010000
00000010
00000100
00000000
00001000
00000100
00000010
00000000
00010010
00000000
00010010
00000000
,
00000011
00000000
00001000
00000000
00000001
00000010
00000100
00000000
00000110
00000000
00000001
00000000
00001000
00001000
00000001
00000000
,
00000011
00000000
00000100
00000000
00001000
00000001
00000100
00000000
00000010
00000100
00000001
00000000
00001001
00000000
00001001
00000000
,
00001000
00000000
00000100
00000010
00000000
00000000
00000000
00000000
,
00000001
00000000
00001000
00000010
00000000
00000000
00000110
00000000
,
00000100
00000000
00001000
00000010
00000000
00000000
00000000
00000000
,
00010000
00000000
00000010
00000100
00000000
00000000
00010010
00000000
,
00001000
00000000
00000010
00010000
00000000
00000010
00000010
00000000
,
00000100
00000000
00001000
00000100
00000000
00001100
00001100
00000000
,
00000100
00000000
00001000
00100000
00000000
00010000
00100000
00000000
,
00010000
00000000
00100000
00000100
00000000
00000000
00100000
00000000
,
00011000
00000000
00000000
00000000
;

//---------------dance-single - G.Ramos----------------
#NOTES:
     dance-single:
     G.Ramos:
     Beginner:
     1:
     0.158,0.000,0.145,0.000,0.000:
0000
0000
0000
0000
,
0000
0000
0000
0000
,
0000
0000
0000
0000
,
0000
0000
0000
0000
,
0001
0000
0000
0000
,
1000
0000
0000
0000
,
0001
0000
1000
0000
,
0001
0001
0001
0001
,
0001
0000
1000
0000
,
0001
0001
0001
0000
,
1000
0000
0001
0000
,
1000
1000
1000
0000
,
0001
0000
1000
0000
,
0001
0000
1000
0000
,
1000
0000
0001
0000
,
1000
0000
0001
0000
,
0110
0000
1001
0000
,
0010
0010
0010
0000
,
1001
0000
0110
0000
,
0100
0100
0100
0000
,
0110
0000
1001
0000
,
1000
1000
1000
0000
,
1001
0000
0110
0000
,
0001
0001
0001
0001
,
0001
0000
0000
0000
,
0001
0000
0000
0000
,
1000
0000
0000
0000
,
1000
0000
0000
0000
,
0100
0000
0100
0000
,
0010
0000
0010
0000
,
0001
0000
0000
0000
,
0001
0000
0000
0000
,
1000
0000
0000
0000
,
1000
0000
0100
0000
,
0010
0010
0000
0000
,
0100
0100
0000
0000
,
0010
0010
0000
0000
,
0100
0100
0000
0110
,
0110
0000
1001
0000
,
0100
0100
0100
0000
,
1001
0000
0110
0000
,
0010
0010
0010
0000
,
1000
0000
0000
0000
,
0100
0000
0000
0000
,
0010
0000
0000
0000
,
0001
0000
0000
0000
,
1000
0000
0001
0000
,
1000
0000
0001
0000
,
0010
0000
0100
0000
,
0010
0000
0100
0000
,
1001
0000
0000
0000
,
0110
0000
0000
0000
,
1000
0000
0000
0000
,
0001
0000
0000
0000
,
1000
0000
0001
0000
,
1000
1000
1000
0000
,
0001
0000
1000
0000
,
0001
0001
0001
0000
,
1001
0000
0000
0000
;
