#TITLE:めざせ!ポケモンマスター;
#SUBTITLE:;
#ARTIST:松本梨香;
#TITLETRANSLIT:Mezase! Pokemon Master;
#SUBTITLETRANSLIT:;
#ARTISTTRANSLIT:Rica Matsumoto;
#GENRE:;
#CREDIT:;
#BANNER:Mezase! Pokemon Master.png;
#BACKGROUND:Mezase! Pokemon Master-bg.png;
#LYRICSPATH:;
#CDTITLE:;
#MUSIC:Mezase! Pokemon Master.ogg;
#OFFSET:-2.040;
#SAMPLESTART:41.409;
#SAMPLELENGTH:12.000;
#SELECTABLE:YES;
#BPMS:0.000=120.000;
#STOPS:;
#TIMESIGNATURES:0.000=4=4
;
#BGCHANGES:0.000=Mezase! Pokemon Master.avi=1.000=1=0=0=StretchNoLoop==CrossFade==,
99999=-nosongbg-=1.000=0=0=0 // don't automatically add -songbackground-
;
#KEYSOUNDS:;

//---------------dance-single - Gabe (Zenius-I-vanisher.com)----------------
#NOTES:
     dance-single:
     Gabe (Zenius-I-vanisher.com):
     Beginner:
     1:
     0.133,0.167,0.104,0.000,0.000,72.000,9.000,0.000,0.000,0.000,0.000,0.133,0.167,0.104,0.000,0.000,72.000,9.000,0.000,0.000,0.000,0.000:
0000
0000
0000
0000
,
0000
0000
0000
0000
,
1000
0000
1000
0000
,
0001
0000
0001
0000
,
0100
0100
0000
0000
,
0010
0010
0000
0000
,
1000
0000
0001
0000
,
1000
0000
0001
0000
,
0100
0000
0010
0000
,
0100
0000
0010
0000
,
1001
0000
0000
0000
,
0100
0000
0000
0000
,
0010
0000
0010
0000
,
0001
0001
0000
0000
,
0100
0000
0100
0000
,
1000
1000
0000
0000
,
1000
0000
0001
0000
,
1000
0000
0001
0000
,
0001
0000
1000
0000
,
0001
0000
1001
1001
,
0000
0010
0000
0100
,
0000
1000
1000
0000
,
0001
0000
0001
0000
,
1000
0000
0110
0110
,
0000
0100
0100
0000
,
0010
0010
0010
0000
,
1001
0000
0110
0000
,
1001
0000
0000
0000
,
0100
0000
0000
0000
,
0010
0000
0000
0000
,
0100
0000
0010
0010
,
0010
0000
1000
0000
,
0001
0000
0000
0000
,
0001
0000
1000
0000
,
0100
0000
0000
0000
,
0010
0000
0000
0000
,
0100
0000
0000
0000
,
0010
0000
0000
0000
,
1001
0000
0000
0000
,
0100
0000
0001
0000
,
1000
0000
0000
0000
,
0000
0001
0001
0000
;

//---------------dance-single - Gabe (Zenius-I-vanisher.com)----------------
#NOTES:
     dance-single:
     Gabe (Zenius-I-vanisher.com):
     Easy:
     3:
     0.227,0.240,0.069,0.207,0.006,114.000,6.000,18.000,0.000,0.000,0.000,0.227,0.240,0.069,0.207,0.006,114.000,6.000,18.000,0.000,0.000,0.000:
0000
0000
0000
0000
,
0000
0000
0000
0000
,
1000
0000
0100
0000
,
0001
0000
0100
0000
,
1000
1000
0100
0100
,
0001
0001
0100
0000
,
0001
0000
0010
0000
,
1000
0000
0010
0000
,
0001
0001
0010
0010
,
1000
1000
0010
0010
,
0001
0000
1000
0000
,
0001
0001
1001
0000
,
1000
0100
0001
0000
,
0001
0100
1000
0000
,
1000
0010
0001
0100
,
1000
0000
0001
0001
,
1000
0010
1000
0010
,
0001
0010
0001
0010
,
1000
0100
0001
0100
,
1000
0001
1001
0000
,
0010
0100
1000
0001
,
0010
0100
0001
1000
,
0010
1000
0001
0100
,
1001
0000
0100
0100
,
0010
0100
0001
1000
,
0010
0100
1000
0001
,
0010
0001
1000
0100
,
0020
0000
0000
0000
,
0002
0000
0000
0030
,
2000
0000
0000
0003
,
0200
0000
0000
3300
,
0020
0000
0100
0130
,
0220
0000
0000
0330
,
2000
0100
0001
3001
,
2002
0000
0000
3003
,
0020
1000
0200
0330
,
0020
0001
0200
0330
,
2000
0010
0001
3100
,
2002
0000
0000
3003
,
1000
0000
0001
0000
,
1000
0100
0001
0000
,
0000
0000
0000
0000
0010
0000
0000
0020
0000
0000
0000
0000
0030
0000
0000
0000
;

//---------------dance-single - Gabe (Zenius-I-vanisher.com)----------------
#NOTES:
     dance-single:
     Gabe (Zenius-I-vanisher.com):
     Medium:
     5:
     0.303,0.312,0.115,0.230,0.017,154.000,10.000,20.000,0.000,0.000,0.000,0.303,0.312,0.115,0.230,0.017,154.000,10.000,20.000,0.000,0.000,0.000:
0000
0000
0000
0000
,
0000
0000
0000
0000
,
1000
1000
0001
0001
,
1000
0100
0001
0000
,
0001
0001
1000
1000
,
0001
0100
1000
0000
,
0010
1000
0010
0001
,
0010
1000
0001
0000
,
0010
0001
0010
1000
,
0010
0001
1000
1001
,
1000
1000
0001
0001
,
1000
0100
0010
0001
1000
0000
1001
0000
,
0002
0000
0103
0000
0010
1000
0100
0000
,
0002
2000
0000
0000
0000
0000
3003
0000
,
2000
0000
3100
0000
0010
0001
0100
0000
,
2000
0002
0000
0000
0000
0000
3003
0000
,
0010
0000
0010
0000
0001
0100
0001
0000
,
0010
0000
0010
0000
1000
0100
1000
0000
,
0001
0010
0001
0000
1000
0010
1000
0000
,
1000
0001
1000
0001
1000
0000
1001
0000
,
1000
0100
0001
0010
,
1000
0100
0001
0010
,
0001
0100
1000
0010
,
0100
0000
0110
1001
,
0001
0010
1000
0100
,
0001
0010
1000
0100
,
1000
0010
0001
0100
,
2000
0000
0002
3000
,
0200
0003
0020
0300
,
2000
0030
0200
3300
,
2002
0000
0000
0000
3003
0000
0000
0000
0010
0000
0000
0010
0000
0000
0010
0000
,
0100
0000
0100
0000
1000
0000
1000
0100
,
0002
0000
0103
0000
0100
1000
0010
0000
,
0010
0000
0010
0000
0001
1000
0100
0020
,
0000
0100
0100
0130
,
1000
0001
0000
1001
0000
0000
0000
0000
,
0001
1000
0000
1001
0000
0000
0000
0000
,
0010
0100
0000
0110
0000
0000
0100
0220
,
0000
0000
0000
0330
,
1000
0010
0001
0010
,
1000
0000
0000
0000
0001
0000
0000
0000
0100
0000
0000
0000
0001
0000
0000
0001
,
0000
0000
0001
0000
2000
0000
0000
0002
0000
0000
0000
0000
3003
0000
0000
0000
;

//---------------dance-single - Gabe (Zenius-I-vanisher.com)----------------
#NOTES:
     dance-single:
     Gabe (Zenius-I-vanisher.com):
     Hard:
     7:
     0.500,0.433,0.196,0.334,0.052,258.000,17.000,29.000,0.000,0.000,0.000,0.500,0.433,0.196,0.334,0.052,258.000,17.000,29.000,0.000,0.000,0.000:
0000
0000
0000
0000
,
0000
0000
0000
0000
,
1000
1000
0100
0100
0001
0001
0010
0010
,
1000
0100
0001
0010
0220
0000
0330
0000
,
0001
0100
1000
0010
0001
0100
1000
0010
,
0001
0100
1000
0010
0220
0000
0330
0000
,
1000
0100
0010
0001
1000
0100
0010
0001
,
1000
0100
0010
0001
2002
0000
3003
0000
,
0001
0001
1000
1000
0001
0100
0010
1000
,
0100
0200
0000
0000
0310
1000
0100
0001
,
0010
0001
0010
0001
1000
0100
1000
0100
,
0010
0001
1000
0100
0110
0000
1001
0000
,
0010
0010
0100
0100
2000
0100
3100
0000
,
0010
0020
0000
0100
0130
1000
0100
0000
,
0010
0010
0100
0100
0002
0100
0103
0000
,
0010
0020
0000
0100
0130
0001
0100
0000
,
1000
0100
0001
0100
1000
0010
1001
0000
,
0001
0100
1000
0100
0001
0010
1001
0000
,
0010
1000
0100
0001
0010
0001
0100
1000
,
0010
1000
0100
0001
0110
0000
1001
0100
,
1001
0010
0001
0100
0001
0010
0001
0100
,
1000
0010
1000
0100
1000
0000
1010
0100
,
0101
0010
0001
0100
0001
0010
0001
0100
,
0011
1100
0000
0010
0100
1000
0001
0010
,
1000
0100
0001
0100
1000
0100
0001
0100
,
1000
0010
0001
0010
1000
0100
0010
0001
,
0200
0320
2030
3002
,
0103
0000
0000
0000
2000
0000
0000
0100
0000
0000
3001
0000
0010
0000
0010
0000
,
0010
0000
0000
0000
0002
0000
0000
0100
0000
0000
1003
0000
0010
0000
0010
0000
,
0010
0000
0000
0000
0020
0000
0000
0001
0000
0000
0130
0000
1000
0000
1000
0000
,
2000
0000
0000
0000
0000
0000
0000
0000
0001
0000
0000
0001
0000
0000
3001
0000
,
2001
0000
0000
0000
3100
0000
0000
0000
0001
0000
0001
0000
1000
0001
1000
0000
,
0200
0000
0000
0000
0001
0001
0301
0100
,
1000
1000
0001
0001
0010
0100
0010
0200
,
0001
1000
0001
1300
,
1000
0100
1000
0010
0002
0100
0103
0000
,
0001
0100
0001
0010
2000
0100
3100
0000
,
1000
0100
0001
0002
0000
0000
1000
2000
,
0000
0000
0000
3003
,
1000
0000
0100
0000
0001
0100
0001
0100
0001
0000
1000
0000
1000
0000
1000
0000
,
0100
0000
0010
0000
0100
0000
0010
0000
0200
0000
0000
0000
1000
0000
0000
1000
,
0000
0000
1300
0000
1100
0000
0000
2002
0000
0000
0000
0000
3003
0000
0000
0000
;

//---------------dance-single - Gabe (Zenius-I-vanisher.com)----------------
#NOTES:
     dance-single:
     Gabe (Zenius-I-vanisher.com):
     Challenge:
     8:
     0.658,0.625,0.725,0.507,0.374,293.000,63.000,44.000,0.000,0.000,0.000,0.658,0.625,0.725,0.507,0.374,293.000,63.000,44.000,0.000,0.000,0.000: // measure 1
0000
0000
0000
0000
,  // measure 2
0000
0000
0000
0000
,  // measure 3
1000
0100
1000
0100
0001
0100
0001
0100
1000
0000
1000
0000
0001
0200
0000
0000
,  // measure 4
1300
0000
1000
0000
0001
0020
0000
0130
0000
0000
0000
0000
0110
0000
0000
0000
,  // measure 5
0001
0010
0001
0010
1000
0010
1000
0010
0001
0100
0000
0000
1000
0100
0000
0100
,  // measure 6
0010
0000
0010
0000
0001
0200
0000
0301
0000
0020
0000
0000
0000
0000
0030
0000
,  // measure 7
0100
0010
0100
0010
0100
0010
0100
0010
1000
0001
1000
0001
1000
0001
1000
0001
,  // measure 8
1000
0000
0001
0000
0200
1000
0000
2300
0000
0000
0000
0000
3001
0000
0100
0001
,  // measure 9
0100
0002
0000
0000
1003
0000
1000
0000
0100
2000
0000
0000
3000
0000
0001
0100
,  // measure 10
0002
2000
3003
0000
0010
0010
0100
0100
,  // measure 11
1100
1100
0101
0101
1000
0100
0010
0001
,  // measure 12
0011
0000
0011
0000
1010
0000
1010
0000
0100
0010
0100
0010
0200
0000
0300
0000
,  // measure 13
1000
0100
1000
0000
0001
0100
0000
0020
0000
0000
0000
0000
1030
0100
1000
0100
,  // measure 14
0020
0000
0200
0000
0330
0000
0000
0000
0100
0010
0000
0100
0000
1000
0000
0010
,  // measure 15
0001
0100
0001
0000
1000
0100
1000
0100
2000
0000
0000
0000
3001
0010
0001
0010
,  // measure 16
0002
2000
0000
0000
0000
0000
3003
0100
,  // measure 17
0110
0001
0010
0100
0101
2200
3300
0000
,  // measure 18
1001
0010
0110
1010
0022
0000
0033
1000
,  // measure 19
0101
0010
1000
0100
0011
0100
0001
0010
,  // measure 20
1100
0010
0001
0100
2001
0000
0001
0001
,  // measure 21
3001
0010
0011
0100
1100
0010
0011
0100
,  // measure 22
1100
0001
1001
1000
1001
0000
0100
0010
,  // measure 23
0110
1000
0100
1000
0110
0010
0001
0010
,  // measure 24
0110
0110
0000
1001
1001
0100
0200
0001
,  // measure 25
0301
1000
1010
0010
0011
0001
1100
1000
,  // measure 26
0100
0001
0011
0011
1000
1010
0011
1000
,  // measure 27
0101
1001
1100
0110
,  // measure 28
2001
0000
0000
0000
0001
0000
0000
0001
0000
0000
0001
0000
0001
0000
0001
0000
,  // measure 29
3002
0000
0000
0000
0100
0000
0000
0100
0000
0000
0100
0000
0100
0000
0100
0000
,  // measure 30
0203
0000
0000
0000
0010
0000
0000
0010
0000
0000
0010
0000
0010
0000
0310
0000
,  // measure 31
0220
0000
0000
0000
0330
0000
0000
0000
2000
0000
0000
3200
0000
0000
0301
0000
,  // measure 32
2002
0000
0000
0000
3003
0000
0000
0000
1000
0000
1000
0000
0001
0100
0001
0000
,  // measure 33
0202
0000
0000
0000
0003
0000
0010
0000
0010
0000
0000
0010
0000
0000
0010
0000
,  // measure 34
0301
0100
0110
1100
0100
0010
0110
2001
,  // measure 35
0001
0000
0000
0000
0100
0000
0000
0000
0001
0000
0000
0001
0000
0000
3001
0000
,  // measure 36
0101
0010
1100
0210
0000
0010
0000
0310
,  // measure 37
1100
0001
1010
1002
0000
1000
0000
1003
,  // measure 38
0101
0010
0110
2002
0000
3003
1100
0102
,  // measure 39
0000
0000
1000
0000
0000
0000
1000
0000
1000
0000
0000
0020
0000
0000
0030
0000
,  // measure 40
0103
0000
0010
1000
0100
1000
0010
1000
0100
0000
0010
0001
0100
0001
0010
0001
,  // measure 41
0100
0000
0010
0000
1000
0100
0000
2000
0000
0000
0000
0000
0001
0000
0000
0001
,  // measure 42
0000
0000
0001
0000
3001
0000
0000
2002
0000
0000
0000
0000
3003
0000
0000
0000
;
