#TITLE:Last Dinosaur;
#SUBTITLE:;
#ARTIST:The Pillows;
#TITLETRANSLIT:;
#SUBTITLETRANSLIT:;
#ARTISTTRANSLIT:;
#GENRE:;
#CREDIT:;
#BANNER:Last Dinosaur.png;
#BACKGROUND:Last Dinosaur-bg.png;
#LYRICSPATH:;
#CDTITLE:;
#MUSIC:Last Dinosaur.ogg;
#OFFSET:0.004;
#SAMPLESTART:10.200;
#SAMPLELENGTH:12.000;
#SELECTABLE:YES;
#BPMS:0.000=169.413;
#STOPS:;
#TIMESIGNATURES:0.000=4=4
;
#BGCHANGES:;
#KEYSOUNDS:;

//---------------dance-single - Gabe----------------
#NOTES:
     dance-single:
     Gabe:
     Beginner:
     1:
     0.203,0.198,0.094,0.000,0.000,141.000,10.000,0.000,0.000,0.000,0.000,0.203,0.198,0.094,0.000,0.000,141.000,10.000,0.000,0.000,0.000,0.000:
0000
0000
0000
0000
,
0000
0000
0000
0000
,
0000
0000
0000
0000
,
0000
0000
0000
0000
,
1000
1000
1000
0000
,
1000
1000
1000
0000
,
0001
0001
0001
0000
,
0001
0001
0001
0000
,
1000
0000
0100
0000
,
0001
0000
0100
0000
,
1000
0000
0100
0000
,
0001
0000
0100
0000
,
1000
0000
0010
0000
,
0001
0000
0010
0000
,
1000
0000
0010
0000
,
0001
0000
0010
0000
,
1000
0000
0100
0000
,
1000
0000
0100
0000
,
0001
0000
0100
0000
,
0001
0000
0100
0000
,
0010
0000
0100
0000
,
0010
0000
0100
0000
,
0100
0000
0010
0000
,
0100
0000
0010
0000
,
1001
0000
0100
0000
,
0010
0010
0000
0000
,
1001
0000
0010
0000
,
0100
0100
0100
0000
,
0110
0000
0001
0000
,
1000
1000
0000
0001
,
0001
0000
0000
0000
,
0100
0100
0100
0000
,
0001
0000
0000
0000
,
1000
0000
0000
0000
,
0001
0000
0000
0000
,
1000
0000
0000
0000
,
0010
0000
0000
0000
,
0100
0000
0000
0000
,
0010
0000
0000
0000
,
0100
0000
0000
0000
,
1001
0000
0100
0000
,
0010
0010
0010
0000
,
1000
0000
0001
0000
,
1000
1000
1000
0000
,
1001
0000
0010
0000
,
0100
0100
0100
0000
,
0001
0000
1000
0000
,
0001
0001
0001
0000
,
1000
0000
0100
0000
,
0001
0000
0100
0000
,
1000
0000
0100
0000
,
1000
0000
0100
0000
,
0001
0000
0100
0000
,
1000
0000
0100
0000
,
0001
0000
0100
0000
,
0001
0000
0100
0000
,
0110
0000
0000
0000
,
0100
0100
0100
0000
,
0010
0010
0000
0001
,
0001
0000
1001
0000
,
1000
1000
0000
0010
,
0010
0000
0110
0000
,
1001
0000
0000
0000
,
0001
0001
0001
0000
,
1000
1000
1000
0000
,
0001
0001
0001
0000
,
0100
0100
0100
0000
,
0010
0010
0010
0000
,
1000
0000
0100
0000
,
0001
0000
0100
0000
,
1001
0000
0000
0000
;

//---------------dance-single - Gabe----------------
#NOTES:
     dance-single:
     Gabe:
     Easy:
     4:
     0.394,0.417,0.339,0.198,0.000,236.000,36.000,21.000,0.000,0.000,0.000,0.394,0.417,0.339,0.198,0.000,236.000,36.000,21.000,0.000,0.000,0.000:
0000
0000
0000
0000
,
0000
0000
0000
0000
,
0000
0000
0000
0000
,
0000
0000
0000
0000
,
0100
0100
0100
0100
,
0100
0100
0100
0100
,
0010
0010
0010
0010
,
0010
0010
0110
1001
,
0010
1000
0100
0000
,
0001
0001
0100
0100
,
1000
0010
0001
0010
,
1000
1000
1100
0000
,
0010
0001
0100
0000
,
1000
1000
0100
0100
,
0001
0010
1000
0010
,
0001
0001
0101
0000
,
1100
1000
1000
1000
,
0101
0100
0100
0100
,
1010
0010
0010
0010
,
0011
0001
0001
0001
,
1100
1000
0101
0100
,
1010
0010
0101
0001
,
1001
0100
0100
0100
,
0010
0010
0010
1001
,
2000
0001
0200
3300
,
0002
1000
0200
0303
,
2001
0100
0001
3100
,
1002
0100
1000
0103
,
1000
0100
0001
0100
,
1000
0100
0001
0100
,
2002
0000
0000
0003
,
0100
0100
0100
3000
,
0001
1000
0001
1000
,
0001
1000
0001
1000
,
1000
0001
1000
0001
,
1000
0001
1000
0001
,
0101
1000
1100
0001
,
0101
1000
1100
0001
,
0011
1000
1010
0001
,
0010
0100
0110
1001
,
0010
0100
0100
0010
,
1100
0101
0101
1100
,
0100
0010
0010
0100
,
0101
1100
1100
0101
,
1000
0001
0100
0010
,
0001
1000
0100
0010
,
0010
0100
0100
0010
,
0010
0100
0110
0000
,
0001
1000
0100
1000
,
0001
0100
0001
1000
,
0010
0100
1000
0010
,
0100
1000
0010
0100
,
0001
0010
0100
0001
,
0010
1000
0100
0010
,
1000
0100
0010
0001
,
0100
0010
1001
0000
,
2000
0100
3100
2000
,
0010
0010
0000
3000
,
0002
0100
0100
0010
,
0100
1000
1000
0003
,
0002
0100
0103
0002
,
1000
1000
0000
2003
,
0002
0000
0000
3003
,
0100
0100
0200
0300
,
0020
0000
0000
0000
,
1000
1000
1000
1000
,
2030
0000
0000
0000
,
0100
0100
0100
0100
,
3200
0000
0000
0000
,
0010
0010
0010
0310
,
2002
0000
0000
0000
,
0000
0000
0000
0000
,
0000
0000
0000
0000
,
0000
0000
0000
3003
;

//---------------dance-single - Gabe----------------
#NOTES:
     dance-single:
     Gabe:
     Medium:
     7:
     0.548,0.590,0.791,0.245,0.000,297.000,84.000,26.000,0.000,0.000,0.000,0.548,0.590,0.791,0.245,0.000,297.000,84.000,26.000,0.000,0.000,0.000:
0000
0000
0000
0000
,
0000
0000
0000
0000
,
0000
0000
0000
0000
,
0000
0000
0000
0000
,
1000
0000
1000
0000
1000
0000
0000
0100
,
0000
0100
0000
0100
1000
0000
1000
0000
,
0001
0000
0001
0000
0001
0000
0000
0100
,
0000
0100
0000
0100
0001
0000
0001
0000
,
1001
0000
0100
0000
0010
0000
0000
1000
,
0000
0100
0000
0010
0110
0000
1001
0000
,
1001
0000
0100
0000
0010
0000
0000
0001
,
0000
0100
0000
0010
0110
0000
1001
0000
,
1000
0000
1000
0000
0001
0100
0001
0100
,
0000
0100
0000
0100
0001
0000
0001
0000
,
0001
0000
0001
0000
1000
0100
1000
0100
,
0000
0100
0000
0100
1000
0000
1000
0000
,
1001
0000
0110
0000
1001
0000
0010
0100
,
0000
0010
0000
0100
0010
0100
0010
0000
,
0110
0000
1001
0000
0110
0000
0100
0010
,
0000
0100
0000
0010
0100
0010
0100
0002
,
2000
0000
0000
0000
0000
3000
0000
0200
,
0000
0000
0300
0000
1000
1000
1003
0000
,
2000
0100
0000
0002
0000
0000
3003
0000
,
0010
0100
0010
0100
0010
0010
1001
0000
,
0000
0000
0020
0000
1000
1000
1000
0100
,
0000
0200
0000
0000
0000
0000
0330
0000
,
0000
0000
0000
0100
0100
0100
0000
1001
,
0000
1100
0000
1001
0000
0011
0000
2002
,
0000
0000
0003
0001
0001
0001
0001
0100
,
0000
0200
0000
0000
0000
3000
1000
2300
,
0000
0000
0000
0000
0000
0000
0000
0001
,
0000
0001
0000
0002
0000
3003
1001
0000
,
0110
0000
1001
0000
0110
0000
1100
0001
,
0000
0100
0000
0010
1010
0000
0101
0000
,
1001
0000
0110
0000
1001
0000
0011
0100
,
0000
0001
0000
1000
1010
0000
0101
0000
,
1000
0001
1000
0001
0100
0010
0100
0110
,
0000
1010
0000
0101
0011
0000
1100
0000
,
0001
1000
0001
1000
0100
0010
0100
0010
,
1000
1000
0001
0001
0110
0000
1001
0000
,
1000
0000
0110
0000
0001
0000
0100
0110
,
0000
1010
0000
1100
0011
0000
1001
0000
,
0001
0000
0110
0000
1000
0000
0100
0110
,
0000
0011
0000
0101
1010
0000
1001
0000
,
1000
0000
1100
0000
0001
0000
0101
1010
,
0000
1100
0000
0011
0110
0000
1001
0000
,
0001
0000
0101
0000
1000
0000
1100
0011
,
0000
0101
0000
1010
0110
0000
1001
0000
,
1100
0000
0101
0000
1001
0000
0010
1000
,
0000
0001
0000
1000
1100
0000
0101
0000
,
0101
0000
1100
0000
1001
0000
0010
0001
,
0000
1000
0000
0001
0101
0000
1100
0000
,
1100
0100
0101
0100
,
1100
0000
0011
0000
0100
0010
0100
1000
,
2100
0100
0200
3000
0000
0010
0000
0310
,
0000
0001
1000
0100
0010
0000
0010
0000
,
0110
0100
0100
0100
,
0010
0100
0010
0100
0010
0000
0010
0000
,
1000
1000
0001
0001
,
1000
0100
0001
0100
1000
0000
0110
0000
,
0001
0001
0100
0000
1000
1000
0100
0000
,
0001
0010
1000
0010
0001
0000
0110
0000
,
2002
0000
0000
0000
0000
0003
0000
0100
,
0000
0100
0000
0200
0000
0000
3300
0000
,
0001
0100
0001
0200
0000
0000
0000
0001
,
0000
0001
0000
0302
0100
0000
0103
0000
,
0010
1000
0010
2000
0000
0000
0001
3002
,
0000
1000
0000
2003
0100
0000
3100
0000
,
0010
0100
0010
0200
0000
0000
0000
0010
,
0000
0010
0000
0320
0100
0000
0130
0000
,
2002
0000
0000
0000
,
0000
0000
0000
0000
,
0000
0000
0000
0000
,
0000
0000
0000
3003
;

//---------------dance-single - Gabe----------------
#NOTES:
     dance-single:
     Gabe:
     Hard:
     9:
     0.693,0.660,0.800,0.471,0.000,380.000,85.000,50.000,0.000,0.000,0.000,0.693,0.660,0.800,0.471,0.000,380.000,85.000,50.000,0.000,0.000,0.000: // measure 1
0000
0000
0000
0000
,  // measure 2
0000
0000
0000
0000
,  // measure 3
0000
0000
0000
0000
,  // measure 4
0000
0000
0000
0000
,  // measure 5
1000
0100
1000
0001
0100
0001
1000
1100
,  // measure 6
0000
1001
0000
0101
0100
0010
1000
0100
,  // measure 7
0001
0100
1000
0100
0001
0010
1000
1010
,  // measure 8
0000
1100
0000
0101
0001
1000
1100
0001
,  // measure 9
0110
1000
0100
1000
0100
1000
0100
1010
,  // measure 10
0000
0110
0000
1001
1000
0100
1000
0100
,  // measure 11
0001
0100
0001
0100
0001
0100
0001
0011
,  // measure 12
0000
0110
0000
1001
0001
0100
0001
0100
,  // measure 13
0010
0100
0010
0100
0010
0100
0010
1001
,  // measure 14
0000
0110
0000
1010
0001
1000
0001
1000
,  // measure 15
0001
1000
0001
1000
0001
1000
0001
0110
,  // measure 16
0000
1010
0000
0110
0101
0100
0010
0100
,  // measure 17
1001
0100
0001
0010
0001
0100
1000
1010
,  // measure 18
0000
0101
0000
0011
1000
0100
0001
0100
,  // measure 19
1000
0010
0001
0100
0001
0010
1000
1010
,  // measure 20
0000
0011
0000
1001
0100
0001
1000
0010
,  // measure 21
2002
0000
0000
0000
0003
0000
0100
0200
,  // measure 22
0000
0300
0000
0001
0001
0001
3001
0100
,  // measure 23
1000
1000
0100
0100
0010
0010
0001
0001
,  // measure 24
0120
1030
2002
3003
,  // measure 25
0000
0000
2000
0000
3001
0100
0001
0020
,  // measure 26
0000
0200
0330
0000
1001
0000
0110
0000
,  // measure 27
2100
0000
0000
0100
3001
0100
2000
0200
,  // measure 28
0000
3300
0020
0032
0000
2003
0000
0002
,  // measure 29
0000
0000
3003
0001
0100
1000
0010
0110
,  // measure 30
0000
0220
0000
0000
0000
0300
1000
2030
,  // measure 31
0000
0000
0000
0000
0000
0000
0000
0002
,  // measure 32
0003
0002
0003
0002
0000
0000
3003
0000
,  // measure 33
0001
0100
0001
1000
0100
1000
0001
0101
,  // measure 34
0000
1001
0000
1100
0100
0010
0001
0100
,  // measure 35
1000
0100
0001
0100
1000
0010
0001
0011
,  // measure 36
0000
0101
0000
1100
1000
0001
1000
0100
,  // measure 37
0001
0100
1000
0001
0100
0001
1000
1100
,  // measure 38
0000
1001
0000
0101
0100
0010
1000
0100
,  // measure 39
0001
0100
1000
0100
0001
0010
1000
1010
,  // measure 40
0000
1100
0000
0101
0001
1000
1100
0001
,  // measure 41
1001
0010
1000
0100
1000
0010
0001
0011
,  // measure 42
0000
0101
0000
1100
0010
1000
0100
0001
,  // measure 43
0010
0001
0100
1000
0010
0001
0100
0101
,  // measure 44
0000
1100
0000
1010
0001
0010
1000
0100
,  // measure 45
0001
0100
0001
0100
0001
0100
0001
0101
,  // measure 46
0000
1010
0000
0011
1100
0100
1000
0100
,  // measure 47
1000
0100
1000
0100
1000
0100
1000
1100
,  // measure 48
0000
0101
0000
0011
0001
0010
0001
1000
,  // measure 49
1001
0010
0001
0100
0001
0010
1000
1010
,  // measure 50
0000
1100
0000
0101
0010
0001
0100
1000
,  // measure 51
0010
1000
0100
0001
0010
1000
0100
1100
,  // measure 52
0000
0101
0000
0011
1000
0010
0001
0100
,  // measure 53
2002
0000
0000
0000
0000
0003
0100
0200
,  // measure 54
0000
0000
3000
1300
0010
0001
0010
1000
,  // measure 55
0100
0001
0202
0000
0300
1000
0000
1003
,  // measure 56
0000
1000
0010
0001
0110
0000
1001
0000
,  // measure 57
0000
0000
1000
0000
0001
0100
1000
0110
,  // measure 58
0000
0120
0000
0000
0100
0000
0130
0000
,  // measure 59
2002
0000
3003
0100
1000
0100
0020
0002
,  // measure 60
0000
0033
2000
0002
0000
3003
0020
2000
,  // measure 61
0000
3030
0000
0010
0100
0010
1000
0002
,  // measure 62
0000
2000
0000
0000
3003
0000
0010
0100
,  // measure 63
0220
0000
0000
0000
0000
0300
0000
0100
,  // measure 64
0000
0100
0000
0200
0330
0000
1001
0000
,  // measure 65
1001
0100
0010
0200
0000
0000
0000
0001
,  // measure 66
0000
0001
0000
0302
0100
0100
0103
0200
,  // measure 67
0000
0320
0000
2030
0000
0000
0100
3100
,  // measure 68
0000
0022
0000
0000
0000
0000
0033
0000
,  // measure 69
1000
0100
0001
0100
1000
0010
0001
0101
,  // measure 70
0000
1100
0000
0011
0010
0100
0010
0100
,  // measure 71
2002
0000
0000
0000
,  // measure 72
0000
0000
0000
0000
,  // measure 73
0000
0000
0000
0000
,  // measure 74
0000
0000
0000
3003
;
