#TITLE:KEEP ON MOVIN';
#SUBTITLE:;
#ARTIST:N.M.R;
#TITLETRANSLIT:;
#SUBTITLETRANSLIT:;
#ARTISTTRANSLIT:;
#GENRE:;
#CREDIT:;
#BANNER:KEEP ON MOVIN'.png;
#BACKGROUND:KEEP ON MOVIN'-bg.png;
#LYRICSPATH:KEEP ON MOVIN'.lrc;
#CDTITLE:./CDTITLES/DANCE DANCE REVOLUTION 2NDMIX.PNG;
#MUSIC:KEEP ON MOVIN'.ogg;
#OFFSET:-0.064;
#SAMPLESTART:7.310;
#SAMPLELENGTH:15.000;
#SELECTABLE:YES;
#DISPLAYBPM:132.000;
#BPMS:0.000=132.030
;
#STOPS:;
#BGCHANGES:;
#KEYSOUNDS:;
#ATTACKS:;

//---------------dance-single - ----------------
#NOTES:
     dance-single:
     :
     Beginner:
     1:
     0.138,0.159,0.220,0.000,0.000,51.000,15.000,0.000,0.000,0.000,0.000,0.138,0.159,0.220,0.000,0.000,51.000,15.000,0.000,0.000,0.000,0.000:
0000
0000
0000
0000
,
0000
0000
0000
0000
,
0000
0000
0000
0000
,
0000
0000
0000
0000
,
1000
0000
1000
0000
,
0001
0000
0001
0000
,
1001
0000
1001
0000
,
1000
0000
0001
0000
,
0010
0000
0010
0000
,
0100
0000
0100
0000
,
0110
0000
0110
0000
,
0010
0000
0100
0000
,
1001
0000
0000
0000
,
1001
0000
0000
0000
,
1000
0000
0000
0000
,
0001
0000
0000
0000
,
0010
0000
0000
0000
,
0100
0000
0000
0000
,
0110
0000
0000
0000
,
1001
0000
0000
0000
,
1000
0000
0000
0000
,
1000
0000
0000
0000
,
0001
0000
0000
0000
,
0001
0000
0000
0000
,
0010
0000
0000
0000
,
0010
0000
0000
0000
,
1001
0000
1001
0000
,
0010
0000
0100
0000
,
1000
0000
1000
0000
,
0001
0000
0001
0000
,
1001
0000
1001
0000
,
1000
0000
0001
0000
,
0010
0000
0010
0000
,
0100
0000
0100
0000
,
0110
0000
0110
0000
,
0010
0000
0100
0000
,
1001
0000
0000
0000
;

//---------------dance-couple - ----------------
#NOTES:
     dance-couple:
     :
     Medium:
     2:
     0.497,0.767,0.955,0.000,0.000,167.000,65.000,0.000,0.000,3.000,0.000,0.497,0.767,0.955,0.000,0.000,167.000,65.000,0.000,0.000,3.000,0.000:
00000000
00000000
00000000
00000000
,
00000000
00000000
00000000
00000000
,
00000000
00000000
00000000
00000000
,
00000000
00000000
00000000
00000000
,
00001000
10000100
00000001
10000100
,
00000001
00001000
10000001
00000000
00000001
00001000
10000100
00000000
,
00000001
10001000
00000010
10000001
,
00000001
10001000
00001000
10000100
,
10000000
01000001
00010000
01000001
,
00010000
10000000
00010001
00000000
00010000
10000000
01000001
00000000
,
00010000
10000001
00100000
00010001
,
00010000
10000001
10000000
01000001
,
10001000
01000100
00010001
01000100
,
00100010
10001000
01000100
00000000
00100010
00010001
01000100
00000000
,
00000100
00000100
00000100
00000000
01000000
01000000
01000000
00000000
,
00000001
00000001
00000001
00000000
10000000
10000000
10000000
00000000
,
00001000
00000001
00001000
00000100
00000010
00000001
00000100
00000000
,
00010000
10000000
00010000
01000000
00100000
10000000
01000000
00000000
,
00001000
00000100
00001000
00000000
00000001
00000100
00000001
00000000
,
10000000
01000000
10000000
00000000
00010000
01000000
00010000
00000000
,
00001001
01000000
00001001
01000000
,
10010000
00000100
10010000
00000100
,
00000001
00000100
00000001
00000000
00000001
00000100
00001000
00000000
,
10000000
01000000
10000000
00000000
10000000
01000000
00010000
00000000
,
00000010
00000000
00000010
00000000
00000010
00000100
00000001
00000000
,
00100000
00000000
00100000
00000000
00100000
01000000
10000000
00000000
,
00001000
00010000
00001000
00010000
,
00000000
00100010
00100010
00000000
10011001
00000000
01011100
00000000
,
10001000
01000100
00100010
00010001
01000100
10011000
00010001
00100010
,
10001000
00010001
10001000
00000000
10001000
00010001
00100010
00000000
,
00010001
00010001
01000100
01000100
,
10001000
10001000
01000100
01000100
,
00010000
00010000
00001000
00001000
01000000
01000000
00000100
00000100
,
10000000
00010000
01000000
00000000
00000001
00001000
00000100
00000000
,
00010001
01000100
10001000
01000100
,
00010001
10001000
00010001
10001000
,
01000100
00000000
00000000
00000000
;

//---------------dance-solo - ----------------
#NOTES:
     dance-solo:
     :
     Easy:
     4:
     0.248,0.238,0.132,0.000,0.000,109.000,9.000,0.000,0.000,0.000,0.000,0.248,0.238,0.132,0.000,0.000,109.000,9.000,0.000,0.000,0.000,0.000:
000000
000000
000000
000000
,
000000
000000
000000
000000
,
000000
000000
000000
000000
,
000000
000000
000000
000000
,
010000
001000
100000
001000
,
100001
000000
001000
001000
,
001000
000000
000010
100000
,
000001
010000
000010
001000
,
000001
000100
000100
000001
,
100001
000000
001000
001000
,
000010
010010
000000
000000
,
100000
100000
000001
000001
,
001100
001000
000100
001000
,
000010
000000
000000
000000
,
010000
000000
000100
000100
,
000001
010000
000010
000000
,
100000
001000
000001
100000
,
000001
000000
000000
000000
,
100001
000100
010000
000000
,
000001
010000
000010
100000
,
000001
001000
000000
100000
,
100000
100001
000001
100001
,
010000
010000
001000
010000
,
000010
000010
001000
000010
,
000100
100000
001000
000001
,
001000
000100
100001
001000
,
000100
100000
000000
000000
,
100000
000001
100000
000001
,
001000
000100
001000
000100
,
010000
010000
000010
000010
,
001000
000000
000000
000000
,
000010
000010
000010
000010
,
100000
001000
100000
001000
,
000100
000001
000100
000001
,
001000
100001
000100
000100
,
010000
010000
000010
000010
,
010000
000000
000000
000000
;

//---------------dance-solo - ----------------
#NOTES:
     dance-solo:
     :
     Medium:
     5:
     0.300,0.317,0.132,0.000,0.000,134.000,9.000,0.000,0.000,0.000,0.000,0.300,0.317,0.132,0.000,0.000,134.000,9.000,0.000,0.000,0.000,0.000:
000000
000000
000000
000000
,
000000
000000
000000
000000
,
000000
000000
000000
000000
,
000000
000000
000000
000000
,
100000
100000
100000
000010
,
010000
000001
010000
000000
100000
000010
100000
000000
,
000010
000000
001000
001000
,
000001
100000
100000
000001
,
001000
000100
100000
000001
,
001000
000100
001000
000000
100000
000001
100000
000000
,
000100
000000
100001
000000
001000
001000
001000
000000
,
000100
000000
010000
010000
,
000010
000000
000010
001000
000001
000000
100000
000000
,
100001
000000
000000
000000
,
001000
000000
000000
000000
000010
010000
000010
000000
,
100000
100000
000001
000001
100000
000000
000000
000000
,
100000
001000
000001
100000
,
000001
000000
000000
000000
,
100001
001000
010000
000000
,
000010
001000
000001
100000
,
100000
000000
100000
100000
000001
000000
000001
000001
,
000000
010000
000000
000000
000000
000010
000000
000000
,
100000
000000
100000
000000
000100
010000
000100
000000
,
000001
000000
000001
000000
000100
000010
000100
000000
,
001000
000000
001000
000000
000010
100000
000010
000000
,
001000
000000
001000
000000
000001
010000
000001
000000
,
000100
000000
000100
000000
000001
100000
000001
100000
,
000000
000010
010000
010010
,
000100
110000
000100
000011
,
001000
000100
001000
000000
100000
000001
100000
000000
,
000100
000000
000000
001000
,
010000
010000
000010
000010
,
100000
101000
000001
001001
,
100000
010000
100000
000000
000001
000010
000001
000000
,
000100
100001
001000
001000
,
000010
100000
000001
010000
,
001000
000000
000000
000000
;

//---------------dance-solo - ----------------
#NOTES:
     dance-solo:
     :
     Hard:
     6:
     0.378,0.397,0.088,0.000,0.000,174.000,6.000,0.000,0.000,0.000,0.000,0.378,0.397,0.088,0.000,0.000,174.000,6.000,0.000,0.000,0.000,0.000:
000000
000000
000000
000000
,
000000
000000
000000
000000
,
000000
000000
000000
000000
,
000000
000000
000000
000000
,
100000
010000
100000
010000
100000
010000
100000
010000
,
100000
000100
010000
000000
010000
000100
100000
000001
,
001000
000000
000100
001000
,
000010
000000
000010
000000
010000
001000
010000
000000
,
000001
000010
000001
000010
000001
000010
000001
000010
,
000001
000100
000001
000000
000001
000100
001000
100000
,
001000
000000
100001
000000
001000
001000
001000
000000
,
000010
000000
010000
000000
,
100000
001000
100000
000000
001000
000001
001000
000000
,
100000
000000
000000
000000
000010
010000
000010
000000
,
010000
000000
000000
000000
001000
001000
001000
000000
,
000010
100000
000010
000000
001000
000000
001000
000000
,
000000
100000
000000
000010
010000
000001
001000
000100
,
100000
000001
000000
001000
,
010000
000100
010000
000000
100000
000100
100000
000000
,
001000
001000
001000
000000
000001
000010
000001
000000
,
010000
000000
001000
001000
010000
000000
000010
000000
,
001000
000100
100000
000000
000001
001000
000100
000000
,
100000
000000
100001
000000
000100
100000
000001
001000
,
000100
000000
001100
000000
100000
000010
010000
000001
,
100000
000000
100000
000000
010000
000010
100000
000100
,
100000
000000
100000
000000
100000
000100
100000
000100
,
100000
000000
100000
000000
100000
000100
100000
000100
,
000000
001000
001000
000000
000001
000000
000110
000000
,
100000
001000
000100
000001
010000
000000
000010
000000
,
100000
000001
100000
000000
100000
000001
001000
000100
,
100000
000000
000010
010000
000010
000000
010000
000000
,
001000
001000
000100
001000
,
100000
000001
001000
000100
100000
000001
001000
000100
,
100000
000001
100000
000000
100000
000001
000100
001000
,
100000
001100
000010
000000
,
010000
000000
000100
000100
,
100001
000000
000000
000000
;

//---------------dance-single - Blank----------------
#NOTES:
     dance-single:
     Blank:
     Hard:
     5:
     0.420,0.370,0.441,0.000,0.000,170.000,30.000,0.000,0.000,0.000,0.000,0.420,0.370,0.441,0.000,0.000,170.000,30.000,0.000,0.000,0.000,0.000:
0000
0000
0000
0000
,
0000
0000
0000
0000
,
0000
0000
0000
0000
,
0000
0000
0000
0000
,
1010
1001
1100
0101
,
1000
0100
0000
0000
0010
0000
1001
0000
,
0001
1000
0100
0000
0001
1000
0010
0000
,
1000
0000
0100
0000
0010
0010
0010
0000
,
0011
1001
0101
1100
,
0001
0100
0000
0000
0010
0000
1001
0000
,
1000
0100
1000
0000
0001
0010
0001
0000
,
0010
0000
0100
0000
0010
0100
0010
0000
,
1001
0001
0001
0000
0010
0100
0010
0000
,
0100
1000
0001
0000
1000
0001
0100
0001
,
0010
1000
0001
0000
0100
1000
0010
0000
,
0010
1000
0001
0000
1000
0001
0100
1000
,
0010
1000
0001
0000
0100
0001
1000
0000
,
0010
1000
0001
0000
0001
1000
0010
0001
,
0010
0100
1000
0000
1000
0001
0100
0000
,
0001
1000
0100
0000
0010
1000
0100
1000
,
1001
0000
0010
0000
1100
0000
0001
1000
,
0010
0000
1000
0000
0100
0000
0010
0001
,
1000
0000
0010
0000
0101
0000
1000
0100
,
0010
0001
0110
1001
,
1000
0000
0010
0000
1100
0000
0001
1000
,
0010
0000
1000
0000
0100
0000
0010
0001
,
1000
0000
0010
0000
0101
0000
1000
0100
,
0010
0001
1000
0010
0100
0001
1001
0000
,
1010
1001
1100
0101
,
1000
0100
0000
0000
0010
0000
1001
0000
,
0001
1000
0100
0000
0001
1000
0010
0000
,
1000
0000
0100
0000
0010
0010
0010
0000
,
0011
1001
0101
1100
,
0001
0100
0000
0000
0010
0000
1001
0000
,
1000
0010
1000
0000
0001
0100
0001
0000
,
0010
0000
0100
0000
0010
0100
0010
0000
,
1001
0000
0000
0000
;

//---------------dance-single - Blank----------------
#NOTES:
     dance-single:
     Blank:
     Medium:
     4:
     0.300,0.291,0.132,0.000,0.000,134.000,9.000,0.000,0.000,0.000,0.000,0.300,0.291,0.132,0.000,0.000,134.000,9.000,0.000,0.000,0.000,0.000:
0000
0000
0000
0000
,
0000
0000
0000
0000
,
0000
0000
0000
0000
,
0000
0000
0000
0000
,
1000
0010
0001
0100
,
1000
0100
0000
0000
0010
0000
1001
0000
,
0001
0100
0001
0010
,
1000
0000
0100
0000
0010
0010
0010
0000
,
1000
0010
0001
0100
,
1000
0100
0000
0000
0010
0000
1001
0000
,
1000
1000
1000
0000
0001
0001
0001
0000
,
0010
0010
0010
0010
,
1001
0000
0010
0000
,
0100
0000
0000
0000
1000
0000
0001
1000
,
0010
0000
0100
0000
,
0010
0000
0000
0000
1000
0000
0001
1000
,
0010
0000
0100
0000
,
0010
0000
0000
0000
0001
0000
1000
0001
,
0010
0000
1000
0000
,
0001
0000
0000
0000
0010
1000
0100
1000
,
1001
0000
0010
0000
1000
0000
0001
1000
,
0010
0000
1000
0000
0100
0000
0010
0001
,
1000
0000
0010
0000
0001
0000
0100
1000
,
0010
0001
0100
1001
,
1000
0000
0010
0000
1000
0000
0001
1000
,
0010
0000
1000
0000
0100
0000
0010
0001
,
1000
0000
0010
0000
0001
0000
0100
1000
,
0010
1000
0100
1001
,
1000
0010
0001
0100
,
1000
0100
0000
0000
0010
0000
1001
0000
,
0001
0100
0001
0010
,
1000
0000
0100
0000
0010
0010
0010
0000
,
1000
0010
0001
0100
,
1000
0100
0000
0000
0010
0000
1001
0000
,
1000
1000
1000
0000
0001
0001
0001
0000
,
0010
0010
0010
0010
,
1001
0000
0000
0000
;

//---------------dance-single - Blank----------------
#NOTES:
     dance-single:
     Blank:
     Easy:
     3:
     0.195,0.212,0.059,0.000,0.000,89.000,4.000,0.000,0.000,0.000,0.000,0.195,0.212,0.059,0.000,0.000,89.000,4.000,0.000,0.000,0.000,0.000:
0000
0000
0000
0000
,
0000
0000
0000
0000
,
0000
0000
0000
0000
,
0000
0000
0000
0000
,
1000
0010
0001
0100
,
1000
0100
0000
0000
0000
0000
0010
0000
,
0001
0100
0001
0010
,
1000
0100
0000
0010
,
1000
0010
0001
0100
,
1000
0100
0000
0000
0000
0000
0001
0000
,
1000
0000
0001
0000
,
0010
0010
0010
0010
,
1001
0000
0010
0000
,
0100
0000
1000
0001
,
0010
0000
0100
0000
,
0010
0000
1000
0001
,
0010
0000
0100
0000
,
0010
0000
0001
1000
,
0010
0000
1000
0000
,
0001
0000
0010
0100
,
1001
0000
0000
0000
,
0010
0000
0000
0000
,
1000
0000
0000
0000
,
0010
0001
0100
1000
,
0010
0000
0000
0000
,
0001
0000
0000
0000
,
0100
0000
0000
0000
,
0010
1000
0100
0001
,
1001
0010
0001
0100
,
1000
0100
0000
0000
0000
0000
0010
0000
,
0001
0100
0001
0010
,
1000
0100
0000
0010
,
1000
0010
0001
0100
,
1000
0100
0000
0000
0000
0000
0001
0000
,
1000
0000
0001
0000
,
0010
0010
0010
0010
,
1001
0000
0000
0000
;

//---------------dance-double - ----------------
#NOTES:
     dance-double:
     :
     Medium:
     4:
     0.332,0.370,0.308,0.000,0.000,137.000,21.000,0.000,0.000,0.000,0.000,0.332,0.370,0.308,0.000,0.000,137.000,21.000,0.000,0.000,0.000,0.000: // measure 0
00000000
00000000
00000000
00000000
,  // measure 1
00000000
00000000
00000000
00000000
,  // measure 2
00000000
00000000
00000000
00000000
,  // measure 3
00000000
00000000
00000000
00000000
,  // measure 4
11000000
00100000
01010000
00001000
,  // measure 5
00010000
00000010
00000000
00000000
00000100
00000000
00000001
00000000
,  // measure 6
00001000
00000100
00010000
00000010
,  // measure 7
00001000
00000000
00000100
00000000
00010000
00010000
00010000
00000000
,  // measure 8
00001010
00000100
00011000
01000000
,  // measure 9
00100000
01000000
00000000
00000000
10000000
00000000
00100000
00000000
,  // measure 10
00001000
00010000
00001000
00000000
01000000
00010000
01000000
00000000
,  // measure 11
00110000
10000000
01000000
01000000
,  // measure 12
10010000
00000000
00100000
00000000
,  // measure 13
01100000
00000000
00000000
00000000
00010000
00000000
00000100
00001000
,  // measure 14
00000010
00000000
00000100
00000000
,  // measure 15
00001001
00000000
00000000
00000000
00100000
00000000
01000000
00010000
,  // measure 16
10000000
00000000
01000000
00000000
,  // measure 17
01100000
00000000
00000000
00000000
00001000
00000000
00010000
00000100
,  // measure 18
00000010
00000000
00001000
00000000
,  // measure 19
00000110
00000000
00000000
00000000
00000001
00000000
00000100
00000001
,  // measure 20
00001001
00000000
00000010
00000000
00000001
00000000
00000100
00000010
,  // measure 21
00001000
00000000
00010000
00000000
00001000
00000000
00100000
01000000
,  // measure 22
10000000
00000000
00010000
00000000
00100000
00000000
00000010
00001000
,  // measure 23
00000100
00000000
00000001
00000000
00000010
00000000
00000001
00001000
,  // measure 24
00000100
00000000
00010000
00000000
00001000
00000000
01000000
00100000
,  // measure 25
10000000
00000000
00100000
00000000
00010000
00000000
01000000
00001000
,  // measure 26
00100000
00000000
00010000
00000000
01000000
00000000
00100000
01000000
,  // measure 27
00100000
00010000
10000000
00100000
01000000
00010000
10010000
00000000
,  // measure 28
10100000
00100000
01010000
00001000
,  // measure 29
00010000
00000010
00000000
00000000
00000100
00000000
00000001
00000000
,  // measure 30
00001000
00000100
00010000
00000010
,  // measure 31
00001000
00000000
00000100
00000000
00010000
00010000
00010000
00000000
,  // measure 32
00001010
00000100
00011000
01000000
,  // measure 33
00100000
01000000
00000000
00000000
10000000
00000000
00100000
00000000
,  // measure 34
00001000
00010000
00001000
00000000
01000000
00010000
01000000
00000000
,  // measure 35
00110000
00011000
00001100
00000011
,  // measure 36
00001001
00000000
00000000
00000000
;

//---------------dance-double - Blank----------------
#NOTES:
     dance-double:
     Blank:
     Easy:
     3:
     0.281,0.291,0.176,0.000,0.000,122.000,12.000,0.000,0.000,0.000,0.000,0.281,0.291,0.176,0.000,0.000,122.000,12.000,0.000,0.000,0.000,0.000:
00000000
00000000
00000000
00000000
,
00000000
00000000
00000000
00000000
,
00000000
00000000
00000000
00000000
,
00000000
00000000
00000000
00000000
,
10000000
00100000
01000000
00001000
,
00010000
00000010
00000000
00000000
00000100
00000000
00000001
00000000
,
00001000
00000100
00010000
00000010
,
00001000
00000100
00010000
00010000
,
00000010
00000100
00010000
00001000
,
00100000
01000000
00000000
00000000
10000000
00000000
00100000
00000000
,
00000000
00010000
00000100
00000000
00000000
00010000
00001000
00000000
,
00100000
10000000
01000000
01000000
,
10010000
00000000
00100000
00000000
,
01000000
00000000
00000000
00000000
00010000
00000000
00000100
00001000
,
00000010
00000000
00000100
00000000
,
00001000
00000000
00000000
00000000
00100000
00000000
01000000
00010000
,
10000000
00000000
01000000
00000000
,
00100000
00000000
00000000
00000000
00001000
00000000
00010000
00000100
,
00000010
00000000
00001000
00000000
,
00000010
00000000
00000000
00000000
00000001
00000000
00000100
00000001
,
00001001
00000010
00000001
00000100
,
00000010
00000000
00010000
00000000
00001000
00000000
00100000
01000000
,
10000000
00010000
00100000
00000010
,
00000100
00000000
00000001
00000000
00000010
00000000
00000001
00001000
,
00000100
00010000
00001000
01000000
,
00100000
10000000
00010000
01001000
,
00100000
00010000
01000000
00100000
,
10000000
00100000
01000000
10010000
,
00100000
00011000
00001100
00001001
,
00001000
00000100
00000000
00000000
00000010
00000000
00000010
00000000
,
00000001
00000100
00001000
00000010
,
00000001
00000100
00000010
00001001
,
00000010
00011000
01010000
10010000
,
10000000
01000000
00000000
00000000
00000000
00000000
00010000
00000000
,
00000000
00001000
00010000
00000000
00000000
00000010
00000100
00000000
,
00000010
00000010
00000010
00000010
,
00001001
00000000
00000000
00000000
;
