#TITLE:邪魔はさせない;
#SUBTITLE:スレイヤーズNEXT ED;
#ARTIST:奥井雅美;
#TITLETRANSLIT:Jama-wa sasenai;
#SUBTITLETRANSLIT:Slayers NEXT ED;
#ARTISTTRANSLIT:Masami Okui;
#GENRE:;
#CREDIT:neothe0ne, improved by Gabe;
#BANNER:Jama-wa sasenai Slayers NEXT ED.png;
#BACKGROUND:Jama-wa sasenai Slayers NEXT ED-bg.png;
#LYRICSPATH:;
#CDTITLE:;
#MUSIC:Jama-wa sasenai Slayers NEXT ED.ogg;
#OFFSET:0.480;
#SAMPLESTART:42.744;
#SAMPLELENGTH:28.450;
#SELECTABLE:YES;
#BPMS:0.000=130.380,154.000=128.000;
#STOPS:;
#TIMESIGNATURES:0.000=4=4
;
#BGCHANGES:3.000=Jama-wa sasenai Slayers NEXT ED.avi=1.000=0=0=0=StretchNoLoop====,
99999=-nosongbg-=1.000=0=0=0 // don't automatically add -songbackground-
;
#KEYSOUNDS:;

//---------------dance-single - Gabe (Zenius-I-vanisher.com)----------------
#NOTES:
     dance-single:
     Gabe (Zenius-I-vanisher.com):
     Easy:
     3:
     0.184,0.195,0.071,0.130,0.000,92.000,6.000,11.000,0.000,0.000,0.000,0.184,0.195,0.071,0.130,0.000,92.000,6.000,11.000,0.000,0.000,0.000:
0000
0000
0000
0000
,
0000
0000
0000
0000
,
1000
0000
0100
0000
,
0001
0000
0000
0000
,
0001
0000
0100
0000
,
2000
3000
0002
0003
,
1000
1000
0100
0000
,
1000
0000
1000
0000
,
0001
0001
0100
0000
,
0001
0000
0001
0000
,
0100
0010
0000
0000
,
0010
0100
0000
0000
,
2002
0000
0000
3003
,
0100
0100
0100
0100
,
0100
0000
1000
0000
,
0010
0001
0010
0000
,
0100
0000
0001
0000
,
0010
1000
0010
0000
,
1000
0100
0001
0000
,
0001
0100
1000
0000
,
1100
0000
0001
0000
,
0101
0000
1000
0000
,
0020
0000
0200
0330
,
0110
1001
0000
0000
,
1000
1000
0001
0000
,
0100
0100
0100
0000
,
0001
0001
1000
0000
,
0100
0100
0100
0000
,
1000
0000
0010
0000
,
0001
0000
0010
0000
,
0100
0200
0000
0300
,
1000
1000
0001
0001
,
1000
1000
0001
0000
,
0010
0000
0010
0000
,
0001
0001
1000
0000
,
0010
0000
0010
0000
,
1000
0000
0100
0000
,
0001
0000
0100
0000
,
0010
0020
0000
0030
,
0200
0000
0000
0300
,
0001
0000
1000
0000
,
2002
3003
0000
0000
;

//---------------dance-single - neothe0ne, tweaked by Gabe----------------
#NOTES:
     dance-single:
     neothe0ne, tweaked by Gabe:
     Beginner:
     1:
     0.068,0.069,0.012,0.000,0.000,39.000,1.000,0.000,0.000,0.000,0.000,0.068,0.069,0.012,0.000,0.000,39.000,1.000,0.000,0.000,0.000,0.000:
0000
0000
0000
0000
,
0000
0000
0000
0000
,
1000
0000
0000
0000
,
0010
0000
0000
0000
,
0100
0000
0000
0000
,
0001
0000
1000
0000
,
0001
0000
0000
0000
,
0100
0000
0000
0000
,
0010
0000
0000
0000
,
1000
0000
0000
0000
,
0001
0000
0000
0000
,
1000
0000
0000
0000
,
0010
0000
0000
0000
,
0100
0000
0000
0000
,
0001
0000
0000
0000
,
1000
0000
0000
0000
,
0010
0000
0000
0000
,
1000
0000
0000
0000
,
0100
0000
0000
0000
,
0010
0000
0000
0000
,
0001
0000
0000
0000
,
0100
0000
0000
0000
,
0001
0000
0000
0000
,
1000
0000
0000
0000
,
0010
0000
0000
0000
,
1000
0000
0000
0000
,
0001
0000
0000
0000
,
0010
0000
0000
0000
,
0100
0000
0000
0000
,
1000
0000
0000
0000
,
0001
0000
0000
0000
,
0100
0000
0000
0000
,
0010
0000
0000
0000
,
1000
0000
0000
0000
,
0001
0000
0000
0000
,
1000
0000
0000
0000
,
0100
0000
0000
0000
,
0010
0000
0000
0000
,
0001
0000
0000
0000
,
1001
0000
0000
0000
;

//---------------dance-single - neothe0ne, tweaked by Gabe----------------
#NOTES:
     dance-single:
     neothe0ne, tweaked by Gabe:
     Challenge:
     9:
     0.632,0.536,0.343,0.236,0.496,325.000,29.000,20.000,0.000,0.000,0.000,0.632,0.536,0.343,0.236,0.496,325.000,29.000,20.000,0.000,0.000,0.000:
0000
0000
0000
0000
,
0000
0000
0000
0000
,
1001
0000
0001
1000
0001
0100
0010
0110
,
0000
0000
0100
0000
0010
0000
1000
0000
0010
1000
0010
0000
1000
0000
0010
0000
,
0110
0010
1000
0010
1000
0001
0100
0110
,
0000
0000
0010
0000
1000
0000
0100
0000
1000
0100
0000
0000
0010
0001
0010
0000
,
0011
0000
0001
0000
0100
0010
0000
1000
0000
0001
0000
0000
0010
0000
0001
0000
,
1000
0000
0010
0000
1000
0001
0000
1000
0000
0010
0000
0000
0100
0000
0010
0000
,
1000
0000
0010
0000
0100
0001
0000
1000
0000
0010
0000
0000
1000
0010
0000
0100
,
0010
0000
1000
0000
0010
0000
0001
0000
0010
1000
0100
0000
1100
0000
0100
0010
,
0001
0000
0010
0000
1001
0000
0000
0000
0001
0000
1000
0000
0100
1000
0100
0000
,
0010
0001
0011
0001
0100
0010
1000
0100
,
1100
0000
1000
0000
0010
1000
0010
1000
0000
0010
0000
0000
1000
0000
0001
0000
,
0200
0000
0000
0000
0310
1000
0001
0100
0001
0100
0000
0000
1000
0010
1000
0000
,
1010
0010
1000
0100
1100
0000
0100
0010
,
0011
0000
0001
0000
0200
0000
0000
0000
0000
0000
0310
0000
1000
0000
0010
1000
,
0100
0000
1000
0000
0001
0000
0100
0000
0010
0000
1000
0010
0000
1000
0100
0000
,
1100
0100
1000
0002
0000
0000
0013
0001
,
1001
0000
0001
0000
0100
0001
0000
0020
0000
0000
0031
0000
0100
0000
0010
0000
,
1010
0000
0010
1000
0000
0000
0020
0000
0000
0000
0000
0000
0130
0000
0001
0000
,
0011
0000
0001
0000
0100
0000
0010
0000
1000
0000
0010
0000
0100
0000
0001
0010
,
0000
0000
0001
0000
1000
0000
1000
0000
0002
0000
0000
2003
0000
0000
3001
0000
,
1001
0000
0000
0000
0001
0000
0101
0000
0000
0001
1000
0000
0001
0000
0100
0000
,
0101
0101
0101
0110
0200
0000
0301
0000
,
1001
0000
0001
1000
0000
0001
0000
0100
0001
0000
0010
0000
0001
0000
0100
0000
,
0020
0000
0000
2030
0000
0000
3100
0000
1000
0100
1000
0000
0001
0000
0100
0000
,
0010
0000
1000
0010
0000
0100
0000
0001
0100
0000
0001
0000
1000
0000
0010
0000
,
0200
0000
0000
0000
0320
0000
0000
0000
1030
0010
1000
0000
0001
0000
0100
0000
,
0110
0000
0010
1000
0000
0020
0000
0000
0130
0000
0010
0100
0001
0010
0000
0000
,
0001
0000
0100
0001
0000
0010
0000
0001
0000
0100
0000
0010
1000
0000
0010
0000
,
0100
0010
0000
2000
0100
0000
0000
0000
3100
0000
0000
0000
1000
0000
0100
0000
,
1000
0000
0000
0000
0000
0000
0000
0000
0100
0000
0000
0000
1000
0000
0000
0000
0100
0000
0000
0010
0000
0000
0001
0000
0000
0010
0000
0000
0000
0000
0000
0000
0001
0000
0000
0000
0000
0100
0000
0000
0001
0000
0000
0000
0000
0000
0000
0000
0010
0000
0000
0000
0001
0000
0000
0000
0100
0000
0000
0000
0000
0000
0000
0000
,
0110
0000
0010
1000
0000
1010
0000
1000
0001
0000
0100
0000
0010
0000
1000
0200
,
0000
0000
0000
0000
0000
0000
0000
0000
1300
0000
0000
0000
0000
0000
0000
0000
0001
0000
0000
0000
0000
0000
0000
0000
0100
0000
0000
0000
0000
0000
0000
0000
0010
0000
0000
0000
0000
1000
0000
0000
0001
0000
0000
0000
0000
0000
0000
0000
0100
0000
0000
0000
0000
0000
0000
0000
0010
0000
0000
0000
0000
0000
0000
0000
,
1000
0000
0010
1000
0000
0100
0000
1000
0100
0000
0010
0000
0001
0000
1000
0000
,
0020
0000
0000
0000
2030
0000
0000
0000
3001
0100
0001
0000
0010
0000
0001
0000
,
0100
0000
0001
0010
0000
0001
0000
1000
0001
0000
0100
0000
0001
1000
0010
0000
,
1000
0000
0010
0000
0100
0000
0001
0000
0010
0100
0000
0100
1000
0000
0001
0000
,
0100
0010
0000
2000
0001
0000
3000
0000
1000
0000
1001
0000
1001
0000
2001
0000
,
0000
0000
3001
0000
0100
0000
0001
0000
0100
0000
0010
1000
0010
0100
0010
0000
,
0100
0010
0000
1000
0001
1000
0000
0001
0100
0000
0001
0010
0001
0000
0001
0020
,
0000
0030
0000
0000
;

//---------------dance-single - neothe0ne, tweaked by Gabe----------------
#NOTES:
     dance-single:
     neothe0ne, tweaked by Gabe:
     Hard:
     6:
     0.366,0.341,0.165,0.047,0.006,199.000,14.000,4.000,0.000,0.000,0.000,0.366,0.341,0.165,0.047,0.006,199.000,14.000,4.000,0.000,0.000,0.000:
0000
0000
0000
0000
,
0000
0000
0000
0000
,
1001
0000
0001
0000
0100
0001
0100
0101
,
0000
0001
1000
0000
0001
0100
0010
0000
,
0110
0000
0010
0000
1000
0010
1000
1010
,
0000
0010
1000
0000
0001
0000
0100
0000
,
0110
0010
1000
0000
0010
0000
0100
0000
,
0001
1000
0010
0000
0100
0000
0001
0000
,
1000
0010
1000
0000
0100
0000
1000
0000
,
0100
1000
0100
0010
0001
0010
0001
1000
,
0001
0000
1001
0000
0001
0000
0100
0001
,
0010
0000
0011
0000
0001
0100
0001
0000
,
1001
0000
0001
1000
0001
0000
0100
0000
,
0020
0000
2030
0000
3002
0000
0103
0001
,
0100
0000
0010
0000
1000
0000
0100
1000
,
0100
0000
1000
0000
0001
0000
0100
0001
,
0100
0000
0010
0000
1000
0000
0010
0100
,
0010
0000
1000
0000
0001
0000
1000
0001
,
0100
0000
0001
0000
0010
0000
0001
0100
,
0010
1000
0010
0100
,
0110
0000
0010
0000
1000
0000
0001
1000
,
0001
0100
0001
0010
,
0011
0000
0000
0110
0000
0000
0100
0000
,
1000
0001
1000
0001
1000
0000
0010
0000
,
1010
0000
0010
0000
1000
0000
0100
0010
,
0001
0000
0100
0000
0010
0000
1000
0001
,
1000
0000
0001
0000
1000
0000
0010
1000
,
0001
0000
0100
0000
0010
0000
1000
0100
,
1000
0000
0001
0000
0100
0001
0100
0000
,
0001
0000
1000
0000
0001
0000
0100
0001
,
0010
0001
0100
0010
,
1000
0000
0001
0100
0001
0100
0010
0000
,
1000
0000
1010
0000
0010
1000
0001
0100
,
0001
0000
0010
0000
0001
0000
0100
0001
,
0010
0000
0001
0000
1000
0000
0001
0100
,
0010
0000
1000
0000
0010
0000
0100
0001
,
1000
0000
0001
0000
0100
0001
0100
0001
,
0100
0000
0010
0000
1000
0000
0001
1000
,
0001
0000
0100
0000
0000
0010
1000
0010
,
0000
1000
0001
1000
0010
0000
1000
0000
,
1010
0000
0000
0000
0010
0000
0000
0000
1000
0000
0001
0000
0010
0000
0000
0002
,
0000
0003
0000
0000
;

//---------------dance-single - neothe0ne, tweaked by Gabe----------------
#NOTES:
     dance-single:
     neothe0ne, tweaked by Gabe:
     Medium:
     4:
     0.279,0.268,0.189,0.059,0.006,144.000,16.000,5.000,0.000,0.000,0.000,0.279,0.268,0.189,0.059,0.006,144.000,16.000,5.000,0.000,0.000,0.000:
0000
0000
0000
0000
,
0000
0000
0000
0000
,
1000
0000
0000
0000
0001
0000
0000
0011
,
0000
0001
1000
0010
,
1010
0000
0010
0000
0100
0000
0000
0110
,
0000
0100
0001
0010
,
0011
0001
1000
0000
,
0001
0010
0001
0000
,
1000
0001
1000
0000
,
0010
1000
0001
1000
,
0010
1010
0000
0010
,
1000
1001
0001
0100
,
0010
1000
0010
0000
,
0200
0302
0023
0032
,
1003
0001
0100
0001
,
1000
0001
0000
0100
,
0001
0010
0001
1000
,
0001
0100
0000
0010
,
1000
0001
1000
0100
,
0010
0001
0000
0100
,
0101
0100
0010
1000
,
0001
1000
0100
0010
,
0011
0000
0000
0011
0000
0000
0001
0000
,
1001
1001
0001
1000
,
1001
0001
1000
0010
,
1000
0100
0010
0001
,
0100
0010
1000
0010
,
0100
0001
1000
0001
,
0010
0100
1000
0010
,
0100
0001
1000
0010
,
1000
0100
0010
0001
,
0100
0010
1000
0001
,
0100
0101
0001
0100
,
0010
1000
0100
0010
,
0001
0100
0010
1000
,
0001
0100
0001
0010
,
0100
0010
0001
0100
,
0010
1000
0001
1000
,
1001
0000
0001
0000
0000
1000
0000
1010
,
0000
0010
1000
0010
,
1010
0000
0000
0000
0010
0000
0000
0000
1000
0000
0000
0000
0001
0000
0000
0020
,
0000
0030
0000
0000
;

//---------------dance-double - Automatic----------------
#NOTES:
     dance-double:
     Automatic:
     Challenge:
     9:
     0.630,0.536,0.331,0.236,0.496,325.000,28.000,20.000,0.000,0.000,0.000,0.630,0.536,0.331,0.236,0.496,325.000,28.000,20.000,0.000,0.000,0.000: // measure 1
00000000
00000000
00000000
00000000
,  // measure 2
00000000
00000000
00000000
00000000
,  // measure 3
10010000
00000000
00010000
10000000
00010000
01000000
00100000
01100000
,  // measure 4
00000000
00000000
01000000
00000000
00100000
00000000
10000000
00000000
00100000
10000000
00100000
00000000
10000000
00000000
00100000
00000000
,  // measure 5
01100000
00100000
10000000
00100000
10000000
00010000
01000000
01100000
,  // measure 6
00000000
00000000
00010000
00000000
01000000
00000000
00100000
00000000
01000000
00100000
00000000
00000000
00010000
00001000
00010000
00000000
,  // measure 7
00011000
00000000
00001000
00000000
00100000
00010000
00000000
01000000
00000000
00001000
00000000
00000000
00010000
00000000
00001000
00000000
,  // measure 8
01000000
00000000
00010000
00000000
01000000
00001000
00000000
01000000
00000000
00010000
00000000
00000000
00100000
00000000
00010000
00000000
,  // measure 9
01000000
00000000
00010000
00000000
00100000
00001000
00000000
01000000
00000000
00010000
00000000
00000000
01000000
00010000
00000000
00100000
,  // measure 10
00001000
00000000
00100000
00000000
00001000
00000000
00000100
00000000
00001000
00100000
00010000
00000000
00110000
00000000
00010000
00001000
,  // measure 11
00000100
00000000
00001000
00000000
00100000
00000000
00000000
00000000
00000100
00000000
00100000
00000000
00010000
00100000
00010000
00000000
,  // measure 12
00001000
00000100
00001100
00000100
00010000
00001000
00100000
00010000
,  // measure 13
00110000
00000000
00100000
00000000
00001000
00100000
00001000
00100000
00000000
00001000
00000000
00000000
00100000
00000000
00000100
00000000
,  // measure 14
00002000
00000000
00000000
00000000
00003100
00010000
00000010
00001000
00000010
00001000
00000000
00000000
00010000
00000100
00010000
00000000
,  // measure 15
00010100
00000100
00010000
00001000
00011000
00000000
00001000
00000100
,  // measure 16
00000110
00000000
00000010
00000000
00002000
00000000
00000000
00000000
00000000
00000000
00003100
00000000
00010000
00000000
00000100
00010000
,  // measure 17
00001000
00000000
00010000
00000000
00000010
00000000
00001000
00000000
00000100
00000000
00010000
00000100
00000000
00010000
00001000
00000000
,  // measure 18
00001100
00000100
00001000
00000002
00000000
00000000
00000013
00000001
,  // measure 19
00001001
00000000
00000001
00000000
00000100
00000001
00000000
00000020
00000000
00000000
00000031
00000000
00000100
00000000
00000010
00000000
,  // measure 20
00001010
00000000
00000010
00001000
00000000
00000000
00000020
00000000
00000000
00000000
00000000
00000000
00000130
00000000
00000001
00000000
,  // measure 21
00000011
00000000
00000001
00000000
00000100
00000000
00000010
00000000
00001000
00000000
00000010
00000000
00000100
00000000
00000001
00000010
,  // measure 22
00000000
00000000
00000010
00000000
00010000
00000000
00010000
00000000
00000020
00000000
00000000
00020030
00000000
00000000
00030010
00000000
,  // measure 23
00010010
00000000
00000000
00000000
00000010
00000000
00001010
00000000
00000000
00000010
00010000
00000000
00000010
00000000
00001000
00000000
,  // measure 24
00001010
00001010
00001010
00001100
00002000
00000000
00003010
00000000
,  // measure 25
00010010
00000000
00000010
00010000
00000000
00000010
00000000
00001000
00000010
00000000
00000100
00000000
00000010
00000000
00001000
00000000
,  // measure 26
00002000
00000000
00000000
00203000
00000000
00000000
00310000
00000000
00100000
00010000
00100000
00000000
00000100
00000000
00010000
00000000
,  // measure 27
00001000
00000000
00100000
00001000
00000000
00010000
00000000
00000100
00010000
00000000
00000100
00000000
00100000
00000000
00001000
00000000
,  // measure 28
00020000
00000000
00000000
00000000
00032000
00000000
00000000
00000000
00103000
00001000
00100000
00000000
00000100
00000000
00010000
00000000
,  // measure 29
00011000
00000000
00001000
00100000
00000000
00002000
00000000
00000000
00013000
00000000
00001000
00010000
00000100
00001000
00000000
00000000
,  // measure 30
00001000
00000000
00100000
00001000
00000000
00010000
00000000
00001000
00000000
00100000
00000000
00010000
01000000
00000000
00010000
00000000
,  // measure 31
00100000
00010000
00000000
02000000
00100000
00000000
00000000
00000000
03100000
00000000
00000000
00000000
01000000
00000000
00100000
00000000
,  // measure 32
01000000
00000000
00000000
00000000
00000000
00000000
00000000
00000000
00100000
00000000
00000000
00000000
01000000
00000000
00000000
00000000
00100000
00000000
00000000
00010000
00000000
00000000
00001000
00000000
00000000
00010000
00000000
00000000
00000000
00000000
00000000
00000000
00001000
00000000
00000000
00000000
00000000
00100000
00000000
00000000
00001000
00000000
00000000
00000000
00000000
00000000
00000000
00000000
00010000
00000000
00000000
00000000
00001000
00000000
00000000
00000000
00100000
00000000
00000000
00000000
00000000
00000000
00000000
00000000
,  // measure 33
00110000
00000000
00010000
01000000
00000000
01010000
00000000
01000000
00001000
00000000
00100000
00000000
00010000
00000000
01000000
00200000
,  // measure 34
00000000
00000000
00000000
00000000
00000000
00000000
00000000
00000000
01300000
00000000
00000000
00000000
00000000
00000000
00000000
00000000
00001000
00000000
00000000
00000000
00000000
00000000
00000000
00000000
00100000
00000000
00000000
00000000
00000000
00000000
00000000
00000000
00010000
00000000
00000000
00000000
00000000
01000000
00000000
00000000
00001000
00000000
00000000
00000000
00000000
00000000
00000000
00000000
00100000
00000000
00000000
00000000
00000000
00000000
00000000
00000000
00010000
00000000
00000000
00000000
00000000
00000000
00000000
00000000
,  // measure 35
10000000
00000000
00100000
10000000
00000000
01000000
00000000
10000000
01000000
00000000
00100000
00000000
00010000
00000000
10000000
00000000
,  // measure 36
00200000
00000000
00000000
00000000
20300000
00000000
00000000
00000000
30010000
01000000
00010000
00000000
00100000
00000000
00010000
00000000
,  // measure 37
01000000
00000000
00010000
00100000
00000000
00010000
00000000
10000000
00010000
00000000
01000000
00000000
00010000
10000000
00100000
00000000
,  // measure 38
10000000
00000000
00100000
00000000
01000000
00000000
00010000
00000000
00100000
01000000
00000000
01000000
10000000
00000000
00010000
00000000
,  // measure 39
00100000
00010000
00000000
02000000
00001000
00000000
03000000
00000000
01000000
00000000
01001000
00000000
01001000
00000000
02001000
00000000
,  // measure 40
00000000
00000000
03001000
00000000
00100000
00000000
00001000
00000000
00100000
00000000
00010000
01000000
00010000
00100000
00010000
00000000
,  // measure 41
00100000
00010000
00000000
01000000
00001000
01000000
00000000
00001000
00100000
00000000
00001000
00010000
00001000
00000000
00001000
00020000
,  // measure 42
00000000
00030000
00000000
00000000
;

//---------------dance-double - Automatic----------------
#NOTES:
     dance-double:
     Automatic:
     Hard:
     6:
     0.363,0.317,0.142,0.047,0.006,199.000,12.000,4.000,0.000,0.000,0.000,0.363,0.317,0.142,0.047,0.006,199.000,12.000,4.000,0.000,0.000,0.000: // measure 1
00000000
00000000
00000000
00000000
,  // measure 2
00000000
00000000
00000000
00000000
,  // measure 3
10010000
00000000
00010000
00000000
01000000
00010000
01000000
01010000
,  // measure 4
00000000
00010000
10000000
00000000
00010000
01000000
00100000
00000000
,  // measure 5
01100000
00000000
00100000
00000000
10000000
00100000
10000000
10100000
,  // measure 6
00000000
00010000
01000000
00000000
00001000
00000000
00100000
00000000
,  // measure 7
00110000
00010000
01000000
00000000
00010000
00000000
00100000
00000000
,  // measure 8
00001000
01000000
00010000
00000000
00100000
00000000
00001000
00000000
,  // measure 9
01000000
00010000
01000000
00000000
00100000
00000000
01000000
00000000
,  // measure 10
00010000
00100000
00010000
00001000
00000100
00001000
00000100
00100000
,  // measure 11
00000100
00000000
00100000
00000000
00000100
00000000
00010000
00000100
,  // measure 12
00001000
00000000
00001100
00000000
00000100
00010000
00000100
00000000
,  // measure 13
00100000
00000000
00000100
00100000
00000100
00000000
00010000
00000000
,  // measure 14
00000200
00000000
00020300
00000000
00030020
00000000
00001030
00000010
,  // measure 15
00001000
00000000
00000100
00000000
00010000
00000000
00001000
00010000
,  // measure 16
00001000
00000000
00010000
00000000
00000010
00000000
00001000
00000010
,  // measure 17
00001000
00000000
00000100
00000000
00010000
00000000
00000100
00001000
,  // measure 18
00000010
00000000
00001000
00000000
00000001
00000000
00001000
00000001
,  // measure 19
00000100
00000000
00000001
00000000
00000010
00000000
00000001
00000100
,  // measure 20
00000010
00001000
00000010
00000100
,  // measure 21
00000110
00000000
00000010
00000000
00001000
00000000
00000001
00001000
,  // measure 22
00000010
00001000
00000010
00000100
,  // measure 23
00000110
00000000
00000000
00001100
00000000
00000000
00001000
00000000
,  // measure 24
00010000
00000010
00010000
00000010
00010000
00000000
00000100
00000000
,  // measure 25
00010100
00000000
00000100
00000000
00010000
00000000
00001000
00000100
,  // measure 26
00000100
00000000
00010000
00000000
00001000
00000000
00100000
00000100
,  // measure 27
00100000
00000000
00000100
00000000
00100000
00000000
00001000
00100000
,  // measure 28
00000100
00000000
00010000
00000000
00001000
00000000
00100000
00010000
,  // measure 29
00100000
00000000
00000100
00000000
00010000
00000100
00010000
00000000
,  // measure 30
00001000
00000000
01000000
00000000
00001000
00000000
00100000
00001000
,  // measure 31
00010000
00001000
00100000
00010000
,  // measure 32
01000000
00000000
00001000
00100000
00001000
00100000
00010000
00000000
,  // measure 33
01000000
00000000
01010000
00000000
00010000
01000000
00001000
00100000
,  // measure 34
00010000
00000000
00100000
00000000
00010000
00000000
01000000
00010000
,  // measure 35
00100000
00000000
00010000
00000000
10000000
00000000
00010000
01000000
,  // measure 36
00100000
00000000
10000000
00000000
00100000
00000000
01000000
00010000
,  // measure 37
10000000
00000000
00010000
00000000
01000000
00010000
01000000
00010000
,  // measure 38
00100000
00000000
00010000
00000000
01000000
00000000
00001000
01000000
,  // measure 39
00001000
00000000
00100000
00000000
00000000
00010000
01000000
00010000
,  // measure 40
00000000
01000000
00001000
01000000
00010000
00000000
01000000
00000000
,  // measure 41
01010000
00000000
00000000
00000000
00010000
00000000
00000000
00000000
01000000
00000000
00001000
00000000
00010000
00000000
00000000
00002000
,  // measure 42
00000000
00003000
00000000
00000000
;

//---------------dance-double - Automatic----------------
#NOTES:
     dance-double:
     Automatic:
     Medium:
     4:
     0.277,0.268,0.177,0.059,0.006,144.000,15.000,5.000,0.000,0.000,0.000,0.277,0.268,0.177,0.059,0.006,144.000,15.000,5.000,0.000,0.000,0.000: // measure 1
00000000
00000000
00000000
00000000
,  // measure 2
00000000
00000000
00000000
00000000
,  // measure 3
10000000
00000000
00000000
00000000
00010000
00000000
00000000
00110000
,  // measure 4
00000000
00010000
10000000
00100000
,  // measure 5
10100000
00000000
00100000
00000000
01000000
00000000
00000000
01100000
,  // measure 6
00000000
00100000
00001000
00010000
,  // measure 7
00011000
00001000
01000000
00000000
,  // measure 8
00001000
00010000
00001000
00000000
,  // measure 9
01000000
00001000
01000000
00000000
,  // measure 10
00001000
00100000
00000100
00100000
,  // measure 11
00001000
00101000
00000000
00001000
,  // measure 12
00100000
00100000
00000100
00010000
,  // measure 13
00001000
00100000
00001000
00000000
,  // measure 14
00002000
00003020
00000230
00000320
,  // measure 15
00010030
00000010
00001000
00000010
,  // measure 16
00010000
00000010
00000000
00001000
,  // measure 17
00000010
00000100
00000010
00010000
,  // measure 18
00000001
00000100
00000000
00000010
,  // measure 19
00001000
00000001
00001000
00000100
,  // measure 20
00000010
00000001
00000000
00000100
,  // measure 21
00000101
00000100
00000010
00001000
,  // measure 22
00000010
00010000
00001000
00000100
,  // measure 23
00000110
00000000
00000000
00000110
00000000
00000000
00000010
00000000
,  // measure 24
00010010
00010010
00000010
00010000
,  // measure 25
00010010
00000010
00010000
00000100
,  // measure 26
00100000
00010000
00001000
00000100
,  // measure 27
00010000
00001000
00100000
00001000
,  // measure 28
00010000
00000100
00100000
00000100
,  // measure 29
00001000
00010000
00100000
00001000
,  // measure 30
00100000
00001000
01000000
00010000
,  // measure 31
01000000
00100000
00010000
00001000
,  // measure 32
00100000
00010000
01000000
00001000
,  // measure 33
00100000
00101000
00001000
00100000
,  // measure 34
00100000
10000000
01000000
00100000
,  // measure 35
00010000
01000000
00100000
10000000
,  // measure 36
00010000
01000000
00010000
00100000
,  // measure 37
01000000
00100000
00010000
01000000
,  // measure 38
00010000
01000000
00001000
01000000
,  // measure 39
01001000
00000000
00001000
00000000
00000000
01000000
00000000
01010000
,  // measure 40
00000000
00010000
01000000
00010000
,  // measure 41
01010000
00000000
00000000
00000000
00010000
00000000
00000000
00000000
01000000
00000000
00000000
00000000
00001000
00000000
00000000
00020000
,  // measure 42
00000000
00030000
00000000
00000000
;

//---------------dance-double - Gabe (Zenius-I-vanisher.com)----------------
#NOTES:
     dance-double:
     Gabe (Zenius-I-vanisher.com):
     Easy:
     4:
     0.247,0.244,0.059,0.331,0.000,113.000,5.000,28.000,0.000,0.000,0.000,0.247,0.244,0.059,0.331,0.000,113.000,5.000,28.000,0.000,0.000,0.000: // measure 1
00000000
00000000
00000000
00000000
,  // measure 2
00000000
00000000
00000000
00000000
,  // measure 3
01000000
01000000
00010000
00000000
,  // measure 4
00002000
00000000
00020000
00033000
,  // measure 5
00000100
00000100
00001000
00000000
,  // measure 6
00020000
00000000
00002000
00033000
,  // measure 7
00000100
00000100
00001000
00000000
,  // measure 8
00010000
00010000
00001000
00000000
,  // measure 9
00100000
00100000
00010000
00000000
,  // measure 10
01000000
01000000
00100000
00100000
,  // measure 11
20000000
00020000
00000000
30030000
,  // measure 12
00020000
02000000
00030000
03002000
,  // measure 13
00020000
00000000
00000000
00033000
,  // measure 14
00100000
00010000
10000000
01000000
,  // measure 15
00100000
00100000
00100000
00000000
,  // measure 16
00001000
00001000
00001000
00000000
,  // measure 17
00000010
00000010
00000010
00000000
,  // measure 18
00010000
00010000
00010000
00000000
,  // measure 19
00010000
01000000
00010000
01000000
,  // measure 20
10000000
01000000
20000000
30000000
,  // measure 21
01000000
00010000
00000000
00010000
,  // measure 22
00001000
00000000
00001000
00000100
,  // measure 23
00000020
00000000
00000200
00000330
,  // measure 24
00001000
00001000
00000000
00000000
,  // measure 25
00001001
00000000
00000001
00000100
,  // measure 26
00000020
00002000
00000030
00003100
,  // measure 27
00011000
00000000
01000000
00010000
,  // measure 28
20000000
01000000
00020000
30030000
,  // measure 29
01000000
00100000
01000000
00000000
,  // measure 30
00100000
01000000
00100000
00000000
,  // measure 31
00020000
02000000
00000000
03030000
,  // measure 32
00100000
00001000
00010000
00000000
,  // measure 33
00000110
00000000
00000100
00000002
,  // measure 34
00000010
00000200
00000003
00001300
,  // measure 35
00011000
00000000
01000000
10000000
,  // measure 36
00200000
10000000
02300000
03010000
,  // measure 37
00001000
00000010
00001000
00000000
,  // measure 38
00010000
00100000
00010000
00000000
,  // measure 39
02000000
03020000
00000000
00031000
,  // measure 40
00000020
00000000
00000000
00000030
,  // measure 41
00000001
00000010
00000100
00001000
,  // measure 42
00022000
00033000
00000000
00000000
;
