#TITLE:Chobits;
#SUBTITLE:- Let Me Be With You;
#ARTIST:Round Table Feat Nino;
#TITLETRANSLIT:;
#SUBTITLETRANSLIT:;
#ARTISTTRANSLIT:;
#GENRE:;
#CREDIT:;
#BANNER:Chobits - Let Me Be With You.png;
#BACKGROUND:Chobits - Let Me Be With You-bg.png;
#LYRICSPATH:;
#CDTITLE:;
#MUSIC:Chobits - Let Me Be With You.ogg;
#OFFSET:1.520;
#SAMPLESTART:43.850;
#SAMPLELENGTH:12.000;
#SELECTABLE:YES;
#BPMS:0.000=132.260;
#STOPS:;
#TIMESIGNATURES:0.000=4=4
;
#BGCHANGES:1.250=Chobits - Let Me Be With You.avi=1.000=0=0=0=StretchNoLoop====,
99999=-nosongbg-=1.000=0=0=0 // don't automatically add -songbackground-
;
#KEYSOUNDS:;

//---------------dance-single - ----------------
#NOTES:
     dance-single:
     :
     Beginner:
     1:
     0.108,0.109,0.022,0.000,0.000,66.000,2.000,0.000,0.000,0.000,0.000,0.108,0.109,0.022,0.000,0.000,66.000,2.000,0.000,0.000,0.000,0.000:
0000
0000
0000
0000
,
0000
0000
0000
0000
,
0000
0000
0000
1001
,
0000
0000
0000
0100
,
0000
0000
0000
0100
,
0000
0000
0000
0010
,
0000
0000
0000
0010
,
0000
0000
0000
1000
,
0000
1000
0000
0001
,
0000
0001
0000
0100
,
0000
0000
0000
1000
,
0000
0000
0000
0100
,
0000
0000
0000
0010
,
0000
0000
0000
0001
,
0000
0000
0000
1000
,
0000
0000
0000
0010
,
0000
0000
0000
0100
,
0000
0000
0000
0001
,
0000
0001
0000
0001
,
0000
0000
0000
0100
,
0000
0100
0000
0100
,
0000
0000
0000
0001
,
0000
0001
0000
0001
,
0000
0000
0000
0010
,
0000
0010
0000
0010
,
0000
0010
0000
1000
,
0000
1000
0000
0001
,
0000
0001
0000
0100
,
0000
0000
0000
0000
,
0000
0001
0000
1000
,
0000
1000
0000
0010
,
0000
0010
0000
0100
,
0000
0000
0000
0000
,
0000
0100
0000
0010
,
0000
0010
0000
1000
,
0000
1000
0000
0001
,
0000
0000
0000
0000
,
0000
1000
0000
0100
,
0000
0100
0000
0010
,
0000
0010
0000
0001
,
0000
0000
0000
0000
,
0000
1000
0000
0001
,
0000
0001
0000
1000
,
0000
0100
0000
0010
,
0000
0000
0000
0000
,
0000
0001
0000
0001
,
0000
1000
0000
0100
,
0000
0100
0000
0010
,
0000
0000
0000
0000
,
1001
0000
0000
0000
;

//---------------dance-single - ----------------
#NOTES:
     dance-single:
     :
     Easy:
     4:
     0.197,0.191,0.345,0.000,0.000,93.000,31.000,0.000,0.000,0.000,0.000,0.197,0.191,0.345,0.000,0.000,93.000,31.000,0.000,0.000,0.000,0.000:
0000
0000
0000
0000
,
0000
0000
0000
0000
,
0000
0000
0000
0110
,
0000
0000
0000
0000
,
1000
1000
1000
0001
,
0001
0000
0000
1000
,
0000
0001
0000
0100
,
0000
0000
0000
0100
,
0000
0010
0000
0110
,
0000
0010
0000
0010
,
0000
0100
0000
0100
,
0000
0100
0000
0000
,
1000
0001
1000
0001
,
0000
0000
0000
1001
,
0000
0000
0000
0010
,
0000
0001
0000
0011
,
0000
0000
0000
1000
,
0000
0100
0000
1100
,
0000
0000
0000
0001
,
0000
0100
0000
0101
,
0000
0000
0000
1000
,
0000
0010
0000
1010
,
0000
0000
0000
0010
,
0000
0110
0000
0010
,
0000
0100
0000
0000
,
0000
1010
0000
0011
,
0000
0010
0000
0100
,
0000
1100
0000
0101
,
0000
0100
0100
0100
,
0000
1010
0000
0011
,
0000
0010
0000
0100
,
0000
1100
0000
0101
,
0000
0010
0010
0010
,
0000
1100
0000
0101
,
0000
0100
0000
0010
,
0000
1010
0000
0011
,
0000
0100
0100
0100
,
0000
1100
0000
0101
,
0000
0100
0000
0010
,
0000
1010
0000
0011
,
0000
0010
0010
0010
,
0000
1010
0000
1100
,
0000
1000
0000
0001
,
0000
0011
0000
0101
,
0000
1000
0001
1000
,
0000
0011
0000
0101
,
0000
0001
0000
1000
,
0000
1001
0000
0000
,
1000
0001
0010
0100
,
0001
0000
0000
0000
;

//---------------dance-single - ----------------
#NOTES:
     dance-single:
     :
     Medium:
     6:
     0.339,0.491,0.535,0.000,0.000,165.000,48.000,0.000,0.000,0.000,0.000,0.339,0.491,0.535,0.000,0.000,165.000,48.000,0.000,0.000,0.000,0.000:
0000
0000
0000
0000
,
0000
0000
0000
0000
,
0000
0000
0000
1001
,
0000
1000
0001
0000
,
1010
0011
1001
1100
,
0101
0000
0000
0010
,
0001
0010
1000
0010
,
0000
0100
0000
0100
,
0010
0100
0000
1000
,
0000
0001
1000
0001
,
0000
0001
0000
1000
,
0001
1000
0000
0000
,
1010
0011
1100
0101
,
0000
0010
0001
1000
,
0000
0010
0000
0100
,
1000
0100
0000
0001
,
0000
0100
0001
0100
,
0101
1000
0000
0100
,
0010
0100
0000
0001
,
0000
0010
0100
0010
,
0000
1000
0001
1000
,
0001
1000
0000
0010
,
0000
0100
0000
0010
,
0001
0100
0000
0001
,
0010
1000
0100
0000
,
0000
1000
0100
0000
1000
0100
0000
0000
,
0000
0001
0100
0000
0001
0100
0000
0000
,
0000
1000
0001
0000
1000
0001
0000
0000
,
1001
0110
1001
0110
,
1001
1000
0010
0000
1000
0010
0000
0000
,
0000
0001
0010
0000
0001
0010
0000
0000
,
0000
0001
1000
0000
0001
1000
0000
0000
,
0110
1001
0110
1001
,
0110
0001
1000
0000
1000
0001
0000
0000
,
0000
1000
0001
0000
0001
1000
0000
0000
,
0000
0100
0100
0000
0010
0010
0000
0000
,
0110
0110
0110
1001
,
1001
1001
1001
0000
0110
0110
0000
0000
,
0000
1010
1010
0000
0101
0101
0000
0000
,
0000
0011
0011
0000
1100
1100
0000
0000
,
0010
1000
0010
0001
,
0100
1000
0001
0000
1000
0001
0000
0000
,
0000
0100
0010
0000
0100
0010
0000
0000
,
0000
1000
1000
0000
0001
0001
0000
0000
,
1001
1001
1001
0110
,
0110
0010
0010
0000
0100
0100
0000
0000
,
0000
1000
1000
0000
0001
0001
0000
0000
,
0000
0010
0100
0000
1000
0001
0000
0000
,
1010
0011
1001
1100
,
0101
0000
0000
0000
;

//---------------dance-single - ----------------
#NOTES:
     dance-single:
     :
     Hard:
     7:
     0.412,0.443,0.512,0.134,0.000,201.000,46.000,12.000,0.000,0.000,0.000,0.412,0.443,0.512,0.134,0.000,201.000,46.000,12.000,0.000,0.000,0.000: // measure 1
0000
0000
0000
0000
,  // measure 2
0000
0000
0000
0000
,  // measure 3
0000
0000
0000
1001
,  // measure 4
0000
1000
0001
0000
1000
0001
0000
0000
,  // measure 5
1010
1010
0101
0011
,  // measure 6
0101
0010
0001
0000
0010
0001
0000
0000
,  // measure 7
0000
0010
1000
0000
0010
1000
0000
0000
,  // measure 8
0000
1000
0001
0000
1000
0001
0000
0000
,  // measure 9
0010
1000
0100
0010
,  // measure 10
0001
0010
0100
2000
0000
3010
0000
0100
,  // measure 11
0010
0100
1000
0002
0000
1003
0000
0001
,  // measure 12
1000
0000
0001
1000
0000
0001
0000
0010
,  // measure 13
1001
0000
0011
0000
1100
0000
0110
0010
,  // measure 14
0010
0100
0100
0002
0000
0013
0000
0010
,  // measure 15
0010
0100
0100
2000
0000
3100
0000
0001
,  // measure 16
1000
0000
0001
1000
0000
0200
0000
0002
,  // measure 17
0000
0303
0000
0100
,  // measure 18
1001
0000
0000
0000
0000
0010
0100
0010
,  // measure 19
0000
0010
0000
0010
0000
0010
0000
1001
,  // measure 20
0000
0000
0000
0000
0000
0100
0010
0001
,  // measure 21
0000
0001
0010
0100
0000
0001
1000
2002
,  // measure 22
0000
0000
0000
3003
0000
0010
0100
1000
,  // measure 23
0000
0100
0000
0010
0000
0110
0000
0202
,  // measure 24
0000
0000
0000
0303
,  // measure 25
0010
1000
0100
0100
0000
0010
0000
1000
,  // measure 26
0000
1000
0100
0000
1000
0100
0000
0000
,  // measure 27
0000
0001
0100
0000
0001
0100
0000
0000
,  // measure 28
0000
1000
0001
0000
1000
0001
0000
0000
,  // measure 29
1001
1100
0101
0110
,  // measure 30
1001
1000
0010
0000
1000
0010
0000
0000
,  // measure 31
0000
0001
0010
0000
0001
0010
0000
0000
,  // measure 32
0000
0001
1000
0000
0001
1000
0000
0000
,  // measure 33
0101
1100
0110
1001
,  // measure 34
1001
0001
1000
0000
1000
0001
0000
0000
,  // measure 35
0000
1000
0001
0000
0001
1000
0000
0000
,  // measure 36
0000
0100
0010
0000
0010
0100
0000
0000
,  // measure 37
1001
0110
0110
1001
,  // measure 38
1001
0010
1001
0000
0100
0110
0000
0000
,  // measure 39
0000
0010
1010
0000
0100
0101
0000
0000
,  // measure 40
0000
0010
0011
0000
0100
1100
0000
0000
,  // measure 41
0010
0100
1000
0100
0010
0001
0100
0100
,  // measure 42
0000
1000
0001
0000
1000
0001
0000
0000
,  // measure 43
0000
0100
0010
0000
0100
0010
0000
0000
,  // measure 44
0000
1000
0100
0000
0001
0100
0000
0000
,  // measure 45
1001
1001
0110
1001
,  // measure 46
0110
0001
0100
0000
1000
0100
0000
0000
,  // measure 47
0000
0010
1000
0000
0010
0001
0000
0000
,  // measure 48
0000
0100
0010
0000
0001
1000
0000
0000
,  // measure 49
0011
1010
0101
1100
,  // measure 50
2002
0000
0000
3003
;

//---------------dance-single - Mines Chart----------------
#NOTES:
     dance-single:
     Mines Chart:
     Challenge:
     7:
     0.380,0.388,0.446,0.134,0.000,187.000,40.000,12.000,168.000,0.000,0.000,0.380,0.388,0.446,0.134,0.000,187.000,40.000,12.000,168.000,0.000,0.000:
0000
0000
0000
0000
,
0000
0000
0000
0000
,
0000
0000
0000
0000
0000
0000
1001
MMMM
,
0000
1000
0001
0000
1000
0001
0000
MMMM
,
1010
1010
0101
0011
,
MMMM
0010
0001
0000
0010
0001
0000
MMMM
,
0000
0010
1000
0000
0010
1000
0000
MMMM
,
0000
1000
0001
0000
1000
0001
0000
MMMM
,
0010
1000
0100
0010
,
0001
0010
0100
2000
0000
3010
0000
MMMM
,
0010
0100
1000
0002
0000
1003
0000
MMMM
,
1000
0000
0001
1000
0000
0001
0000
MMMM
,
1001
0000
0011
0000
1100
0000
0110
MMMM
,
0010
0100
0100
0002
0000
0013
0000
MMMM
,
0010
0100
0100
2000
0000
3100
0000
MMMM
,
1000
0000
0001
1000
0000
0200
0000
0002
,
0000
0303
MMMM
0100
,
1001
0000
0000
MMMM
0000
0010
0100
0010
,
0000
0010
0000
0010
0000
MMMM
0000
1001
,
0000
0000
MMMM
0000
0000
0100
0010
0001
,
0000
0001
0010
0100
0000
0001
MMMM
2002
,
0000
0000
0000
3003
0000
0010
0100
1000
,
0000
0100
0000
0010
0000
MMMM
0000
0202
,
0000
0000
0000
0303
,
0010
1000
0100
0100
0000
0010
0000
1000
,
MMMM
1000
0100
0000
1000
0100
0000
MMMM
,
0000
0001
0100
0000
0001
0100
0000
MMMM
,
0000
1000
0001
0000
1000
0001
0000
MMMM
,
1001
1100
0101
0110
,
MMMM
1000
0010
0000
1000
0010
0000
MMMM
,
0000
0001
0010
0000
0001
0010
0000
MMMM
,
0000
0001
1000
0000
0001
1000
0000
MMMM
,
0101
1100
0110
1001
,
MMMM
0001
1000
0000
1000
0001
0000
MMMM
,
0000
1000
0001
0000
0001
1000
0000
MMMM
,
0000
0100
0010
0000
0010
0100
0000
MMMM
,
1001
0110
0110
1001
,
MMMM
0010
1001
0000
0100
0110
0000
MMMM
,
0000
0010
1010
0000
0100
0101
0000
MMMM
,
0000
0010
0011
0000
0100
1100
0000
MMMM
,
0010
0100
1000
0100
0010
0001
0100
0100
,
MMMM
1000
0001
0000
1000
0001
0000
MMMM
,
0000
0100
0010
0000
0100
0010
0000
MMMM
,
0000
1000
0100
0000
0001
0100
0000
MMMM
,
1001
1001
0110
1001
,
MMMM
0001
0100
0000
1000
0100
0000
MMMM
,
0000
0010
1000
0000
0010
0001
0000
MMMM
,
0000
0100
0010
0000
0001
1000
0000
MMMM
,
0011
1010
0101
1100
,
2002
0000
0000
3003
;

//---------------dance-double - ----------------
#NOTES:
     dance-double:
     :
     Easy:
     4:
     0.196,0.191,0.334,0.000,0.000,93.000,30.000,0.000,0.000,0.000,0.000,0.196,0.191,0.334,0.000,0.000,93.000,30.000,0.000,0.000,0.000,0.000:
00000000
00000000
00000000
00000000
,
00000000
00000000
00000000
00000000
,
00000000
00000000
00000000
01100000
,
00000000
00000000
00000000
00000000
,
10000000
10000000
10000000
00010000
,
00010000
00000000
00000000
10000000
,
00000000
00001000
00000000
00100000
,
00000000
00000000
00000000
00100000
,
00000000
00010000
00000000
00110000
,
00000000
00010000
00000000
00010000
,
00000000
00010000
00000000
00010000
,
00000000
00010000
00000000
00000000
,
00100000
00000100
00100000
00000100
,
00000000
00000000
00000000
00100000
,
00000000
00000000
00000000
00000100
,
00000000
00000010
00000000
00000110
,
00000000
00000000
00000000
00010000
,
00000000
00001000
00000000
00011000
,
00000000
00000000
00000000
00000001
,
00000000
00000100
00000000
00000101
,
00000000
00000000
00000000
00001000
,
00000000
00000010
00000000
00001010
,
00000000
00000000
00000000
00000100
,
00000000
00001100
00000000
00000100
,
00000000
00001000
00000000
00000000
,
00000000
00010100
00000000
00000110
,
00000000
00001000
00000000
00010000
,
00000000
00110000
00000000
00010100
,
00000000
00010000
00010000
00010000
,
00000000
00101000
00000000
00001100
,
00000000
00010000
00000000
00100000
,
00000000
01100000
00000000
00101000
,
00000000
00010000
00010000
00010000
,
00000000
01100000
00000000
00101000
,
00000000
01000000
00000000
00100000
,
00000000
10100000
00000000
00110000
,
00000000
01000000
01000000
01000000
,
00000000
11000000
00000000
01010000
,
00000000
00100000
00000000
00010000
,
00000000
01010000
00000000
00011000
,
00000000
00010000
00010000
00010000
,
00000000
01010000
00000000
01100000
,
00000000
00100000
00000000
00000100
,
00000000
00001100
00000000
00010100
,
00000000
00100000
00000100
00100000
,
00000000
00001100
00000000
00010100
,
00000000
00000010
00000000
00010000
,
00000000
00010010
00000000
00000000
,
00010000
00000010
00000100
00001000
,
00000010
00000000
00000000
00000000
;

//---------------dance-double - ----------------
#NOTES:
     dance-double:
     :
     Medium:
     6:
     0.331,0.491,0.479,0.000,0.000,165.000,43.000,0.000,0.000,0.000,0.000,0.331,0.491,0.479,0.000,0.000,165.000,43.000,0.000,0.000,0.000,0.000:
00000000
00000000
00000000
00000000
,
00000000
00000000
00000000
00000000
,
00000000
00000000
00000000
10010000
,
00000000
10000000
00010000
00000000
,
10100000
00110000
10010000
11000000
,
00101000
00000000
00000000
00010000
,
00001000
00010000
01000000
00010000
,
00000000
00100000
00000000
00100000
,
00010000
00100000
00000000
01000000
,
00000000
00000100
00100000
00000100
,
00000000
00000100
00000000
00100000
,
00000100
00100000
00000000
00000000
,
00101000
00001100
00110000
00010100
,
00000000
00000100
00000010
00010000
,
00000000
00000100
00000000
00001000
,
00010000
00001000
00000000
00000010
,
00000000
00001000
00000010
00001000
,
00000101
00001000
00000000
00000100
,
00000010
00000100
00000000
00000001
,
00000000
00000010
00000100
00000010
,
00000000
00001000
00000001
00001000
,
00000010
00010000
00000000
00000100
,
00000000
00001000
00000000
00000100
,
00000010
00001000
00000000
00000010
,
00000100
00010000
00001000
00000000
,
00000000
00100000
00010000
00000000
00100000
00010000
00000000
00000000
,
00000000
00000100
00010000
00000000
00000100
00010000
00000000
00000000
,
00000000
00100000
00000100
00000000
00100000
00000100
00000000
00000000
,
00100000
00011000
00100000
00011000
,
01001000
01000000
00010000
00000000
01000000
00010000
00000000
00000000
,
00000000
00001000
00010000
00000000
00001000
00010000
00000000
00000000
,
00000000
00001000
01000000
00000000
00001000
01000000
00000000
00000000
,
00110000
01001000
00110000
01001000
,
01100000
00010000
10000000
00000000
10000000
00010000
00000000
00000000
,
00000000
10000000
00010000
00000000
00010000
10000000
00000000
00000000
,
00000000
01000000
01000000
00000000
00100000
00100000
00000000
00000000
,
01100000
01100000
01100000
10010000
,
01001000
01001000
01001000
00000000
00110000
00110000
00000000
00000000
,
00000000
01010000
01010000
00000000
00101000
00101000
00000000
00000000
,
00000000
00011000
00011000
00000000
01100000
01100000
00000000
00000000
,
00010000
01000000
00010000
00001000
,
00010000
00100000
00000100
00000000
00100000
00000100
00000000
00000000
,
00000000
00010000
00001000
00000000
00010000
00001000
00000000
00000000
,
00000000
00100000
00100000
00000000
00000100
00000100
00000000
00000000
,
00100000
00100000
00100000
00011000
,
00001100
00000100
00000100
00000000
00001000
00001000
00000000
00000000
,
00000000
00010000
00010000
00000000
00000010
00000010
00000000
00000000
,
00000000
00000100
00001000
00000000
00010000
00000010
00000000
00000000
,
00010100
00000110
00010010
00011000
,
00010010
00000000
00000000
00000000
;

//---------------dance-double - ----------------
#NOTES:
     dance-double:
     :
     Hard:
     7:
     0.403,0.443,0.446,0.134,0.000,201.000,40.000,12.000,0.000,0.000,0.000,0.403,0.443,0.446,0.134,0.000,201.000,40.000,12.000,0.000,0.000,0.000:
00000000
00000000
00000000
00000000
,
00000000
00000000
00000000
00000000
,
00000000
00000000
00000000
10010000
,
00000000
10000000
00010000
00000000
10000000
00010000
00000000
00000000
,
10100000
10100000
01010000
00110000
,
00101000
00010000
00001000
00000000
00010000
00001000
00000000
00000000
,
00000000
00010000
01000000
00000000
00010000
01000000
00000000
00000000
,
00000000
01000000
00001000
00000000
01000000
00001000
00000000
00000000
,
00010000
01000000
00100000
00010000
,
00000100
00001000
00010000
00200000
00000000
00301000
00000000
00010000
,
00001000
00010000
00100000
00000200
00000000
00100300
00000000
00000100
,
00100000
00000000
00000100
00100000
00000000
00000100
00000000
00001000
,
00100000
00000000
00001100
00000000
00110000
00000000
00011000
00001000
,
00000100
00001000
00001000
00000020
00000000
00000130
00000000
00000100
,
00000100
00001000
00001000
00020000
00000000
00031000
00000000
00000010
,
00010000
00000000
00000010
00010000
00000000
00002000
00000000
00000020
,
00000000
00003030
00000000
00001000
,
00001001
00000000
00000000
00000000
00000000
00000010
00000100
00000010
,
00000000
00000010
00000000
00000010
00000000
00000010
00000000
00001001
,
00000000
00000000
00000000
00000000
00000000
00000100
00000010
00000001
,
00000000
00000001
00000010
00000100
00000000
00000001
00001000
00002002
,
00000000
00000000
00000000
00003003
00000000
00000100
00001000
00010000
,
00000000
00001000
00000000
00000100
00000000
00001100
00000000
00002020
,
00000000
00000000
00000000
00003030
,
00000100
00010000
00001000
00001000
00000000
00000100
00000000
00010000
,
00000000
00010000
00001000
00000000
00010000
00001000
00000000
00000000
,
00000000
00000100
00010000
00000000
00000100
00010000
00000000
00000000
,
00000000
00100000
00000100
00000000
00100000
00000100
00000000
00000000
,
00100000
00110000
00010100
00011000
,
00100000
00100000
00001000
00000000
00100000
00001000
00000000
00000000
,
00000000
00001000
00010000
00000000
00001000
00010000
00000000
00000000
,
00000000
00001000
01000000
00000000
00001000
01000000
00000000
00000000
,
00101000
01100000
00110000
01001000
,
01001000
00001000
01000000
00000000
01000000
00001000
00000000
00000000
,
00000000
10000000
00010000
00000000
00010000
10000000
00000000
00000000
,
00000000
01000000
00100000
00000000
00100000
01000000
00000000
00000000
,
10010000
01100000
01100000
10010000
,
10010000
00100000
10010000
00000000
01000000
01100000
00000000
00000000
,
00000000
00010000
01010000
00000000
00100000
00101000
00000000
00000000
,
00000000
00010000
00011000
00000000
00100000
01100000
00000000
00000000
,
00010000
00100000
01000000
00100000
00010000
00001000
00100000
00100000
,
00000000
01000000
00001000
00000000
01000000
00001000
00000000
00000000
,
00000000
00010000
00001000
00000000
00010000
00001000
00000000
00000000
,
00000000
00100000
00010000
00000000
00000100
00010000
00000000
00000000
,
00100000
00100000
00011000
00100000
,
00011000
00000100
00010000
00000000
00100000
00010000
00000000
00000000
,
00000000
00000100
00010000
00000000
00000100
00000010
00000000
00000000
,
00000000
00001000
00000100
00000000
00000010
00010000
00000000
00000000
,
00000110
00010100
00001010
00011000
,
00022000
00000000
00000000
00033000
;

//---------------dance-double - Mines Chart----------------
#NOTES:
     dance-double:
     Mines Chart:
     Challenge:
     7:
     0.372,0.388,0.390,0.134,0.000,187.000,35.000,12.000,336.000,0.000,0.000,0.372,0.388,0.390,0.134,0.000,187.000,35.000,12.000,336.000,0.000,0.000:
00000000
00000000
00000000
00000000
,
00000000
00000000
00000000
00000000
,
00000000
00000000
00000000
00000000
00000000
00000000
10010000
MMMMMMMM
,
00000000
10000000
00010000
00000000
10000000
00010000
00000000
MMMMMMMM
,
10100000
10100000
01010000
00110000
,
MMMMMMMM
00010000
00001000
00000000
00010000
00001000
00000000
MMMMMMMM
,
00000000
00010000
01000000
00000000
00010000
01000000
00000000
MMMMMMMM
,
00000000
01000000
00001000
00000000
01000000
00001000
00000000
MMMMMMMM
,
00010000
01000000
00100000
00010000
,
00000100
00001000
00010000
00200000
00000000
00301000
00000000
MMMMMMMM
,
00001000
00010000
00100000
00000200
00000000
00100300
00000000
MMMMMMMM
,
00100000
00000000
00000100
00100000
00000000
00000100
00000000
MMMMMMMM
,
00100000
00000000
00001100
00000000
00110000
00000000
00011000
MMMMMMMM
,
00000100
00001000
00001000
00000020
00000000
00000130
00000000
MMMMMMMM
,
00000100
00001000
00001000
00020000
00000000
00031000
00000000
MMMMMMMM
,
00010000
00000000
00000010
00010000
00000000
00002000
00000000
00000020
,
00000000
00003030
MMMMMMMM
00001000
,
00001001
00000000
00000000
MMMMMMMM
00000000
00000010
00000100
00000010
,
00000000
00000010
00000000
00000010
00000000
MMMMMMMM
00000000
00001001
,
00000000
00000000
MMMMMMMM
00000000
00000000
00000100
00000010
00000001
,
00000000
00000001
00000010
00000100
00000000
00000001
MMMMMMMM
00002002
,
00000000
00000000
00000000
00003003
00000000
00000100
00001000
00010000
,
00000000
00001000
00000000
00000100
00000000
MMMMMMMM
00000000
00002020
,
00000000
00000000
00000000
00003030
,
00000100
00010000
00001000
00001000
00000000
00000100
00000000
00010000
,
MMMMMMMM
00010000
00001000
00000000
00010000
00001000
00000000
MMMMMMMM
,
00000000
00000100
00010000
00000000
00000100
00010000
00000000
MMMMMMMM
,
00000000
00100000
00000100
00000000
00100000
00000100
00000000
MMMMMMMM
,
00100000
00110000
00010100
00011000
,
MMMMMMMM
00100000
00001000
00000000
00100000
00001000
00000000
MMMMMMMM
,
00000000
00001000
00010000
00000000
00001000
00010000
00000000
MMMMMMMM
,
00000000
00001000
01000000
00000000
00001000
01000000
00000000
MMMMMMMM
,
00101000
01100000
00110000
01001000
,
MMMMMMMM
00001000
01000000
00000000
01000000
00001000
00000000
MMMMMMMM
,
00000000
10000000
00010000
00000000
00010000
10000000
00000000
MMMMMMMM
,
00000000
01000000
00100000
00000000
00100000
01000000
00000000
MMMMMMMM
,
10010000
01100000
01100000
10010000
,
MMMMMMMM
00100000
10010000
00000000
01000000
01100000
00000000
MMMMMMMM
,
00000000
00010000
01010000
00000000
00100000
00101000
00000000
MMMMMMMM
,
00000000
00010000
00011000
00000000
00100000
01100000
00000000
MMMMMMMM
,
00010000
00100000
01000000
00100000
00010000
00001000
00100000
00100000
,
MMMMMMMM
01000000
00001000
00000000
01000000
00001000
00000000
MMMMMMMM
,
00000000
00010000
00001000
00000000
00010000
00001000
00000000
MMMMMMMM
,
00000000
00100000
00010000
00000000
00000100
00010000
00000000
MMMMMMMM
,
00100000
00100000
00011000
00100000
,
MMMMMMMM
00000100
00010000
00000000
00100000
00010000
00000000
MMMMMMMM
,
00000000
00000100
00010000
00000000
00000100
00000010
00000000
MMMMMMMM
,
00000000
00001000
00000100
00000000
00000010
00010000
00000000
MMMMMMMM
,
00000110
00010100
00001010
00011000
,
00022000
00000000
00000000
00033000
;
