#TITLE:Chain of Spirits;
#SUBTITLE:(Shaman King Power of Spirit Theme);
#ARTIST:KONAMI;
#TITLETRANSLIT:;
#SUBTITLETRANSLIT:;
#ARTISTTRANSLIT:;
#GENRE:;
#CREDIT:KONAMI, artist not found;
#BANNER:Chain of Spirits (Shaman King Power of Spirit Theme).png;
#BACKGROUND:Chain of Spirits (Shaman King Power of Spirit Theme)-bg.png;
#LYRICSPATH:;
#CDTITLE:;
#MUSIC:Chain of Spirits (Shaman King Power of Spirit Theme).ogg;
#OFFSET:-0.040;
#SAMPLESTART:41.633;
#SAMPLELENGTH:12.000;
#SELECTABLE:YES;
#BPMS:0.000=141.002;
#STOPS:;
#TIMESIGNATURES:0.000=4=4
;
#BGCHANGES:0.000=Chain of Spirits (Shaman King Power of Spirit Theme).avi=1.000=0=0=0=StretchNoLoop====,
99999=-nosongbg-=1.000=0=0=0 // don't automatically add -songbackground-
;
#KEYSOUNDS:;

//---------------dance-single - G. Ramos----------------
#NOTES:
     dance-single:
     G. Ramos:
     Beginner:
     1:
     0.122,0.159,0.056,0.000,0.000,57.000,4.000,0.000,0.000,0.000,0.000,0.122,0.159,0.056,0.000,0.000,57.000,4.000,0.000,0.000,0.000,0.000:
0000
0000
0000
0000
,
0000
0000
0000
0000
,
0000
0000
0000
0000
,
0000
0000
0000
0000
,
0000
0000
0000
0000
,
0000
1000
0000
0001
,
0000
1000
0000
0001
,
0000
1000
0000
0010
,
0010
0000
0000
0000
,
0100
0000
0000
0000
,
0001
0000
1000
0000
,
0100
0000
0000
0000
,
1000
0000
0001
0000
,
0010
0000
0000
0000
,
0100
0000
0000
0000
,
1000
0000
0000
0000
,
0001
0001
0001
0000
,
0100
0000
0000
0000
,
0001
0000
0000
0000
,
0100
0000
0000
0000
,
1000
0000
0000
0000
,
0010
0000
0001
0000
,
0100
0000
1000
0000
,
1001
0000
0000
0000
,
0110
0000
1000
1000
,
0000
0100
0100
0000
,
0001
0000
0001
0001
,
0000
0100
0100
0000
,
1000
0000
1000
0000
,
0000
0100
0100
0000
,
0010
0000
0100
0000
,
0001
0000
0000
0000
,
1000
0000
0001
0000
,
0010
0000
0100
0000
,
1001
0000
0000
0000
,
0000
0001
0000
1000
,
0000
0001
0000
1000
,
1000
0000
0010
0000
,
1001
0000
0000
0000
;

//---------------dance-single - G. Ramos----------------
#NOTES:
     dance-single:
     G. Ramos:
     Easy:
     3:
     0.197,0.225,0.112,0.098,0.000,84.000,8.000,7.000,0.000,0.000,0.000,0.197,0.225,0.112,0.098,0.000,84.000,8.000,7.000,0.000,0.000,0.000:
0000
0000
0000
0000
,
0000
0000
0000
0000
,
0000
0000
0000
0000
,
0000
0000
0000
0000
,
0000
0000
0000
0000
,
0001
0001
0000
0000
,
1000
1000
0000
0000
,
0001
1000
0000
1000
,
0002
0000
0000
0003
,
0001
0000
1000
0000
,
0001
0000
1000
0000
,
1000
0000
0001
0000
,
1000
0000
0001
0000
,
1000
0000
0010
0000
,
0100
0000
0010
0000
,
0001
0000
0010
0000
,
0100
0000
0010
0000
,
1000
0100
1000
0000
,
0001
0100
0001
0000
,
1000
0100
1000
0000
,
0001
0100
0001
0000
,
1000
0000
0100
0000
,
0001
0000
0010
0010
,
0020
0000
0030
0100
,
0200
0000
0000
0300
,
1001
1000
0100
0000
,
0110
0010
0100
0000
,
1001
0001
0100
0000
,
0110
0100
0010
0000
,
1001
0100
0100
0000
,
1001
0010
0010
0000
,
0100
0100
0100
0100
,
0001
0001
1000
1000
,
0010
0010
0100
0010
,
2002
0000
0000
3003
,
1000
1000
0000
0000
,
0001
0001
0000
0000
,
0010
0001
0100
1000
,
2002
0000
0000
0000
,
0000
0000
0000
0000
,
0000
3003
0000
0000
;

//---------------dance-single - G. Ramos----------------
#NOTES:
     dance-single:
     G. Ramos:
     Medium:
     5:
     0.335,0.393,0.419,0.195,0.007,124.000,30.000,14.000,0.000,0.000,0.000,0.335,0.393,0.419,0.195,0.007,124.000,30.000,14.000,0.000,0.000,0.000:
0000
0000
0000
0000
,
0000
0000
0000
0000
,
0000
0000
0000
0000
,
0000
0000
0000
0000
,
0000
0000
0000
0000
,
1000
1100
0001
0101
,
1000
1100
0001
0101
,
1001
1000
1001
0001
,
2002
0000
0000
3003
,
1000
1000
0010
0010
,
0001
0001
0100
0100
,
1000
0010
0001
0100
,
0001
0010
1000
0100
,
1000
1000
0001
1000
,
0001
0001
1000
0001
,
0010
0010
0100
0010
,
1100
0101
1100
0000
,
2000
0010
0010
0010
,
3002
0010
2003
0100
,
3002
1000
1000
1003
,
0011
0000
1010
0000
0011
0000
0000
0100
,
0010
0000
1000
0001
0000
0101
0000
1100
,
0000
0000
1001
0000
0010
0000
0100
0002
,
0000
0000
0000
0000
0000
1003
0001
0020
,
0000
0000
0130
1001
,
1000
0001
0100
0000
1000
0000
1000
0000
,
0101
1100
1001
0000
,
0001
1000
0100
0000
0001
0000
0001
0000
,
1100
0101
1001
0000
,
0010
0100
0010
0000
0100
0000
0100
0000
,
0001
0000
0001
0000
1000
0000
1000
0002
,
0000
0000
0100
0000
0100
0000
0100
2003
,
0000
0100
0002
3003
,
0010
0000
0000
0010
0000
0000
0010
0000
0000
0000
0100
0000
0000
0000
0200
0000
,
0000
0000
0000
0300
,
1000
1010
0001
0011
,
1000
1010
0001
0011
,
1001
0001
1001
1000
,
2002
0000
0000
0000
,
0000
0000
0000
0000
,
0000
3003
0000
0000
;

//---------------dance-single - G. Ramos----------------
#NOTES:
     dance-single:
     G. Ramos:
     Hard:
     7:
     0.429,0.449,0.181,0.642,0.028,156.000,13.000,46.000,0.000,0.000,0.000,0.429,0.449,0.181,0.642,0.028,156.000,13.000,46.000,0.000,0.000,0.000:
0000
0000
0000
0000
,
0000
0000
0000
0000
,
0000
0000
0000
0000
,
0000
0000
0000
0000
,
0000
0000
0000
0000
1000
0100
1000
0002
,
0000
0000
1003
0000
0001
0100
0001
2000
,
0000
0001
3001
0000
0010
0100
0001
2000
,
0000
3010
0100
0002
0000
1000
1000
2000
,
0000
0000
0000
0000
0000
0000
3003
0000
0100
0000
0010
0000
0000
0100
0000
0000
,
1000
0000
0000
0001
0000
0000
0200
0000
0000
0000
0310
0000
0000
0000
1100
0000
,
0000
0101
0000
1001
0000
0000
0100
0020
,
0000
1000
0000
0100
0000
0031
0000
0101
,
0000
1100
0000
2002
0000
0000
3003
0000
,
2000
0001
0000
0010
0000
3100
0000
1001
,
0000
1010
0000
2200
0000
0000
3300
0000
,
1000
0010
0000
0200
0000
0302
0000
0023
,
0000
0130
2000
0000
0002
0000
3003
0000
,
1000
0020
0000
0100
0000
1030
0100
0010
,
0002
0000
1000
2003
0000
0010
0000
0000
,
3010
0000
0002
0100
0000
1000
0000
0023
,
0000
0000
0100
0100
0000
0031
0000
1000
,
0001
0000
0100
0010
0000
0110
0000
1001
,
0000
0010
0100
0000
0002
0000
1003
0200
,
0000
0000
0000
0000
0000
1300
0001
0020
,
0000
0000
0000
0000
0130
0000
2000
0001
,
0000
3001
0010
0001
0200
0000
0301
1000
,
0002
0000
0013
0001
0100
0000
2000
0001
,
0000
3001
1000
0010
0200
0000
0310
1000
,
0002
0000
1003
0010
0100
0000
0002
1000
,
0000
1003
0001
1000
0002
0000
0103
1000
,
0020
0000
0100
0230
0000
0001
0301
2000
,
0000
0200
0000
3300
0000
0001
1000
0002
,
0000
0000
2000
3003
,
0010
0000
0000
0001
0000
0000
0100
0000
0000
0000
1000
0000
0000
0000
2002
0000
,
0000
0000
3003
0000
0001
0100
0001
2000
,
0000
0000
3001
0000
1000
0100
1000
0002
,
0000
1000
1003
0000
0010
0100
1000
0002
,
0000
0000
0013
0000
0100
0000
1000
0000
0001
0000
0000
1000
0000
0000
2002
0000
,
0000
0000
0000
0000
,
0000
0000
0000
0000
,
0000
3003
0000
0000
;

//---------------dance-double - G. Ramos----------------
#NOTES:
     dance-double:
     G. Ramos:
     Medium:
     5:
     0.335,0.393,0.419,0.195,0.007,124.000,30.000,14.000,0.000,0.000,0.000,0.335,0.393,0.419,0.195,0.007,124.000,30.000,14.000,0.000,0.000,0.000:
00000000
00000000
00000000
00000000
,
00000000
00000000
00000000
00000000
,
00000000
00000000
00000000
00000000
,
00000000
00000000
00000000
00000000
,
00000000
00000000
00000000
00000000
,
10000000
11000000
00010000
01010000
,
10000000
11000000
00010000
01010000
,
10010000
10000000
10010000
00010000
,
02002000
00000000
00000000
03003000
,
01000000
01000000
00010000
00010000
,
00001000
00001000
00100000
00100000
,
01000000
00010000
00001000
00100000
,
00000100
00001000
00100000
00010000
,
00100000
00100000
00000100
00100000
,
00000100
00000100
00100000
00000100
,
00001000
00001000
00010000
00001000
,
00011000
00001010
00011000
00000000
,
00020000
00000100
00000100
00000100
,
00030020
00000100
00020030
00001000
,
00030020
00010000
00010000
00010030
,
00000011
00000000
00001010
00000000
00000011
00000000
00000000
00000100
,
00000010
00000000
00001000
00000001
00000000
00000101
00000000
00001100
,
00000000
00000000
00001001
00000000
00000010
00000000
00000100
00000002
,
00000000
00000000
00000000
00000000
00000000
00001003
00000001
00000020
,
00000000
00000000
00000130
00001001
,
00010000
00000010
00001000
00000000
00010000
00000000
00010000
00000000
,
00001010
00011000
00010010
00000000
,
00000010
00010000
00001000
00000000
00000010
00000000
00000010
00000000
,
00011000
00001010
00010010
00000000
,
00001000
00010000
00001000
00000000
00010000
00000000
00010000
00000000
,
00000100
00000000
00000100
00000000
00100000
00000000
00100000
00000200
,
00000000
00000000
00010000
00000000
00010000
00000000
00010000
00200300
,
00000000
00010000
00000200
00300300
,
00010000
00000000
00000000
00010000
00000000
00000000
00010000
00000000
00000000
00000000
00100000
00000000
00000000
00000000
00200000
00000000
,
00000000
00000000
00000000
00300000
,
01000000
01010000
00001000
00011000
,
01000000
01010000
00001000
00011000
,
01001000
00001000
01001000
01000000
,
20020000
00000000
00000000
00000000
,
00000000
00000000
00000000
00000000
,
00000000
30030000
00000000
00000000
;

//---------------dance-double - G. Ramos----------------
#NOTES:
     dance-double:
     G. Ramos:
     Hard:
     7:
     0.427,0.449,0.167,0.642,0.028,156.000,12.000,46.000,0.000,0.000,0.000,0.427,0.449,0.167,0.642,0.028,156.000,12.000,46.000,0.000,0.000,0.000:
00000000
00000000
00000000
00000000
,
00000000
00000000
00000000
00000000
,
00000000
00000000
00000000
00000000
,
00000000
00000000
00000000
00000000
,
00000000
00000000
00000000
00000000
10000000
01000000
10000000
00020000
,
00000000
00000000
10030000
00000000
00010000
01000000
00010000
20000000
,
00000000
00010000
30010000
00000000
00100000
01000000
00010000
20000000
,
00000000
30100000
01000000
00020000
00000000
10000000
10000000
20000000
,
00000000
00000000
00000000
00000000
00000000
00000000
30030000
00000000
00100000
00000000
00010000
00000000
00000000
00100000
00000000
00000000
,
01000000
00000000
00000000
00001000
00000000
00000000
00200000
00000000
00000000
00000000
00310000
00000000
00000000
00000000
01100000
00000000
,
00000000
00101000
00000000
01001000
00000000
00000000
00100000
00020000
,
00000000
01000000
00000000
00100000
00000000
00031000
00000000
00101000
,
00000000
00110000
00000000
00200200
00000000
00000000
00300300
00000000
,
00200000
00000100
00000000
00001000
00000000
00310000
00000000
00100000
,
00000000
00101000
00000000
00220000
00000000
00000000
00330000
00000000
,
00100000
00001000
00000000
00020000
00000000
00030200
00000000
00002300
,
00000000
00013000
00200000
00000000
00000200
00000000
00300300
00000000
,
00010000
00000200
00000000
00001000
00000000
00010300
00001000
00000100
,
00000020
00000000
00010000
00020030
00000000
00000100
00000000
00000000
,
00030100
00000000
00000020
00001000
00000000
00010000
00000000
00000230
,
00000000
00000000
00001000
00001000
00000000
00000310
00000000
00010000
,
00000001
00000000
00000100
00000010
00000000
00000110
00000000
00001001
,
00000000
00000010
00000100
00000000
00000002
00000000
00001003
00000200
,
00000000
00000000
00000000
00000000
00000000
00001300
00000001
00000020
,
00000000
00000000
00000000
00000000
00000130
00000000
00002000
00000001
,
00000000
00003001
00000010
00000001
00000200
00000000
00000301
00001000
,
00000020
00000000
00000130
00000010
00001000
00000000
00020000
00000010
,
00000000
00030010
00010000
00000100
00002000
00000000
00003100
00010000
,
00000020
00000000
00010030
00000100
00001000
00000000
00000020
00010000
,
00000000
00010030
00000010
00010000
00000020
00000000
00001030
00010000
,
00002000
00000000
00010000
00023000
00000000
00000100
00030100
00200000
,
00000000
00020000
00000000
00330000
00000000
00000100
00100000
00000200
,
00000000
00000000
00200000
00300300
,
00001000
00000000
00000000
00000100
00000000
00000000
00010000
00000000
00000000
00000000
00100000
00000000
00000000
00000000
00200200
00000000
,
00000000
00000000
00300300
00000000
00001000
00100000
00001000
02000000
,
00000000
00000000
03001000
00000000
01000000
00100000
01000000
00002000
,
00000000
01000000
01003000
00000000
00010000
00100000
01000000
00002000
,
00000000
00000000
00013000
00000000
00100000
00000000
01000000
00000000
00001000
00000000
00000000
01000000
00000000
00000000
02002000
00000000
,
00000000
00000000
00000000
00000000
,
00000000
00000000
00000000
00000000
,
00000000
03003000
00000000
00000000
;

//---------------dance-double - G. Ramos----------------
#NOTES:
     dance-double:
     G. Ramos:
     Easy:
     3:
     0.255,0.225,0.042,0.307,0.000,103.000,3.000,22.000,0.000,0.000,0.000,0.255,0.225,0.042,0.307,0.000,103.000,3.000,22.000,0.000,0.000,0.000: // measure 1
00000000
00000000
00000000
00000000
,  // measure 2
00000000
00000000
00000000
00000000
,  // measure 3
00000000
00000000
00000000
00000000
,  // measure 4
00000000
00000000
00000000
00000000
,  // measure 5
00000000
00000000
00000000
00000000
,  // measure 6
00000001
00000001
00001000
00000000
,  // measure 7
00001000
00001000
00000001
00000000
,  // measure 8
00000010
00000010
00000100
00000100
,  // measure 9
00000020
00000000
00000000
00000030
,  // measure 10
00001000
00001000
00002000
00003000
,  // measure 11
00000100
00000100
00000200
00000300
,  // measure 12
00010000
00010000
00020000
00030000
,  // measure 13
01000000
01000000
02000000
03000000
,  // measure 14
10000000
00100000
02000000
03000000
,  // measure 15
00010000
00100000
02000000
03000000
,  // measure 16
10000000
00010000
00200000
00300000
,  // measure 17
00010000
10000000
00200000
00300000
,  // measure 18
10000000
10000000
01000000
01000000
,  // measure 19
00010000
00010000
00001000
00000000
,  // measure 20
00000001
00000001
00000100
00000100
,  // measure 21
00001000
00001000
00010000
00000000
,  // measure 22
00100000
00010000
01000000
10000000
,  // measure 23
00010000
00010000
10000000
10000000
,  // measure 24
00200000
00000000
00020000
00330000
,  // measure 25
00022000
00000000
00000000
00033000
,  // measure 26
00010000
00001000
00010000
00010000
,  // measure 27
00001000
00001000
00020000
00030000
,  // measure 28
00001000
00010000
00001000
00001000
,  // measure 29
00010000
00010000
00002000
00003000
,  // measure 30
00000100
00001000
00000001
00000001
,  // measure 31
00000100
00000001
00001000
00001000
,  // measure 32
00000020
00001000
00000000
00000130
,  // measure 33
00000002
00000000
00002000
00003003
,  // measure 34
00001000
00010000
00100000
01000000
,  // measure 35
20020000
00000000
00000000
30030000
,  // measure 36
10000000
10000000
01000000
00000000
,  // measure 37
00010000
00010000
01000000
00000000
,  // measure 38
00010000
00001000
00010000
00001000
,  // measure 39
00022000
00000000
00000000
00000000
,  // measure 40
00000000
00000000
00000000
00000000
,  // measure 41
00000000
00033000
00000000
00000000
;
