#TITLE:Angels With Burning Hearts;
#SUBTITLE:(Burning Rangers Theme);
#ARTIST:Naofumi Hataya feat. Dennis St. James;
#TITLETRANSLIT:;
#SUBTITLETRANSLIT:;
#ARTISTTRANSLIT:;
#GENRE:;
#CREDIT:;
#BANNER:Angels With Burning Hearts (Burning Rangers Theme).png;
#BACKGROUND:Angels With Burning Hearts (Burning Rangers Theme)-bg.png;
#LYRICSPATH:;
#CDTITLE:;
#MUSIC:Angels With Burning Hearts (Burning Rangers Theme).ogg;
#OFFSET:0.000;
#SAMPLESTART:50.200;
#SAMPLELENGTH:12.000;
#SELECTABLE:YES;
#BPMS:0.000=155.130;
#STOPS:;
#TIMESIGNATURES:0.000=4=4
;
#BGCHANGES:;
#KEYSOUNDS:;

//---------------dance-single - Gabe (Zenius-I-vanisher.com)----------------
#NOTES:
     dance-single:
     Gabe (Zenius-I-vanisher.com):
     Beginner:
     1:
     0.148,0.189,0.009,0.000,0.000,109.000,1.000,0.000,0.000,0.000,0.000,0.148,0.189,0.009,0.000,0.000,109.000,1.000,0.000,0.000,0.000,0.000:
0000
0000
0000
0000
,
0010
0000
0000
0000
,
0000
0000
0000
0000
,
0010
0000
0000
0000
,
0000
0000
0000
0000
,
0010
0000
0000
0000
,
0000
0000
0000
0000
,
0010
0000
0000
0000
,
1000
0000
0001
0000
,
0100
0000
0000
0000
,
0100
0000
0000
0000
,
0100
0000
0000
0000
,
0100
0000
0000
0000
,
1000
0000
0000
0000
,
0001
0000
0000
0000
,
1000
0000
0000
0000
,
0001
0000
0000
0000
,
0000
1000
0000
0001
,
0000
1000
0000
0001
,
0000
1000
0000
0001
,
0000
1000
0000
0001
,
0000
0100
0000
0010
,
0000
0100
0000
0010
,
0000
0100
0000
0010
,
0000
0100
0000
0010
,
0010
0000
0000
0000
,
0001
0000
0000
0000
,
0100
0000
0000
0000
,
1000
0000
0000
0000
,
0010
0000
0000
0000
,
0000
0000
0000
0000
,
0100
0000
0100
0000
,
1000
0000
1000
0000
,
0000
0100
0100
0000
,
0010
0010
0010
0000
,
0000
1000
1000
0000
,
0001
0001
0001
0000
,
0000
1000
1000
0000
,
0000
0001
0001
0000
,
0010
0000
0100
0000
,
1001
0000
0000
0000
,
0000
0000
0000
0000
,
0000
0010
0000
0000
,
0000
0100
0000
0000
,
0000
0010
0000
0000
,
0000
0100
0000
0000
,
0001
0000
0001
0000
,
1000
0000
1000
0000
,
0010
0000
0010
0000
,
0100
0100
0100
0100
,
0000
0010
0010
0000
,
0100
0100
0100
0000
,
0000
0001
0001
0000
,
1000
1000
1000
0000
,
0000
1000
0000
0100
,
0000
0010
0000
0001
,
0001
0000
0000
0000
,
1000
1000
1000
0000
,
0000
0010
0010
0000
,
0001
0001
0001
0000
,
0000
0100
0100
0000
,
1000
1000
1000
0000
,
0000
0001
0001
0000
,
0000
1000
1000
0000
,
0010
0000
0100
0000
,
1000
0000
0100
0000
,
0001
0000
0010
0010
;

//---------------dance-single - Gabe (Zenius-I-vanisher.com)----------------
#NOTES:
     dance-single:
     Gabe (Zenius-I-vanisher.com):
     Easy:
     4:
     0.235,0.252,0.085,0.151,0.000,149.000,9.000,16.000,0.000,0.000,0.000,0.235,0.252,0.085,0.151,0.000,149.000,9.000,16.000,0.000,0.000,0.000: // measure 1
0000
0000
0000
0000
,  // measure 2
0020
0000
0000
0000
,  // measure 3
0030
0000
0100
0100
,  // measure 4
0200
0000
0000
0000
,  // measure 5
0300
0000
0000
1000
,  // measure 6
2000
0000
0000
0000
,  // measure 7
3000
0000
0001
0001
,  // measure 8
0002
0000
0100
0003
,  // measure 9
0200
0000
0010
0000
,  // measure 10
0320
0000
0000
0000
,  // measure 11
0000
0000
1000
1000
,  // measure 12
2030
0000
0000
0000
,  // measure 13
0000
0000
0001
0001
,  // measure 14
3002
0000
0000
0000
,  // measure 15
0203
0000
0000
0000
,  // measure 16
0320
0000
0000
0000
,  // measure 17
0000
0000
0000
0030
,  // measure 18
1000
1000
0100
0100
,  // measure 19
1000
1000
0000
0000
,  // measure 20
0001
0001
0100
0100
,  // measure 21
0001
0001
0000
0000
,  // measure 22
1000
1000
0001
0001
,  // measure 23
1000
0001
1000
0010
,  // measure 24
0200
0000
0000
0300
,  // measure 25
0000
0000
0100
0100
,  // measure 26
0010
0001
0100
0000
,  // measure 27
0010
1000
0100
0000
,  // measure 28
0010
0001
0100
0001
,  // measure 29
0010
1000
0100
0000
,  // measure 30
2000
0000
0000
3000
,  // measure 31
0002
0000
0000
0003
,  // measure 32
0001
0001
1000
1000
,  // measure 33
0110
0110
1001
0000
,  // measure 34
0000
1000
0100
0000
,  // measure 35
0010
0001
0100
0000
,  // measure 36
0000
0001
0100
0000
,  // measure 37
0010
1000
0100
0000
,  // measure 38
0000
1000
0001
0000
,  // measure 39
0000
0001
1000
0000
,  // measure 40
0010
0000
0100
0000
,  // measure 41
0020
0000
0000
0000
,  // measure 42
0000
0000
0100
0100
,  // measure 43
0130
0000
0110
0000
,  // measure 44
1000
0100
1000
0000
,  // measure 45
0110
0000
1001
0000
,  // measure 46
0001
0100
0001
0000
,  // measure 47
0011
0000
1010
0000
,  // measure 48
0001
0010
1000
0000
,  // measure 49
1000
0001
0001
0000
,  // measure 50
0010
0010
0100
0100
,  // measure 51
0000
0001
1000
0000
,  // measure 52
1000
0010
0001
0000
,  // measure 53
0000
1000
0001
0000
,  // measure 54
0001
0010
1000
0000
,  // measure 55
1000
0000
0100
0000
,  // measure 56
0001
0000
0100
0000
,  // measure 57
2002
0000
0000
3003
,  // measure 58
0010
0010
0010
0000
,  // measure 59
0000
0001
0100
0000
,  // measure 60
1000
0100
0001
0000
,  // measure 61
0000
1000
0100
0000
,  // measure 62
0001
0100
1000
0000
,  // measure 63
0000
1000
1000
1000
,  // measure 64
0001
0010
0100
0000
,  // measure 65
0001
0000
0100
0000
,  // measure 66
0010
0000
0000
0010
0000
0000
0001
0000
,  // measure 67
0000
0001
0000
0000
1000
0000
0100
0000
;

//---------------dance-single - Gabe (Zenius-I-vanisher.com)----------------
#NOTES:
     dance-single:
     Gabe (Zenius-I-vanisher.com):
     Medium:
     6:
     0.364,0.413,0.170,0.246,0.000,226.000,18.000,26.000,0.000,0.000,0.000,0.364,0.413,0.170,0.246,0.000,226.000,18.000,26.000,0.000,0.000,0.000: // measure 1
0000
0000
0000
0000
,  // measure 2
2000
0000
0000
0000
,  // measure 3
3000
0100
0100
0100
,  // measure 4
0002
0000
0000
0000
,  // measure 5
0003
0010
0010
0010
,  // measure 6
2000
0000
0000
0000
,  // measure 7
3000
0010
0001
0100
,  // measure 8
0002
0000
1000
0003
,  // measure 9
1001
0000
0000
0110
0000
0000
1001
0000
,  // measure 10
0020
0000
0000
0000
0000
0000
0000
0230
,  // measure 11
0000
0000
0000
0300
,  // measure 12
0002
0000
0000
0000
0000
0000
0000
0023
,  // measure 13
0000
0000
0000
0030
,  // measure 14
2000
0000
0000
0000
0000
0000
0000
3020
,  // measure 15
0000
0000
0000
0000
,  // measure 16
0200
0000
0000
0330
,  // measure 17
0000
0000
0000
0000
0000
0001
0100
0000
,  // measure 18
1000
0001
0100
0010
,  // measure 19
1000
0000
0001
0000
0000
0001
1000
0000
,  // measure 20
0010
0100
0001
1000
,  // measure 21
0010
0000
0100
0000
0000
0001
0100
0001
,  // measure 22
0000
0001
1000
0100
,  // measure 23
1000
0010
0010
0100
,  // measure 24
0002
0100
0010
0010
,  // measure 25
0010
0100
1003
0001
,  // measure 26
1000
0100
0010
0000
0100
0000
0100
0000
,  // measure 27
0010
0010
0001
0001
,  // measure 28
1000
0100
0001
0000
0100
0000
0100
0000
,  // measure 29
0010
0000
0010
0000
0001
0000
0001
2000
,  // measure 30
0000
0000
0000
0000
0000
0010
0000
3002
,  // measure 31
0000
0000
0000
0103
,  // measure 32
0001
0100
0001
0000
0010
0000
0010
0000
,  // measure 33
1000
0100
1000
0000
0110
0000
0010
0100
,  // measure 34
0000
0001
0100
0001
,  // measure 35
1000
0000
0001
0000
0101
0000
0001
0100
,  // measure 36
0000
1000
0100
1000
,  // measure 37
0001
0000
1000
0000
1100
0000
1000
0100
,  // measure 38
0000
0100
0100
0100
,  // measure 39
0010
0000
0010
0000
0010
0000
0000
0001
,  // measure 40
1000
0001
0000
1000
0001
1000
0001
2000
,  // measure 41
0000
0000
0000
0000
,  // measure 42
0000
0000
0000
3001
,  // measure 43
0101
1000
1000
1000
,  // measure 44
1100
0001
0001
0001
,  // measure 45
1000
0001
1000
0001
,  // measure 46
1100
0101
1001
0000
,  // measure 47
0011
1000
1000
1000
,  // measure 48
1010
0001
0001
0001
,  // measure 49
0010
0000
0001
1000
0001
0100
0000
0101
,  // measure 50
0000
1100
0000
0110
0000
0000
0001
0100
,  // measure 51
0000
0100
0001
0000
1000
0000
0010
0000
,  // measure 52
0001
0000
0010
0000
1000
0000
1000
0100
,  // measure 53
0000
0100
1000
0000
0001
0000
0010
0000
,  // measure 54
1000
0000
0010
0000
0001
0000
0001
0100
,  // measure 55
0000
0100
0001
0000
0010
0000
0010
0000
,  // measure 56
0100
0100
0010
0110
,  // measure 57
2002
0000
0000
0003
,  // measure 58
0001
0000
0001
0000
3001
0000
0010
0100
,  // measure 59
0000
0100
0010
0000
1000
0000
0100
0000
,  // measure 60
0001
0000
0100
0000
1000
0000
0100
0010
,  // measure 61
0000
0010
0100
0000
0001
0000
0010
0000
,  // measure 62
1000
0000
0010
0000
0001
0000
0001
1000
,  // measure 63
0000
1000
0001
0000
1000
0000
1000
0020
,  // measure 64
0000
0230
0000
0302
0000
0000
0000
1000
,  // measure 65
1003
1000
0000
0100
0010
0100
0010
0000
,  // measure 66
0020
0000
0000
2030
0000
0000
3002
0000
,  // measure 67
0000
0203
0000
0000
0320
0000
0130
0002
,  // measure 68
0000
0003
0000
0000
;

//---------------dance-single - Gabe (Zenius-I-vanisher.com)----------------
#NOTES:
     dance-single:
     Gabe (Zenius-I-vanisher.com):
     Hard:
     8:
     0.600,0.635,0.595,0.661,0.090,312.000,63.000,70.000,0.000,0.000,0.000,0.600,0.635,0.595,0.661,0.090,312.000,63.000,70.000,0.000,0.000,0.000: // measure 1
0000
0000
0000
0000
0000
0000
0000
2000
,  // measure 2
0000
0000
3001
0000
0100
0001
0100
0001
,  // measure 3
0000
0000
0010
0000
1000
0010
0100
0001
,  // measure 4
1000
0000
1000
0000
0001
1000
0010
1000
,  // measure 5
0000
1000
0001
0000
1100
0000
0101
0000
,  // measure 6
0002
0000
1003
0000
0100
1000
0100
1000
,  // measure 7
0000
0000
0010
0000
0001
0010
0100
1000
,  // measure 8
0001
0010
0001
0000
1000
0010
0100
0010
,  // measure 9
2200
0000
3300
0202
0000
0303
0110
0000
,  // measure 10
2002
0000
0000
0000
0000
0000
0003
0200
,  // measure 11
0000
0000
0000
3300
,  // measure 12
2002
0000
0000
0000
0000
0000
3000
0200
,  // measure 13
0000
0000
0000
0303
,  // measure 14
2002
0000
0000
0000
0000
0000
0003
0020
,  // measure 15
0000
0000
0000
3000
,  // measure 16
0200
0000
0000
0000
,  // measure 17
0000
0000
0000
0000
0330
1000
0010
0100
,  // measure 18
0000
0001
0000
0001
0000
0000
1000
0001
,  // measure 19
0000
0001
1000
0000
0000
1000
0010
0100
,  // measure 20
0010
0010
1000
0100
0010
0010
0001
0200
,  // measure 21
0000
0000
0301
0000
0010
0001
0100
0001
,  // measure 22
0000
0001
1000
0010
0000
0110
0000
1001
,  // measure 23
0000
0010
0100
0001
1000
0001
1000
0020
,  // measure 24
0000
0100
0100
0130
0010
0100
0000
0101
,  // measure 25
0000
0011
0000
0001
1000
0010
0100
0001
,  // measure 26
1000
0010
1000
0100
0000
1100
0000
1020
,  // measure 27
0000
0000
0130
0000
1000
0001
0100
0001
,  // measure 28
1001
0000
0110
0000
1001
0000
0001
2000
,  // measure 29
0000
0000
0010
0000
3000
0010
1000
0200
,  // measure 30
0000
0000
0000
0000
0000
0310
0001
0200
,  // measure 31
0000
0000
0000
0000
0300
0000
0110
0100
,  // measure 32
0001
1000
0001
1000
0010
0100
0010
0100
,  // measure 33
0101
0001
0011
0100
0110
0000
0100
0100
,  // measure 34
0000
0100
0010
0001
1000
0100
0000
1100
,  // measure 35
0000
1010
0000
0011
0110
0000
0100
0100
,  // measure 36
0000
0100
0000
0010
1000
0001
0000
0101
,  // measure 37
0000
0011
0000
1010
0110
0000
0100
0100
,  // measure 38
0000
0100
0001
0000
1000
0100
0000
0202
,  // measure 39
0303
2020
3030
2002
0000
0000
3003
0010
,  // measure 40
1000
0100
0000
0010
0001
0100
0002
2000
,  // measure 41
0000
0000
0000
3003
,  // measure 42
0010
0000
0000
0000
0100
0000
0000
0000
0010
0000
1000
0001
1000
0001
1000
0000
,  // measure 43
0020
0000
0000
0000
0000
0000
0000
0000
0000
0000
0000
0000
0000
0000
0000
0000
0000
0000
1000
0000
0000
0000
0000
0000
0000
0000
0000
1000
0000
0000
0000
0000
0000
0000
0000
0000
1030
0000
0000
0000
0000
0000
0001
0000
0000
0000
0100
0000
,  // measure 44
0000
0000
0001
0000
0000
0000
0100
0000
0000
0000
0000
0000
0000
0000
0000
0020
0000
0000
0000
0000
0000
0200
0000
0000
0000
0000
0000
0000
0000
0000
0000
0000
0000
0000
0000
0000
0330
0000
0000
0000
0000
0000
0000
0000
0000
0000
0000
0000
,  // measure 45
0110
0000
1001
0000
0110
0000
1001
0020
,  // measure 46
0000
0200
0330
0000
1000
0100
1000
0001
,  // measure 47
0200
0000
0000
0000
0000
0000
0000
0000
0000
0300
0000
0000
0000
0000
0000
0010
0000
0000
0000
0000
0000
0001
0000
0000
0000
0000
0000
1000
0000
0000
0000
0000
0000
0100
0000
0000
0000
0000
0000
1000
0000
0000
0010
0000
0000
0000
0100
0000
,  // measure 48
0000
0010
0000
0100
0000
0000
0000
0010
0000
0100
0000
0010
0000
0000
0000
0100
0000
0000
0000
0000
0000
0000
0000
0000
,  // measure 49
0000
0110
1000
0010
0100
0010
0000
2200
,  // measure 50
3300
0022
0033
1001
0110
0000
0100
0100
,  // measure 51
0000
0100
1000
0010
0100
0001
0000
0002
,  // measure 52
0000
2003
0000
3010
0110
0000
0100
0100
,  // measure 53
0000
0000
0100
0000
0000
0001
0000
0000
0010
0000
0100
0000
0000
0000
0202
0000
,  // measure 54
0303
2020
3030
1001
0110
0000
0100
0100
,  // measure 55
0000
0100
2000
0000
0010
3010
0000
0002
,  // measure 56
0000
0100
0100
0103
0000
0000
0020
0000
,  // measure 57
0200
0000
0000
0000
0300
0000
0100
0230
,  // measure 58
0000
0302
0000
0013
0110
0000
0100
0100
,  // measure 59
0000
0100
1000
0000
0010
0100
0000
2020
,  // measure 60
3030
2200
3300
0101
0110
0000
0100
0100
,  // measure 61
0000
0000
0110
0000
0000
1000
0000
0000
0010
0000
0000
0100
0000
0000
1000
0000
,  // measure 62
0001
0200
0000
0310
0110
0000
0100
0100
,  // measure 63
0000
0100
0001
1000
0010
0100
0000
0022
,  // measure 64
0033
0202
0303
2200
0000
0000
3300
0001
,  // measure 65
0101
0101
0000
1000
1100
1100
1100
0000
,  // measure 66
2100
0000
0010
3020
0000
0100
0230
0000
,  // measure 67
0001
0302
0000
1000
2003
0000
3001
2002
,  // measure 68
0000
3003
0000
0000
;
