#TITLE:Ai (Chuseichin);
#SUBTITLE:-EXCEL SAGA THEME-;
#ARTIST:EXCEL GIRLS;
#TITLETRANSLIT:;
#SUBTITLETRANSLIT:;
#ARTISTTRANSLIT:;
#GENRE:;
#CREDIT:;
#BANNER:Ai (Chuseichin) -EXCEL SAGA THEME-.png;
#BACKGROUND:Ai (Chuseichin) -EXCEL SAGA THEME--bg.png;
#LYRICSPATH:;
#CDTITLE:;
#MUSIC:Ai (Chuseichin) -EXCEL SAGA THEME-.ogg;
#OFFSET:0.500;
#SAMPLESTART:65.761;
#SAMPLELENGTH:12.000;
#SELECTABLE:YES;
#DISPLAYBPM:122.000;
#BPMS:0.000=121.734;
#STOPS:;
#TIMESIGNATURES:0.000=4=4
;
#BGCHANGES:1.021=Ai (Chuseichin) -EXCEL SAGA THEME-.avi=1.000=0=0=0=StretchNoLoop====,
99999=-nosongbg-=1.000=0=0=0 // don't automatically add -songbackground-
;
#KEYSOUNDS:;

//---------------dance-single - ----------------
#NOTES:
     dance-single:
     :
     Hard:
     8:
     0.589,0.528,0.239,0.272,0.413,332.000,22.000,25.000,0.000,0.000,0.000,0.589,0.528,0.239,0.272,0.413,332.000,22.000,25.000,0.000,0.000,0.000:
0000
0000
0000
0000
,
0000
0000
0000
0000
,
1001
0000
0000
0010
1000
0000
0010
0000
0100
0001
0000
0000
0110
0000
0000
0000
,
1000
0000
0010
0100
0000
0100
0010
0000
0001
0000
0010
0000
0101
0000
0000
0000
,
1000
0000
0000
0010
0100
0000
0001
0000
0100
0010
0000
0000
1001
0000
0000
0000
,
1000
0100
1000
0001
0100
0001
0220
0000
0000
0330
0000
0000
,
1000
0000
0000
0010
1000
0000
0100
0000
0001
0000
0000
0000
1001
0000
0000
0000
,
0010
0001
0100
0000
0010
1000
0100
0000
,
1000
0000
0000
0001
1000
0000
0010
0000
0100
0000
0000
0000
0011
0000
0000
0000
,
1000
0100
0010
0001
0010
0001
0100
0000
,
2000
3020
0230
0302
,
0023
0032
0203
0320
,
0031
0000
1000
0010
0000
0000
0100
0000
0001
0000
0010
0000
0001
0000
0100
0000
,
0001
0010
0001
0100
0010
0100
0002
0000
0000
1003
0000
0000
,
0101
0000
0000
0000
1000
0000
0010
0000
0100
0000
0000
0001
0000
0000
0010
0000
,
0000
0000
0001
0000
0100
0000
0010
0000
1000
0000
0000
0010
1000
0000
0010
0000
,
0100
0000
0000
0000
0001
0000
1000
0000
0001
0000
0000
1000
0000
0000
0100
0000
,
0000
0010
0001
0100
0010
1000
0001
0010
,
2010
3002
0023
0032
,
0203
0320
2030
3020
,
1030
0000
0001
0100
0000
0000
0010
0000
1000
0000
0010
0000
0100
0000
0001
0100
,
0001
0010
0001
0100
0010
1000
0020
0000
0000
0130
0000
0000
,
1000
0000
0100
0000
0010
0000
0001
0000
0100
0010
0000
1000
0000
0000
0010
0000
,
0001
0000
0010
0000
0001
0100
0000
0020
0000
0000
0100
0000
0130
0000
0000
0000
,
0001
0000
0100
0000
0010
0000
1000
0000
0100
0000
0010
0100
0000
0100
0010
0000
,
1000
0000
0001
0000
0010
0000
0001
0100
0000
0010
1000
0000
0100
0000
1000
0000
,
0001
0000
0100
0000
0010
0000
0100
0000
0010
0000
1000
0000
0010
1000
0010
0000
,
0100
0000
0001
0000
0100
0001
0000
0100
0000
0000
0010
0000
0001
0000
1000
0000
,
0100
0000
0010
0000
1000
0000
0010
0000
0100
0000
0010
0100
0000
0001
0100
0000
,
0010
0000
0001
0000
0100
0000
0010
1000
0000
0000
0001
0000
0100
0010
0100
0000
,
0001
0000
1000
0000
0010
0100
0010
0000
1000
0000
0001
0000
0001
1000
0001
0000
,
0100
0000
0010
0000
0001
0100
0001
0000
0010
0000
0001
0000
0100
0010
0100
0000
,
1000
0000
0010
0000
0010
0100
0010
0000
1000
0000
0001
0000
0100
0001
0100
0000
,
1000
0010
0100
0010
1000
0100
2000
0000
0000
3001
0000
0000
,
1000
0100
1100
0000
0010
0100
0110
0000
,
1000
0001
0000
0100
0000
0001
0000
0200
0000
0000
0001
0000
0301
0000
0000
0000
,
1000
0000
0100
0000
0010
0000
0001
0000
0100
0000
0001
0000
0010
0000
0001
0010
,
0001
0010
0000
0001
0000
0000
1000
0000
0010
0000
0000
0000
1001
0000
0010
0000
,
0110
0100
0001
0010
0001
0100
0010
0100
,
1000
0001
1000
0001
0000
0010
0000
2000
0001
0000
3001
0000
0010
0000
0001
0000
,
0011
0010
0001
0100
1100
0100
0010
1000
,
1010
0000
0000
0110
0000
0000
0101
0000
1001
0000
0001
0000
2000
0000
0000
0000
,
3001
0000
0010
0001
0000
0000
0001
0000
0100
0010
0000
0000
1001
0000
0000
0000
,
0010
0001
0100
0010
1000
0100
0001
0000
,
0010
0000
1000
0010
0000
1000
0001
0000
0100
0001
0000
0000
0001
0000
0000
0000
,
1000
0010
1000
0001
0100
0001
0010
0001
0100
0010
1000
0100
,
1010
1001
0000
0000
;

//---------------dance-single - ----------------
#NOTES:
     dance-single:
     :
     Challenge:
     9:
     0.705,0.603,0.478,0.130,0.603,398.000,44.000,12.000,0.000,0.000,0.000,0.705,0.603,0.478,0.130,0.603,398.000,44.000,12.000,0.000,0.000,0.000: // measure 1
0000
0000
0000
0000
,  // measure 2
0000
0000
0000
0000
,  // measure 3
1000
0000
0001
0100
0000
0010
1000
0000
0001
0100
0000
0010
1000
0000
0000
0000
,  // measure 4
1000
0100
0000
0010
0000
0100
0010
0000
0100
0000
0001
0000
0010
0000
0001
0000
,  // measure 5
1000
0010
0000
0100
0001
0000
0010
0001
0000
0100
0001
0000
0101
0000
0010
0000
,  // measure 6
1000
0100
0001
0100
1000
0100
0020
0000
0000
0130
0000
0000
,  // measure 7
1001
0000
0010
0000
0001
0000
0100
0000
0010
0000
1000
0000
0000
0001
0100
0000
,  // measure 8
0010
0000
1000
0000
0100
0000
0010
0000
0100
0000
0001
0000
0010
0000
0001
0100
,  // measure 9
0010
0100
0010
1000
0000
0000
0001
0000
0010
0000
0001
0000
0100
0000
0010
0000
,  // measure 10
1000
0100
0010
0001
0100
0001
0010
0010
,  // measure 11
0101
0100
0110
0010
1010
1000
1001
0001
,  // measure 12
0011
0010
0110
0010
1001
0100
1001
0010
,  // measure 13
0110
0000
0010
1000
0000
0010
1000
0000
0010
0000
0100
0000
0001
0000
0010
0000
,  // measure 14
0001
0000
0010
0000
0100
0000
1000
0000
0001
0000
0010
0000
0200
0000
0000
0010
0000
0000
0310
0000
0000
0010
0000
0000
,  // measure 15
1000
0000
0010
0100
0000
0010
0100
0000
0001
0000
0010
0000
0001
0000
0100
0000
,  // measure 16
0010
0000
1000
0010
0000
0100
0001
0000
0010
0000
0001
0000
0100
0000
0010
0000
,  // measure 17
1000
0010
1000
0010
0000
0100
0001
0000
0010
0000
0001
0000
0010
0000
0100
0000
,  // measure 18
0001
0010
0001
0100
0000
0010
1000
0000
0100
0000
0001
0000
0010
0001
0010
0000
,  // measure 19
1001
1000
1010
0010
0110
0100
0101
0001
,  // measure 20
0011
0100
1010
0001
0110
0001
1100
0010
,  // measure 21
1001
0000
1000
0002
0000
0000
0010
0000
0103
0000
0010
0000
0100
1000
0010
0000
,  // measure 22
0100
0010
0001
1000
0100
0010
0200
0000
0000
0310
0000
0000
,  // measure 23
1000
0000
0100
0000
1000
0000
0010
0000
0100
0000
0001
0010
0000
0001
0010
0100
,  // measure 24
1000
0000
0010
0000
0100
0001
0000
1000
0001
0000
0100
0000
0100
0000
0020
0000
,  // measure 25
1030
0000
0100
0000
0010
0000
0100
0000
0001
0000
0100
1000
0000
0000
0001
0100
,  // measure 26
0010
0000
0000
0000
0000
0000
1000
0000
0000
0000
0000
0000
0010
0000
0000
0000
0000
0000
0100
0000
0000
0010
0000
0000
0000
0000
0000
0000
0000
0000
1000
0000
0000
0000
0000
0000
0001
0000
1000
0000
0001
0000
1000
0000
0000
0000
0000
0000
,  // measure 27
0010
0000
0100
0000
0001
0000
0010
0000
0001
0000
0100
0000
0010
1000
0100
0000
,  // measure 28
0001
0000
0010
0000
0001
0000
0100
0010
0000
1000
0000
0010
0100
0000
0001
0000
,  // measure 29
1000
0000
0100
0000
1000
0000
0010
0000
0100
0000
0001
0010
0000
0001
0100
0010
,  // measure 30
1000
0000
0001
0000
0010
0000
0001
0100
0000
0000
1001
0000
0100
0010
0100
0010
,  // measure 31
0100
0000
0001
0000
0010
0001
0100
0010
1000
0000
0100
0000
1000
0010
0100
0001
,  // measure 32
0010
0000
0001
0000
0100
0001
0100
0001
0100
0000
0010
0000
1000
0100
1000
0010
,  // measure 33
0100
0000
0001
0000
1000
0100
0010
0001
1000
0000
0010
0000
0100
0010
1000
0010
,  // measure 34
0100
0000
0001
0000
0010
0000
0001
0000
0100
0000
1000
0000
0020
0000
0000
0100
0000
0000
0130
0000
0000
0110
0000
0000
,  // measure 35
1001
0100
0101
0001
0010
0001
1010
0100
,  // measure 36
1000
0100
0000
0110
0000
1001
0000
0202
0000
0000
0000
0000
0303
0000
0000
0000
,  // measure 37
1000
0000
0100
0000
0010
0000
0100
0000
1000
0010
0000
0100
0000
0001
0010
0001
,  // measure 38
0010
0100
0000
0010
0000
0000
1000
0000
0010
0000
1000
0000
0100
0000
0010
0000
,  // measure 39
0011
0001
0101
0100
0110
0010
1001
0100
,  // measure 40
0010
1000
0000
1010
0000
0110
0000
0202
0000
0000
0000
0000
0303
0000
0000
0000
,  // measure 41
1010
0000
0000
0100
0000
0000
0010
0000
0101
0000
0000
0001
0000
0000
0100
0000
,  // measure 42
1001
0000
0001
0100
0000
0000
0110
0000
1001
0000
0001
0000
0010
0000
0001
0000
,  // measure 43
1001
0000
0100
0001
0000
0001
0100
0000
0010
1000
0000
1000
0010
0000
0100
0000
,  // measure 44
0001
0010
0001
0100
1000
0100
0010
0001
,  // measure 45
1000
0000
0010
0100
0000
1000
0001
0000
1000
0100
0000
0100
0010
0000
0000
0000
,  // measure 46
0011
0001
0010
0001
0100
0010
1000
0100
1000
0010
0100
0001
,  // measure 47
2002
3003
0110
0000
0000
0000
0000
0000
;

//---------------dance-single - ----------------
#NOTES:
     dance-single:
     :
     Medium:
     6:
     0.444,0.402,0.261,0.207,0.114,243.000,24.000,19.000,0.000,0.000,0.000,0.444,0.402,0.261,0.207,0.114,243.000,24.000,19.000,0.000,0.000,0.000:
0000
0000
0000
0000
,
0000
0000
0000
0000
,
1000
0000
0001
0000
0100
0010
1000
0000
,
0001
0000
0010
0000
0001
0010
0100
0010
,
1000
0000
0001
0000
1000
0100
1000
0010
,
1000
0001
1000
0001
0000
0000
0202
0000
0000
0303
0000
0000
,
1000
0001
1000
0000
0010
0000
0110
0000
,
1000
0100
0010
0001
0100
0010
0100
0000
,
0001
0010
0001
0000
0100
0000
1001
0000
,
0001
0100
0010
0000
1000
0100
0010
0000
,
0001
0100
1000
0100
,
0001
0010
0100
0010
,
0001
0000
0000
1000
0000
0000
0001
0000
0100
0000
0000
0000
0011
0000
0000
0000
,
1000
0000
0010
0000
0100
0000
0002
0000
0000
1003
0000
0000
,
1000
0000
0000
0010
0000
0000
0100
0000
0010
0000
1000
0000
0010
0000
0000
0000
,
0001
0000
0100
0000
0001
0010
0001
0000
,
1000
0000
0000
0001
0000
0000
0010
0000
0001
0000
0000
0000
0110
0000
0000
0000
,
1000
0100
0010
0000
1000
0001
1000
0001
,
0010
0101
0010
1100
,
0001
0101
0100
0010
,
1000
0010
0100
0000
1000
0001
0100
0000
,
2010
0000
0010
0000
0010
0000
0020
0000
0000
3030
0000
0000
,
0001
0100
0010
0000
0010
1000
0100
0000
,
1000
0001
0010
0001
0200
0000
0310
0000
,
1000
0010
0100
0001
0010
0001
0100
0000
,
0001
1000
0001
0000
0110
0000
1001
0000
,
0001
0010
0001
0100
0001
0000
0110
0000
,
1000
0010
0100
0001
0020
0000
0030
0000
,
0001
0010
0100
0010
0100
0000
1000
0000
,
1001
0000
0000
0000
0110
0000
0000
1001
0000
0000
1000
0000
0001
0000
2000
0000
,
3000
0010
0001
0020
0030
1000
0001
2000
,
3000
0010
0001
0020
0030
0010
0100
0020
,
0030
0001
1000
0002
0003
0001
0100
0002
,
2003
0000
0001
0000
0100
0000
0002
0000
0000
3003
0000
0000
,
1100
1010
0110
0101
,
1000
0010
0100
0001
0010
0000
1001
0000
,
0001
0010
0100
1000
0010
0100
0010
0000
,
0102
0000
0000
0100
0000
0000
0100
0000
0103
0000
0000
0000
1001
0000
0000
0000
,
1000
0010
0100
0000
0010
0100
0010
0000
,
1000
0000
0000
0001
0000
0000
0010
0000
0001
0000
0000
0000
0110
0000
0000
0000
,
0010
0000
0000
0010
0000
0000
0010
0000
0100
0000
0000
0100
0000
0000
0100
0000
,
0001
0000
0000
0001
0000
0000
0001
0000
2000
0000
0000
0000
3010
0000
0000
0000
,
0001
0100
0010
0000
0010
0100
0010
0000
,
1000
0100
0010
0001
0200
0000
0310
0000
,
0001
0010
0001
0000
1000
0010
1000
0000
,
1000
0000
0010
0000
0100
0000
0001
0000
0010
0000
0001
0000
,
1000
1001
0000
0000
;

//---------------dance-single - ----------------
#NOTES:
     dance-single:
     :
     Easy:
     4:
     0.307,0.277,0.185,0.207,0.065,162.000,17.000,19.000,0.000,0.000,0.000,0.307,0.277,0.185,0.207,0.065,162.000,17.000,19.000,0.000,0.000,0.000:
0000
0000
0000
0000
,
0000
0000
0000
0000
,
1000
0100
2000
3000
,
0001
0010
0002
0003
,
0100
0010
2000
3000
,
0010
0000
1000
0000
0010
0000
2000
0000
0000
3000
0000
0000
,
0001
0101
0100
0010
,
1000
0010
0100
0000
,
0001
0011
0010
0001
,
0100
0010
1000
0000
,
1000
1001
0001
0100
,
0010
1000
0010
0200
,
0310
1000
0100
0010
,
0001
0000
0001
0000
0001
0000
0002
0000
0000
0003
0000
0000
,
1000
1100
1000
0010
,
0100
0001
0020
0030
,
1000
1001
0001
0100
,
0010
1000
0020
0030
,
1000
0010
1000
0001
,
0100
0001
0100
0010
,
1000
1001
0001
0100
,
0010
0000
0010
0000
0100
0000
0200
0000
0000
0300
0000
0000
,
0001
0100
0001
0000
0100
0000
0010
0000
,
1000
0010
0100
0001
,
1000
0010
1000
0000
0001
0000
0010
0000
,
0001
0100
0001
2000
,
3001
0010
0001
0100
,
0010
0010
0020
0030
,
0010
1000
0010
0000
0100
0000
0001
0000
,
0010
0001
0200
0300
,
1010
0000
0101
0000
,
0011
0000
0110
0000
,
1001
0000
1010
0000
,
1000
0000
0001
0000
1000
0000
2002
0000
0000
3003
0000
0000
,
2000
0010
0001
3100
,
0001
0010
0100
0000
,
0002
0010
0100
1003
,
0010
0010
0100
0001
,
1000
0010
0100
0001
,
0010
0001
0010
0000
,
0101
0000
0110
0000
,
1000
0010
2020
3030
,
0002
0010
0100
0100
,
0010
1000
1000
0003
,
1000
0100
0010
0001
,
1000
0000
0001
0000
1000
0000
0001
0000
1000
0000
0001
0000
,
0100
0110
0000
0000
;

//---------------dance-double - ----------------
#NOTES:
     dance-double:
     :
     Hard:
     8:
     0.585,0.503,0.217,0.272,0.413,332.000,20.000,25.000,0.000,0.000,0.000,0.585,0.503,0.217,0.272,0.413,332.000,20.000,25.000,0.000,0.000,0.000:
00000000
00000000
00000000
00000000
,
00000000
00000000
00000000
00000000
,
10010000
00000000
00000000
00100000
10000000
00000000
00100000
00000000
01000000
00010000
00000000
00000000
01100000
00000000
00000000
00000000
,
10000000
00000000
00100000
01000000
00000000
01000000
00100000
00000000
00010000
00000000
00100000
00000000
01010000
00000000
00000000
00000000
,
10000000
00000000
00000000
00100000
01000000
00000000
00010000
00000000
01000000
00100000
00000000
00000000
10010000
00000000
00000000
00000000
,
01000000
00100000
01000000
00001000
00100000
00001000
00220000
00000000
00000000
00330000
00000000
00000000
,
01000000
00000000
00000000
00010000
01000000
00000000
00100000
00000000
00001000
00000000
00000000
00000000
01001000
00000000
00000000
00000000
,
00010000
00001000
00100000
00000000
00010000
01000000
00100000
00000000
,
01000000
00000000
00000000
00001000
01000000
00000000
00010000
00000000
00100000
00000000
00000000
00000000
00011000
00000000
00000000
00000000
,
00100000
00010000
00001000
00000100
00001000
00000100
00010000
00000000
,
00200000
00302000
00023000
00030200
,
00002300
00003200
00020300
00032000
,
00003100
00000000
00100000
00001000
00000000
00000000
00010000
00000000
00000100
00000000
00001000
00000000
00000100
00000000
00010000
00000000
,
00000010
00000100
00000010
00001000
00000100
00001000
00000020
00000000
00000000
00010030
00000000
00000000
,
00001010
00000000
00000000
00000000
00010000
00000000
00000100
00000000
00001000
00000000
00000000
00000010
00000000
00000000
00000100
00000000
,
00000000
00000000
00000010
00000000
00001000
00000000
00000100
00000000
00010000
00000000
00000000
00000100
00010000
00000000
00000100
00000000
,
00001000
00000000
00000000
00000000
00000010
00000000
00010000
00000000
00000010
00000000
00000000
00010000
00000000
00000000
00001000
00000000
,
00000000
00000010
00000001
00000100
00000010
00001000
00000001
00000010
,
00002010
00003002
00000023
00000032
,
00000203
00000320
00002030
00003020
,
00001030
00000000
00000001
00000100
00000000
00000000
00000010
00000000
00001000
00000000
00000010
00000000
00000100
00000000
00000001
00000100
,
00000010
00000100
00000010
00001000
00000100
00010000
00000200
00000000
00000000
00001300
00000000
00000000
,
00010000
00000000
00001000
00000000
00000100
00000000
00000010
00000000
00001000
00000100
00000000
00010000
00000000
00000000
00000100
00000000
,
00000010
00000000
00000100
00000000
00000010
00001000
00000000
00000200
00000000
00000000
00001000
00000000
00001300
00000000
00000000
00000000
,
00000010
00000000
00001000
00000000
00000100
00000000
00010000
00000000
00001000
00000000
00000100
00001000
00000000
00001000
00000100
00000000
,
00100000
00000000
00000100
00000000
00001000
00000000
00000100
00010000
00000000
00001000
00100000
00000000
00010000
00000000
00100000
00000000
,
00000100
00000000
00010000
00000000
00001000
00000000
00010000
00000000
00001000
00000000
00100000
00000000
00001000
00100000
00001000
00000000
,
00010000
00000000
00000100
00000000
00010000
00000100
00000000
00010000
00000000
00000000
00001000
00000000
00000100
00000000
00100000
00000000
,
00010000
00000000
00001000
00000000
00100000
00000000
00001000
00000000
00010000
00000000
00001000
00010000
00000000
00000100
00010000
00000000
,
00010000
00000000
00001000
00000000
00100000
00000000
00010000
01000000
00000000
00000000
00001000
00000000
00100000
00010000
00100000
00000000
,
00001000
00000000
01000000
00000000
00010000
00100000
00010000
00000000
01000000
00000000
00001000
00000000
00001000
01000000
00001000
00000000
,
00100000
00000000
00010000
00000000
00001000
00100000
00001000
00000000
00010000
00000000
00001000
00000000
00100000
00010000
00100000
00000000
,
01000000
00000000
00010000
00000000
00010000
00100000
00010000
00000000
01000000
00000000
00001000
00000000
00100000
00001000
00100000
00000000
,
10000000
00100000
01000000
00100000
10000000
01000000
20000000
00000000
00000000
30010000
00000000
00000000
,
10000000
01000000
11000000
00000000
00100000
01000000
01100000
00000000
,
10000000
00010000
00000000
01000000
00000000
00010000
00000000
02000000
00000000
00000000
00010000
00000000
03010000
00000000
00000000
00000000
,
10000000
00000000
01000000
00000000
00100000
00000000
00010000
00000000
01000000
00000000
00010000
00000000
00100000
00000000
00010000
00100000
,
00001000
00010000
00000000
00001000
00000000
00000000
01000000
00000000
00010000
00000000
00000000
00000000
01001000
00000000
00010000
00000000
,
00110000
00100000
00001000
00010000
00001000
00100000
00010000
00100000
,
01000000
00001000
01000000
00001000
00000000
00010000
00000000
02000000
00001000
00000000
03001000
00000000
00010000
00000000
00001000
00000000
,
00011000
00010000
00001000
00100000
01100000
00100000
00010000
01000000
,
00101000
00000000
00000000
00011000
00000000
00000000
00010100
00000000
00100000
00000000
00000100
00000000
00200000
00000000
00000000
00000000
,
00300100
00000000
00001000
00000100
00000000
00000000
00000100
00000000
00010000
00001000
00000000
00000000
00100000
00000000
00000000
00000000
,
00001000
00000100
00010000
00001000
00100000
00010000
00000100
00000000
,
00001000
00000000
00100000
00001000
00000000
00100000
00000100
00000000
00010000
00000100
00000000
00000000
00000100
00000000
00000000
00000000
,
00010000
00000100
00010000
00000010
00001000
00000010
00000100
00000010
00001000
00000100
00010000
00001000
,
00010100
00010010
00000000
00000000
;

//---------------dance-double - ----------------
#NOTES:
     dance-double:
     :
     Medium:
     6:
     0.443,0.402,0.250,0.207,0.114,243.000,23.000,19.000,0.000,0.000,0.000,0.443,0.402,0.250,0.207,0.114,243.000,23.000,19.000,0.000,0.000,0.000:
00000000
00000000
00000000
00000000
,
00000000
00000000
00000000
00000000
,
10000000
00000000
00010000
00000000
01000000
00100000
10000000
00000000
,
00010000
00000000
00100000
00000000
00010000
00100000
01000000
00100000
,
10000000
00000000
00010000
00000000
10000000
01000000
10000000
00100000
,
01000000
00001000
01000000
00001000
00000000
00000000
00202000
00000000
00000000
00303000
00000000
00000000
,
01000000
00001000
01000000
00000000
00010000
00000000
00110000
00000000
,
01000000
00100000
00010000
00001000
00100000
00010000
00100000
00000000
,
00001000
00010000
00001000
00000000
00100000
00000000
01001000
00000000
,
00000100
00010000
00001000
00000000
00100000
00010000
00001000
00000000
,
00000100
00010000
00100000
00010000
,
00000100
00001000
00010000
00001000
,
00000100
00000000
00000000
00100000
00000000
00000000
00000100
00000000
00010000
00000000
00000000
00000000
00001100
00000000
00000000
00000000
,
00010000
00000000
00000100
00000000
00001000
00000000
00000020
00000000
00000000
00010030
00000000
00000000
,
00010000
00000000
00000000
00000100
00000000
00000000
00001000
00000000
00000100
00000000
00010000
00000000
00000100
00000000
00000000
00000000
,
00000010
00000000
00001000
00000000
00000010
00000100
00000010
00000000
,
00010000
00000000
00000000
00000010
00000000
00000000
00000100
00000000
00000010
00000000
00000000
00000000
00001100
00000000
00000000
00000000
,
00001000
00000100
00000010
00000000
00001000
00000001
00001000
00000001
,
00000010
00000101
00000010
00001100
,
00000001
00000101
00000100
00000010
,
00001000
00000010
00000100
00000000
00001000
00000001
00000100
00000000
,
00020100
00000000
00000100
00000000
00000100
00000000
00000200
00000000
00000000
00030300
00000000
00000000
,
00000010
00001000
00000100
00000000
00000100
00010000
00001000
00000000
,
00010000
00000010
00000100
00000010
00002000
00000000
00003100
00000000
,
00010000
00000100
00001000
00000010
00000100
00000010
00001000
00000000
,
00000100
00100000
00000100
00000000
00011000
00000000
00100000
00000000
,
00000100
00001000
00000100
00010000
00000100
00000000
00011000
00000000
,
00100000
00001000
00010000
00000100
00002000
00000000
00003000
00000000
,
00000100
00001000
00010000
00001000
00010000
00000000
00100000
00000000
,
01001000
00000000
00000000
00000000
00110000
00000000
00000000
01001000
00000000
00000000
01000000
00000000
00001000
00000000
02000000
00000000
,
03000000
00010000
00001000
00020000
00030000
01000000
00001000
02000000
,
03000000
00010000
00001000
00020000
00030000
00010000
00100000
00020000
,
00030000
00001000
01000000
00002000
00003000
00001000
00100000
00002000
,
02003000
00000000
00001000
00000000
00100000
00000000
00002000
00000000
00000000
03003000
00000000
00000000
,
11000000
10100000
01100000
01010000
,
10000000
00100000
01000000
00010000
00100000
00000000
10010000
00000000
,
00010000
00100000
01000000
10000000
00100000
01000000
00100000
00000000
,
01020000
00000000
00000000
01000000
00000000
00000000
01000000
00000000
01030000
00000000
00000000
00000000
10010000
00000000
00000000
00000000
,
01000000
00010000
00100000
00000000
00010000
00100000
00010000
00000000
,
01000000
00000000
00000000
00001000
00000000
00000000
00010000
00000000
00001000
00000000
00000000
00000000
00110000
00000000
00000000
00000000
,
00010000
00000000
00000000
00010000
00000000
00000000
00010000
00000000
00100000
00000000
00000000
00100000
00000000
00000000
00100000
00000000
,
00001000
00000000
00000000
00001000
00000000
00000000
00001000
00000000
02000000
00000000
00000000
00000000
03010000
00000000
00000000
00000000
,
00000100
00010000
00001000
00000000
00001000
00010000
00001000
00000000
,
00100000
00010000
00001000
00000100
00020000
00000000
00031000
00000000
,
00000100
00001000
00000100
00000000
00100000
00001000
00100000
00000000
,
00100000
00000000
00001000
00000000
00010000
00000000
00000100
00000000
00001000
00000000
00000100
00000000
,
00010000
00010010
00000000
00000000
;

//---------------dance-double - ----------------
#NOTES:
     dance-double:
     :
     Easy:
     4:
     0.306,0.277,0.174,0.207,0.065,162.000,16.000,19.000,0.000,0.000,0.000,0.306,0.277,0.174,0.207,0.065,162.000,16.000,19.000,0.000,0.000,0.000:
00000000
00000000
00000000
00000000
,
00000000
00000000
00000000
00000000
,
10000000
01000000
20000000
30000000
,
00010000
00100000
00020000
00030000
,
01000000
00100000
20000000
30000000
,
00010000
00000000
01000000
00000000
00010000
00000000
02000000
00000000
00000000
03000000
00000000
00000000
,
00001000
00101000
00100000
00010000
,
01000000
00010000
00100000
00000000
,
00001000
00011000
00010000
00001000
,
00010000
00001000
00100000
00000000
,
00100000
00100000
00000100
00010000
,
00001000
00100000
00001000
00020000
,
00031000
00100000
00010000
00001000
,
00000010
00000000
00000010
00000000
00000010
00000000
00000020
00000000
00000000
00000030
00000000
00000000
,
00010000
00011000
00010000
00000100
,
00001000
00000010
00000200
00000300
,
00010000
00010010
00000010
00001000
,
00000010
00001000
00000020
00000030
,
00001000
00000010
00001000
00000001
,
00000100
00000001
00000100
00000010
,
00001000
00001001
00000001
00000100
,
00000100
00000000
00000100
00000000
00001000
00000000
00002000
00000000
00000000
00003000
00000000
00000000
,
00000010
00001000
00000010
00000000
00001000
00000000
00000100
00000000
,
00010000
00000100
00001000
00000010
,
00010000
00000100
00010000
00000000
00000010
00000000
00000100
00000000
,
00000100
00010000
00000100
00200000
,
00300100
00001000
00000100
00010000
,
00001000
00001000
00002000
00003000
,
00001000
00100000
00001000
00000000
00010000
00000000
00000100
00000000
,
00010000
00001000
00200000
00300000
,
01010000
00000000
00101000
00000000
,
00011000
00000000
00110000
00000000
,
01001000
00000000
01010000
00000000
,
10000000
00000000
00010000
00000000
10000000
00000000
20020000
00000000
00000000
30030000
00000000
00000000
,
20000000
00100000
00010000
31000000
,
00010000
00100000
01000000
00000000
,
00020000
00100000
01000000
10030000
,
00010000
00010000
00100000
00001000
,
01000000
00010000
00100000
00001000
,
00010000
00001000
00010000
00000000
,
00101000
00000000
00110000
00000000
,
00100000
00001000
00202000
00303000
,
00000200
00001000
00010000
00010000
,
00001000
00100000
00100000
00000300
,
00100000
00010000
00001000
00000100
,
00010000
00000000
00000010
00000000
00010000
00000000
00000010
00000000
00010000
00000000
00000010
00000000
,
00001000
00001100
00000000
00000000
;

//---------------dance-single - Blank----------------
#NOTES:
     dance-single:
     Blank:
     Beginner:
     1:
     0.132,0.151,0.033,0.000,0.000,82.000,3.000,0.000,0.000,0.000,0.000,0.132,0.151,0.033,0.000,0.000,82.000,3.000,0.000,0.000,0.000,0.000:
0000
0000
0000
0000
,
0000
0000
0000
0000
,
0010
0000
0000
0000
,
0010
0000
0000
0000
,
0100
0000
0000
0000
,
0100
0100
0100
0000
,
0010
0000
0000
0000
,
1000
0000
0001
0000
,
0100
0000
0000
0000
,
0001
0000
1000
0000
,
0010
0000
0100
0000
,
0001
0000
1000
0000
,
0100
0100
0000
0000
,
0010
0010
0010
0000
,
1000
0000
0000
0000
,
0010
0000
0100
0000
,
0001
0000
0000
0000
,
0100
0000
0010
0000
,
1000
0000
0010
0000
,
0100
0000
0001
0000
,
1000
1000
0000
0000
,
0001
0001
0001
0000
,
0100
0000
0000
0000
,
0010
0000
0000
0000
,
0100
0000
0010
0000
,
0100
0000
0010
0000
,
0010
0000
0000
0000
,
0100
0000
0000
0000
,
0010
0000
0100
0000
,
0010
0010
0010
0000
,
1001
0000
1000
0000
,
0001
0000
1000
0000
,
1001
0000
0001
0000
,
1000
1000
1000
0000
,
1000
0000
0100
0000
,
1000
0000
0100
0000
,
1000
0000
0010
0000
,
1000
0000
0010
0000
,
0001
0000
0100
0000
,
0001
0001
0001
0000
,
0010
0000
0100
0000
,
0010
0000
0000
0000
,
0010
0000
0000
0000
,
0010
0000
0000
0000
,
0100
0000
0000
0000
,
0010
0010
0010
0010
,
0000
1001
0000
0000
;
