#TITLE:Yu-Gi-Oh! Theme;
#SUBTITLE:;
#ARTIST:John Siegler & Wayne Sharpe;
#TITLETRANSLIT:;
#SUBTITLETRANSLIT:;
#ARTISTTRANSLIT:;
#GENRE:;
#CREDIT:;
#BANNER:Yu-Gi-Oh! Theme.png;
#BACKGROUND:Yu-Gi-Oh! Theme-bg.png;
#LYRICSPATH:;
#CDTITLE:;
#MUSIC:Yu-Gi-Oh! Theme.ogg;
#OFFSET:-0.040;
#SAMPLESTART:42.040;
#SAMPLELENGTH:12.000;
#SELECTABLE:YES;
#BPMS:0.000=140.000,88.000=280.000,94.000=74.000,96.000=140.000;
#STOPS:87.000=1.060
,90.750=0.300
;
#TIMESIGNATURES:0.000=4=4
;
#BGCHANGES:0.000=Yu-Gi-Oh! Theme.avi=1.000=0=0=0=StretchNoLoop====,
99999=-nosongbg-=1.000=0=0=0 // don't automatically add -songbackground-
;
#KEYSOUNDS:;

//---------------dance-single - G.Ramos----------------
#NOTES:
     dance-single:
     G.Ramos:
     Beginner:
     1:
     0.125,0.155,0.049,0.000,0.000,51.000,3.000,0.000,0.000,0.000,0.000,0.125,0.155,0.049,0.000,0.000,51.000,3.000,0.000,0.000,0.000,0.000:
0000
0000
0000
0000
,
0000
0000
0000
0000
,
0000
0000
0000
0000
,
0000
0000
0000
0000
,
0000
0000
0000
0000
,
1000
0000
0001
0000
,
1000
0000
0001
0000
,
1000
0000
0001
0000
,
0010
0010
0010
0000
,
1001
0000
0100
0000
,
0001
0000
1000
0000
,
0010
0000
0001
0000
,
1000
0000
0100
0000
,
1000
0000
0100
0000
,
1000
0000
0010
0000
,
0001
0000
0100
0000
,
0001
0000
0010
0000
,
1000
0000
1001
0000
,
0010
0010
0000
0000
,
0100
0100
0000
0000
,
0010
0010
0000
1000
,
1000
0000
0001
0001
,
0000
0000
0000
0000
,
0000
0000
0000
0000
,
0001
0000
0001
0000
,
0001
0000
0000
0000
,
1000
0000
1000
0000
,
1000
0000
0000
0000
,
0010
0000
0001
0000
,
1000
0000
0100
0000
,
0010
0000
0000
0000
,
0100
0000
0010
0000
,
1001
0000
0000
0000
;

//---------------dance-single - G.Ramos----------------
#NOTES:
     dance-single:
     G.Ramos:
     Easy:
     2:
     0.150,0.216,0.032,0.226,0.008,49.000,2.000,14.000,0.000,0.000,0.000,0.150,0.216,0.032,0.226,0.008,49.000,2.000,14.000,0.000,0.000,0.000:
0000
0000
0000
0000
,
0000
0000
0000
0000
,
0000
0000
0000
0000
,
0000
0000
0000
0000
,
0000
0000
0000
0000
,
1000
0000
1000
0000
,
0001
0000
0001
0000
,
1000
0000
0001
0000
,
1000
0001
1000
0001
,
1000
0000
0000
0000
,
0100
0000
1000
0000
,
0010
0000
0000
0000
,
0100
0000
0001
0000
,
0010
0000
0000
0000
,
0001
0000
1000
0000
,
0100
0000
0001
0000
,
1000
0000
0001
0000
,
0100
1000
0001
0000
,
0110
0000
0000
0000
,
0010
0000
0000
0000
,
0100
0000
0100
0000
,
0010
0000
0010
1001
,
0000
0000
0000
1000
,
0000
0000
0020
0000
,
0230
0000
0302
0000
,
2003
0000
0000
0000
,
3002
0000
0023
0000
,
0230
0000
0000
0000
,
2300
0000
3020
0000
,
0230
0000
0302
0000
,
2003
0000
0000
0000
,
0002
0000
0000
3003
,
0200
0000
0000
0000
,
0000
0000
0000
0000
0000
0000
0000
0310
0000
0000
0000
0000
0000
0000
0000
0000
;

//---------------dance-single - G.Ramos----------------
#NOTES:
     dance-single:
     G.Ramos:
     Medium:
     6:
     0.353,0.433,0.307,0.210,0.008,121.000,19.000,13.000,0.000,0.000,0.000,0.353,0.433,0.307,0.210,0.008,121.000,19.000,13.000,0.000,0.000,0.000: // measure 1
0000
0000
0000
0000
,  // measure 2
0000
0000
0000
0000
,  // measure 3
0000
0000
0000
0000
,  // measure 4
0000
0000
0000
0000
,  // measure 5
0000
0000
0000
0000
,  // measure 6
1000
0001
1000
0001
,  // measure 7
0010
1000
0010
0001
,  // measure 8
1000
0100
0001
0100
,  // measure 9
1000
0100
0001
0000
1000
0001
1000
0010
,  // measure 10
0002
0100
0010
0100
,  // measure 11
0013
0000
0001
0000
0100
0001
0010
0000
,  // measure 12
2000
0100
0010
0100
,  // measure 13
3010
0000
1000
0000
0100
1000
0010
0000
,  // measure 14
0020
0001
0100
0001
,  // measure 15
0130
0000
0010
0000
0001
0010
1000
0000
,  // measure 16
0200
1000
0010
1000
,  // measure 17
0310
0000
0100
0000
0001
1000
0010
0000
,  // measure 18
0010
1000
0001
0200
0000
0000
0310
0000
,  // measure 19
1100
0101
0010
0010
,  // measure 20
0011
1010
0100
0100
,  // measure 21
1010
1100
0011
0101
,  // measure 22
0010
0000
0000
0000
0100
0000
0000
0000
0100
0000
1000
0000
0020
0030
0000
0000
,  // measure 23
1000
0000
0001
1000
,  // measure 24
0001
0000
0200
0000
,  // measure 25
0310
1010
0100
1100
,  // measure 26
0010
0000
0011
0000
0010
0001
0100
0000
,  // measure 27
0010
0011
0100
0101
,  // measure 28
0010
0000
1010
0000
0010
1000
0100
0000
,  // measure 29
1020
0130
0021
0130
,  // measure 30
1002
0103
2001
3100
,  // measure 31
0210
0010
0010
0010
,  // measure 32
0310
0001
0100
1000
0100
0001
0010
0000
,  // measure 33
0200
0000
0000
0000
,  // measure 34
0000
0000
0000
0000
0000
0000
0000
0310
0000
0000
0000
0000
0000
0000
0000
0000
;

//---------------dance-single - G.Ramos----------------
#NOTES:
     dance-single:
     G.Ramos:
     Hard:
     8:
     0.492,0.568,0.340,0.243,0.226,177.000,21.000,15.000,0.000,0.000,0.000,0.492,0.568,0.340,0.243,0.226,177.000,21.000,15.000,0.000,0.000,0.000:
0000
0000
0000
0000
,
0000
0000
0000
0000
,
0000
0000
0000
0000
,
0000
0000
0000
0000
,
0000
0000
0000
0000
,
0010
1000
1100
0100
1000
1010
0000
0000
,
0010
0001
0101
0100
0001
0011
0000
0000
,
0001
1000
1100
1000
0001
0101
0000
0000
,
0010
1000
0010
0000
0100
0001
0100
0000
0001
0010
0100
1000
0010
0100
0001
1000
,
0020
1000
1000
1000
,
0230
0001
0302
1000
,
0023
0001
0001
0001
,
0230
1000
2300
0001
,
3200
1000
1000
1000
,
0320
0001
0032
1000
,
0203
0001
0001
0001
,
0310
1000
0100
0001
0100
1000
0010
1010
,
0100
0000
0000
0100
1000
0100
1000
0000
0000
0000
0000
0000
0000
0000
0000
0000
,
0010
0000
1000
0010
0000
0100
0001
0100
0010
0000
1010
0000
1010
0000
0000
0000
,
0001
0000
0010
0001
0000
1000
0100
1000
0010
0000
0000
0000
1001
0000
0000
0000
,
0010
0000
0001
0010
0000
0100
1000
0100
0010
0000
0011
0000
0011
0000
0000
0000
,
0100
0100
1000
1000
0010
0100
0002
0000
,
1003
0001
0000
1000
0000
0001
0100
0010
,
0100
0010
0100
0010
0200
0000
0000
0000
,
0310
1000
0000
0000
1100
0000
0000
0000
0010
0000
0100
0000
1000
0000
0000
0000
,
0010
0001
0000
0000
0101
0000
0000
0000
0010
0000
0001
0000
0100
0000
0010
0000
,
1000
0100
0000
0000
0001
0000
0000
0000
0001
0000
0100
0000
1000
0000
0000
0000
,
0001
0100
0000
0000
1000
0000
0000
0000
1000
0000
0100
0000
0001
0000
1000
0000
,
0010
1000
0001
0000
1001
0000
0000
0000
0001
0000
0010
0000
1000
0000
0100
0000
,
0010
0001
1000
0000
1001
0000
0000
0000
1000
0000
0010
0000
0001
0000
0100
0000
,
0010
0100
0001
0000
0101
0000
0000
0000
0010
0100
1000
0000
1100
0000
0000
0000
,
2100
0000
0000
0000
3001
0000
0102
0000
0000
0000
0100
0000
0103
0000
1000
0010
,
0200
0000
0000
0000
,
0000
0000
0000
0000
0000
0301
0000
1001
0000
0000
0000
0000
0000
0000
0000
0000
;

//---------------dance-double - G.Ramos----------------
#NOTES:
     dance-double:
     G.Ramos:
     Medium:
     6:
     0.353,0.433,0.307,0.210,0.008,121.000,19.000,13.000,0.000,0.000,0.000,0.353,0.433,0.307,0.210,0.008,121.000,19.000,13.000,0.000,0.000,0.000:
00000000
00000000
00000000
00000000
,
00000000
00000000
00000000
00000000
,
00000000
00000000
00000000
00000000
,
00000000
00000000
00000000
00000000
,
00000000
00000000
00000000
00000000
,
10000000
00010000
10000000
00010000
,
00100000
10000000
00100000
00010000
,
10000000
01000000
00010000
01000000
,
01000000
00100000
00001000
00000000
01000000
00001000
01000000
00010000
,
00002000
00100000
00010000
00100000
,
00013000
00000000
00001000
00000000
00100000
00001000
00010000
00000000
,
02000000
00100000
00010000
00100000
,
03010000
00000000
01000000
00000000
00100000
01000000
00010000
00000000
,
00002000
00000100
00010000
00000100
,
00013000
00000000
00001000
00000000
00000100
00001000
00100000
00000000
,
00020000
00100000
00001000
00100000
,
00031000
00000000
00010000
00000000
00000100
00100000
00001000
00000000
,
00000100
00010000
00000010
00002000
00000000
00000000
00003100
00000000
,
00011000
00001010
00000100
00000100
,
00000110
00010100
00001000
00001000
,
00010100
00011000
00000110
00001010
,
00000010
00000000
00000000
00000000
00000100
00000000
00000000
00000000
00000100
00000000
00001000
00000000
00000020
00000030
00000000
00000000
,
00001000
00000000
00000001
00001000
,
00000001
00000000
00000200
00000000
,
00000310
00001010
00000100
00001100
,
00000100
00000000
00000110
00000000
00000100
00000010
00001000
00000000
,
00000100
00000110
00001000
00001010
,
00000100
00000000
00010100
00000000
00000100
00010000
00001000
00000000
,
00010200
00001300
00000210
00001300
,
00100200
00010300
00200100
00310000
,
00021000
00001000
00001000
00001000
,
00031000
00000100
00010000
00100000
00010000
00000100
00001000
00000000
,
00020000
00000000
00000000
00000000
,
00000000
00000000
00000000
00000000
00000000
00000000
00000000
00031000
00000000
00000000
00000000
00000000
00000000
00000000
00000000
00000000
;

//---------------dance-double - G.Ramos----------------
#NOTES:
     dance-double:
     G.Ramos:
     Hard:
     8:
     0.490,0.568,0.323,0.243,0.226,177.000,20.000,15.000,0.000,0.000,0.000,0.490,0.568,0.323,0.243,0.226,177.000,20.000,15.000,0.000,0.000,0.000:
00000000
00000000
00000000
00000000
,
00000000
00000000
00000000
00000000
,
00000000
00000000
00000000
00000000
,
00000000
00000000
00000000
00000000
,
00000000
00000000
00000000
00000000
,
00100000
10000000
11000000
01000000
10000000
10100000
00000000
00000000
,
00100000
00010000
01010000
01000000
00010000
00110000
00000000
00000000
,
00010000
10000000
11000000
10000000
00010000
01010000
00000000
00000000
,
00010000
01000000
00010000
00000000
00100000
00001000
00100000
00000000
00001000
00010000
00100000
01000000
00010000
00100000
00001000
01000000
,
00020000
01000000
01000000
01000000
,
00230000
00001000
00302000
01000000
,
00023000
00001000
00001000
00001000
,
00230000
01000000
02300000
00001000
,
03200000
01000000
01000000
01000000
,
00320000
00001000
00032000
01000000
,
00203000
00001000
00001000
00001000
,
00310000
01000000
00100000
00001000
00100000
01000000
00010000
01010000
,
00010000
00000000
00000000
00010000
00100000
00010000
00100000
00000000
00000000
00000000
00000000
00000000
00000000
00000000
00000000
00000000
,
00001000
00000000
00100000
00001000
00000000
00010000
00000100
00010000
00001000
00000000
00101000
00000000
00101000
00000000
00000000
00000000
,
00000100
00000000
00001000
00000100
00000000
00100000
00010000
00100000
00001000
00000000
00000000
00000000
00100000
00000000
00000000
00000000
,
00001000
00000000
00000100
00001000
00000000
00010000
00100000
00010000
00001000
00000000
00001100
00000000
00001100
00000000
00000000
00000000
,
00001000
00001000
00010000
00010000
00000100
00001000
00000020
00000000
,
00010030
00000010
00000000
00010000
00000000
00000010
00001000
00000100
,
00001000
00000100
00001000
00000100
00002000
00000000
00000000
00000000
,
00003100
00010000
00000000
00000000
00011000
00000000
00000000
00000000
00000100
00000000
00001000
00000000
00010000
00000000
00000000
00000000
,
00000010
00000001
00000000
00000000
00000101
00000000
00000000
00000000
00000010
00000000
00000001
00000000
00000100
00000000
00000010
00000000
,
00001000
00000100
00000000
00000000
00000001
00000000
00000000
00000000
00000001
00000000
00000100
00000000
00001000
00000000
00000000
00000000
,
00000001
00000100
00000000
00000000
00001000
00000000
00000000
00000000
00001000
00000000
00000100
00000000
00000001
00000000
00001000
00000000
,
00000010
00001000
00000001
00000000
00001001
00000000
00000000
00000000
00000001
00000000
00000010
00000000
00001000
00000000
00000100
00000000
,
00000100
00000010
00010000
00000000
00010010
00000000
00000000
00000000
00010000
00000000
00000100
00000000
00000010
00000000
00001000
00000000
,
00000100
00001000
00000010
00000000
00001010
00000000
00000000
00000000
00000100
00001000
00010000
00000000
00011000
00000000
00000000
00000000
,
00021000
00000000
00000000
00000000
00030010
00000000
00001020
00000000
00000000
00000000
00001000
00000000
00001030
00000000
00010000
00000100
,
00002000
00000000
00000000
00000000
,
00000000
00000000
00000000
00000000
00000000
00003010
00000000
00010010
00000000
00000000
00000000
00000000
00000000
00000000
00000000
00000000
;

//---------------dance-double - G.Ramos----------------
#NOTES:
     dance-double:
     G.Ramos:
     Easy:
     3:
     0.236,0.243,0.178,0.388,0.008,67.000,11.000,24.000,0.000,0.000,0.000,0.236,0.243,0.178,0.388,0.008,67.000,11.000,24.000,0.000,0.000,0.000:
00000000
00000000
00000000
00000000
,
00000000
00000000
00000000
00000000
,
00000000
00000000
00000000
00000000
,
00000000
00000000
00000000
00000000
,
00000000
00000000
00000000
00000000
,
00000000
00000000
10010000
00000000
00000000
10010000
00000000
00000000
,
00000000
00000000
01100000
00000000
00000000
01100000
00000000
00000000
,
00000000
00000000
00110000
00000000
00000000
00110000
00000000
00000000
,
00010000
00001000
00010000
00001000
,
00022000
00000000
00000000
00033000
,
00001000
00010000
00001000
00001000
,
00002200
00000000
00000000
00003300
,
00000001
00001000
00000100
00000100
,
00000202
00000000
00000000
00000303
,
00000001
00000010
00000001
00000001
,
00000022
00000000
00000000
00000033
,
00000001
00000010
00000100
00001000
,
00010000
00000000
01000000
00200000
00000000
00000000
01000000
00000000
,
02300000
00000000
00000000
03000000
,
01000000
01000000
01000000
01000000
,
10000000
10000000
00100000
00100000
,
00010000
00010000
00001000
00011000
,
00000000
00000000
00000000
00001000
,
00000000
00000000
00000020
00000000
,
00000230
00000000
00002300
00000000
,
00003002
00000000
00000000
00000023
,
00002030
00000000
00023000
00000000
,
02030000
00000000
00000000
00000000
,
03020000
00000000
00032000
00000000
,
02003000
00000000
03200000
00000000
,
20300000
00000000
00000000
30000000
,
10000000
01000000
00100000
00010000
,
00002000
00000000
00000000
00000000
,
00000000
00000000
00000000
00000000
00000000
00000000
00000000
00013000
00000000
00000000
00000000
00000000
00000000
00000000
00000000
00000000
;
