#TITLE:Take A Chance;
#SUBTITLE:(Yu-Gi-Oh! ZEXAL Theme);
#ARTIST:Michael Brady, Shane Guenego, Arthur Murakami;
#TITLETRANSLIT:;
#SUBTITLETRANSLIT:;
#ARTISTTRANSLIT:;
#GENRE:;
#CREDIT:;
#BANNER:Take A Chance (Yu-Gi-Oh! ZEXAL Theme).png;
#BACKGROUND:Take A Chance (Yu-Gi-Oh! ZEXAL Theme)-bg.png;
#LYRICSPATH:;
#CDTITLE:;
#MUSIC:Take A Chance (Yu-Gi-Oh! ZEXAL Theme).ogg;
#OFFSET:1.308;
#SAMPLESTART:29.300;
#SAMPLELENGTH:12.000;
#LASTBEATHINT:0.924;
#SELECTABLE:YES;
#BPMS:0.000=180.000
;
#STOPS:
;
#BGCHANGES:3.938=[Vortexx Sims] Take A Chance (Yu-Gi-Oh! ZEXAL Theme).avi=1.000=0=0=0=StretchNoLoop====,
99999=-nosongbg-=1.000=0=0=0 // don't automatically add -songbackground-
;
#KEYSOUNDS:;
#ATTACKS:;

//---------------dance-single - G. Ramos----------------
#NOTES:
     dance-single:
     G. Ramos:
     Beginner:
     2:
     0.234,0.410,0.116,0.033,0.000,90.000,7.000,2.000,0.000,0.000,0.000,0.234,0.410,0.116,0.033,0.000,90.000,7.000,2.000,0.000,0.000,0.000:
0000
0000
0000
0000
,
0000
0000
0000
0000
,
0000
0000
0000
0000
,
0010
0000
0001
0000
,
1000
0000
0100
0000
,
0010
0000
1000
0000
,
0001
0000
0100
0000
,
0001
0000
1000
0000
,
0001
0000
1000
0000
,
0010
0000
0100
0000
,
0010
0000
0100
0000
,
1000
0000
0100
0000
,
1000
0000
0100
0000
,
0001
0000
0100
0000
,
0001
0000
0100
0000
,
0010
0000
0000
0000
,
0010
0010
0010
0000
,
0100
0000
0100
0000
,
0010
0000
0010
0000
,
0001
0000
0001
0000
,
1000
0000
1000
0000
,
0001
0000
0100
0000
,
2000
0000
0000
3000
,
1000
0000
0100
0000
,
1000
0000
0010
0000
,
1000
0000
0100
0000
,
1000
0000
0001
0001
,
0001
0000
0100
0100
,
0100
0000
0010
0010
,
0000
1000
1000
0000
,
1001
1001
1001
1001
,
1001
0000
0100
0000
,
0010
0000
0100
0000
,
1001
0000
0010
0000
,
0100
0000
0010
0000
,
0200
0000
0000
0000
,
0000
0000
0000
0300
,
0100
0000
0010
0000
,
0100
0100
0100
0000
,
0001
0000
1000
0000
,
0001
0001
0001
0000
,
0010
0000
0100
0000
,
0010
0010
0010
0000
,
1000
0000
0001
0000
,
1000
1000
1000
0000
,
1001
0000
0000
0000
;

//---------------dance-single - G. Ramos----------------
#NOTES:
     dance-single:
     G. Ramos:
     Easy:
     4:
     0.438,0.455,0.282,0.381,0.000,145.000,17.000,23.000,0.000,0.000,0.000,0.438,0.455,0.282,0.381,0.000,145.000,17.000,23.000,0.000,0.000,0.000:
0000
0000
0000
0000
,
0000
0000
0000
0000
,
0000
0000
0000
0000
,
1001
0100
0001
0100
,
1000
1000
0001
0001
,
1000
0100
0001
0100
,
0010
0010
0100
0100
,
0001
0100
0001
0100
,
1000
0100
1000
0100
,
0010
0001
0100
1000
,
0010
1000
0100
0001
,
0010
0001
1000
0100
,
0010
1000
0001
0100
,
0001
0001
1000
1000
,
0010
1000
0001
0100
,
2000
0100
0100
3100
,
0002
0010
0010
0003
,
1100
0101
1100
0000
,
0020
0100
1000
0130
,
0101
1100
0101
0000
,
0020
0100
0001
0130
,
1001
0110
1001
0000
,
0200
0000
0000
0000
,
0300
0000
0020
0000
,
2030
0000
3002
0000
,
0023
0000
0230
0000
,
2300
0000
0001
3001
,
0010
0001
1000
0100
,
0010
1000
0001
0100
,
0000
0100
0100
0100
,
0010
0001
0100
1000
,
2000
0100
0010
3000
,
1000
1000
1000
1000
,
0002
0100
0010
0003
,
1001
0110
1001
0110
,
1001
0000
0000
0100
0000
0000
0010
0000
,
1001
0000
0000
0010
0000
0000
0100
0000
,
2000
0001
0002
3003
,
1000
1000
0001
0001
,
0002
1000
2000
3003
,
0001
0001
1000
1000
,
0200
0010
0020
0330
,
0100
0100
0010
0010
,
0020
0100
0200
0330
,
0010
0010
0100
0100
,
2002
0000
0000
3003
;

//---------------dance-single - G. Ramos----------------
#NOTES:
     dance-single:
     G. Ramos:
     Medium:
     6:
     0.609,0.683,1.000,0.613,0.000,155.000,65.000,37.000,0.000,0.000,0.000,0.609,0.683,1.000,0.613,0.000,155.000,65.000,37.000,0.000,0.000,0.000:
0000
0000
0000
0000
,
0000
0000
0000
0000
,
0000
0000
0000
0000
,
1001
0100
0001
0100
,
1000
1000
0001
0001
,
1000
0100
0001
0100
,
0010
0001
0100
1000
,
1001
1100
1001
0101
,
1001
1010
1001
0011
,
1001
0100
1000
0100
,
0001
0001
1000
1000
,
0001
0100
1000
0100
,
0010
1000
0100
0001
,
1001
1100
1001
0101
,
1001
1010
1001
0011
,
2001
3100
1002
0103
,
2001
3010
1002
0013
,
1001
0000
0100
0100
0000
0000
0000
0010
,
0000
0001
0000
0100
0000
0000
1000
0000
,
1001
0000
0100
0100
0000
0000
0000
0010
,
0000
1000
0000
0100
0000
0000
0001
0000
,
1001
0000
0100
0100
0000
0010
0000
0020
,
0000
0000
0000
0000
,
0030
0000
2020
3030
,
0202
0303
0022
0033
,
2200
3300
0220
0330
,
2002
3003
1001
0110
,
1001
0000
0001
1000
0000
0000
0000
0001
,
0000
1000
0000
0001
0000
0000
0100
0000
,
0000
0000
1000
0000
1000
0000
1000
0001
,
0000
1000
0000
0001
0000
0000
0100
0000
,
0011
0000
0011
0000
2200
0000
3300
0011
,
0000
0011
0000
0022
0000
0033
1100
0000
,
1010
0000
1010
0000
0202
0000
0303
1010
,
0000
1010
0000
2020
0000
3030
0101
0000
,
2000
0000
3001
1000
0000
1000
0001
1000
,
0002
0000
1003
0001
0000
0100
0010
0000
,
1001
0000
0001
0100
0000
0010
0000
0100
,
0000
0010
0000
1000
0000
0100
0010
0000
,
1001
0000
1000
0100
0000
0010
0000
0100
,
0000
0010
0000
0001
0000
0100
0010
0000
,
1001
0000
1001
0000
0220
0000
0330
1001
,
0000
1001
0000
2002
0000
3003
0110
0000
,
0110
0000
0110
0000
2002
0000
3003
0110
,
0000
0110
0000
0220
0000
0330
1001
0000
,
2002
0000
0000
3003
;

//---------------dance-single - G. Ramos----------------
#NOTES:
     dance-single:
     G. Ramos:
     Hard:
     9:
     0.808,0.872,0.547,0.431,0.000,282.000,33.000,26.000,0.000,0.000,0.000,0.808,0.872,0.547,0.431,0.000,282.000,33.000,26.000,0.000,0.000,0.000: // measure 0
0000
0000
0000
0000
,  // measure 1
0000
0000
0000
0000
,  // measure 2
0000
0000
0000
0000
,  // measure 3
1001
0100
0010
0001
1000
0100
0010
0001
,  // measure 4
0001
0100
0010
1000
0001
0100
0010
1000
,  // measure 5
1000
0010
0100
0001
1000
0010
0100
0001
,  // measure 6
0001
0010
0100
1000
0001
0010
0100
1000
,  // measure 7
0010
1000
0100
1000
0010
0001
0100
0001
,  // measure 8
0010
1000
0100
0001
0010
0001
0100
1000
,  // measure 9
0010
0010
0100
0100
0001
0001
1000
1000
,  // measure 10
0010
0100
0001
1000
0010
0100
0001
1000
,  // measure 11
0100
0100
1000
1000
0001
0001
0010
0010
,  // measure 12
0100
1000
0001
0010
0100
0001
1000
0010
,  // measure 13
0001
0100
0001
0010
0001
0100
0001
0010
,  // measure 14
0001
0100
0001
0010
0001
1000
1001
0000
,  // measure 15
1000
0100
1000
0010
1000
0100
1000
0010
,  // measure 16
1000
0100
1000
0010
1000
0001
1001
0000
,  // measure 17
1000
0001
0100
2000
0000
3200
0000
0302
,  // measure 18
0000
0013
0001
0020
0000
0100
0130
0000
,  // measure 19
0001
1000
0100
0002
0000
0203
0000
2300
,  // measure 20
0000
3020
0000
0230
0000
0001
0301
0000
,  // measure 21
1000
0001
1000
0002
0000
1000
1003
2002
,  // measure 22
0000
0000
0000
3003
,  // measure 23
0120
0130
0020
0001
,  // measure 24
2030
0010
3200
0001
,  // measure 25
0320
1000
0032
0010
,  // measure 26
0203
0000
0001
0001
0301
0000
1000
0001
,  // measure 27
1000
0100
0001
1000
0010
0001
1000
0100
,  // measure 28
0001
1000
0010
0001
0100
0100
0200
0000
,  // measure 29
0000
0310
0001
0100
0001
0010
1000
0001
,  // measure 30
0100
1000
0001
0010
0100
0100
0100
0000
,  // measure 31
0010
1000
0010
0100
0010
0001
0010
0100
,  // measure 32
0010
1000
0010
0100
0010
0001
1010
0000
,  // measure 33
0010
0001
0010
0100
0010
1000
0010
0100
,  // measure 34
0010
0001
0010
0100
0010
1000
0011
0000
,  // measure 35
2001
0000
0001
3002
0000
1003
1001
0000
,  // measure 36
0120
0000
0130
0200
0000
0310
0110
0000
,  // measure 37
1000
1000
0100
0100
0010
0010
0001
0001
,  // measure 38
1000
0100
0010
0001
1000
0100
0010
0001
,  // measure 39
0100
0100
0001
0001
1000
1000
0010
0010
,  // measure 40
0101
0100
0110
0010
1010
1000
1001
0000
,  // measure 41
1000
0001
1001
1001
0000
0101
0101
1010
,  // measure 42
0000
1100
1100
0011
0000
0100
0010
0000
,  // measure 43
0001
1000
1001
1001
0000
0011
0011
1100
,  // measure 44
0000
1010
1010
0101
0000
0100
0110
0010
,  // measure 45
2002
0000
0000
3003
;

//---------------dance-double - G. Ramos----------------
#NOTES:
     dance-double:
     G. Ramos:
     Medium:
     6:
     0.599,0.683,1.000,0.613,0.000,155.000,61.000,37.000,0.000,0.000,0.000,0.599,0.683,1.000,0.613,0.000,155.000,61.000,37.000,0.000,0.000,0.000:
00000000
00000000
00000000
00000000
,
00000000
00000000
00000000
00000000
,
00000000
00000000
00000000
00000000
,
10010000
01000000
00010000
01000000
,
10000000
10000000
00010000
00010000
,
10000000
01000000
00010000
01000000
,
00010000
00001000
00100000
01000000
,
01001000
01100000
01001000
00101000
,
01001000
01010000
01001000
00011000
,
01001000
00100000
01000000
00100000
,
00000100
00000100
00100000
00100000
,
00000100
00010000
00100000
00010000
,
00001000
00100000
00010000
00000100
,
00100000
00110000
00100000
00010100
,
00010010
00010100
00010010
00000110
,
00020010
00031000
00010020
00001030
,
00020010
00030100
00010020
00000130
,
00010010
00000000
00001000
00001000
00000000
00000000
00000000
00000100
,
00000000
00000001
00000000
00000100
00000000
00000000
00001000
00000000
,
00001001
00000000
00000100
00000100
00000000
00000000
00000000
00000010
,
00000000
00001000
00000000
00000100
00000000
00000000
00000001
00000000
,
00001001
00000000
00000100
00000100
00000000
00000010
00000000
00000020
,
00000000
00000000
00000000
00000000
,
00000030
00000000
00020200
00030300
,
00002020
00003030
00000220
00000330
,
00022000
00033000
00002200
00003300
,
00020020
00030030
00010010
00001100
,
00100000
00000000
00000100
00100000
00000000
00000000
00000000
00000100
,
00000000
00100000
00000000
00000100
00000000
00000000
00010000
00000000
,
00000000
00000000
00100000
00000000
00100000
00000000
00100000
00000100
,
00000000
00100000
00000000
00000100
00000000
00000000
00010000
00000000
,
00011000
00000000
00011000
00000000
02200000
00000000
03300000
00011000
,
00000000
00011000
00000000
00022000
00000000
00033000
01100000
00000000
,
01010000
00000000
01010000
00000000
00202000
00000000
00303000
01010000
,
00000000
01010000
00000000
02020000
00000000
03030000
00101000
00000000
,
20000000
00000000
30010000
10000000
00000000
10000000
00010000
10000000
,
00020000
00000000
10030000
00010000
00000000
01000000
00100000
00000000
,
10010000
00000000
00010000
01000000
00000000
00100000
00000000
01000000
,
00000000
00100000
00000000
10000000
00000000
01000000
00100000
00000000
,
01001000
00000000
01000000
00100000
00000000
00010000
00000000
00100000
,
00000000
00010000
00000000
00001000
00000000
00100000
00010000
00000000
,
01001000
00000000
01001000
00000000
00220000
00000000
00330000
01001000
,
00000000
01001000
00000000
02002000
00000000
03003000
00110000
00000000
,
00011000
00000000
00011000
00000000
00200200
00000000
00300300
00011000
,
00000000
00011000
00000000
00022000
00000000
00033000
00100000
00000000
,
00200200
00000000
00000000
00300300
;

//---------------dance-double - G. Ramos----------------
#NOTES:
     dance-double:
     G. Ramos:
     Hard:
     9:
     0.808,0.872,0.547,0.431,0.000,282.000,33.000,26.000,0.000,0.000,0.000,0.808,0.872,0.547,0.431,0.000,282.000,33.000,26.000,0.000,0.000,0.000:
00000000
00000000
00000000
00000000
,
00000000
00000000
00000000
00000000
,
00000000
00000000
00000000
00000000
,
10010000
01000000
00100000
00010000
10000000
01000000
00100000
00010000
,
00010000
01000000
00100000
10000000
00010000
01000000
00100000
10000000
,
10000000
00100000
01000000
00010000
10000000
00100000
01000000
00010000
,
00001000
00010000
00100000
01000000
00001000
00010000
00100000
01000000
,
00010000
01000000
00100000
01000000
00010000
00001000
00100000
00001000
,
00010000
01000000
00100000
00001000
00010000
00001000
00100000
01000000
,
00010000
00010000
00100000
00100000
00001000
00001000
01000000
01000000
,
00001000
00010000
00000100
00100000
00001000
00010000
00000100
00100000
,
00010000
00010000
00100000
00100000
00000100
00000100
00001000
00001000
,
00010000
00100000
00000100
00001000
00010000
00000100
00100000
00001000
,
00000100
00010000
00000100
00001000
00000100
00010000
00000100
00001000
,
00000010
00001000
00000010
00000100
00000010
00010000
00010010
00000000
,
00010000
00001000
00010000
00000100
00010000
00001000
00010000
00000100
,
00010000
00001000
00010000
00000100
00010000
00000010
00010010
00000000
,
00010000
00000010
00001000
00020000
00000000
00032000
00000000
00003020
,
00000000
00000130
00000010
00000200
00000000
00001000
00001300
00000000
,
00000001
00001000
00000100
00000002
00000000
00000203
00000000
00002300
,
00000000
00003020
00000000
00000230
00000000
00000001
00000301
00000000
,
00001000
00000001
00001000
00000002
00000000
00001000
00001003
00002002
,
00000000
00000000
00000000
00003003
,
00000120
00000130
00000020
00000001
,
00002030
00000010
00003200
00000001
,
00000320
00001000
00000032
00000010
,
00000203
00000000
00000001
00000001
00000301
00000000
00001000
00000001
,
00010000
00001000
00000010
00010000
00000100
00000010
00010000
00001000
,
00000010
00010000
00000100
00000010
00001000
00001000
00002000
00000000
,
00000000
00003100
00000010
00001000
00000010
00000100
00010000
00000010
,
00001000
00010000
00000010
00000100
00001000
00001000
00001000
00000000
,
00001000
00100000
00001000
00010000
00001000
00000100
00001000
00010000
,
00001000
00100000
00001000
00010000
00001000
00000100
00101000
00000000
,
00001000
00000100
00001000
00010000
00001000
00100000
00001000
00010000
,
00001000
00000100
00001000
00010000
00001000
00100000
00001100
00000000
,
02001000
00000000
00001000
03002000
00000000
01003000
01001000
00000000
,
00120000
00000000
00130000
00200000
00000000
00310000
00110000
00000000
,
01000000
01000000
00100000
00100000
00010000
00010000
00001000
00001000
,
01000000
00100000
00010000
00001000
01000000
00100000
00010000
00001000
,
01000000
01000000
00010000
00010000
10000000
10000000
00100000
00100000
,
01010000
01000000
01100000
00100000
10100000
10000000
10010000
00000000
,
10000000
00010000
10010000
10010000
00000000
01010000
01010000
10100000
,
00000000
11000000
11000000
00110000
00000000
01000000
00100000
00000000
,
00001000
01000000
01001000
01001000
00000000
00011000
00011000
01100000
,
00000000
01010000
01010000
00101000
00000000
00100000
00110000
00010000
,
02002000
00000000
00000000
03003000
;

//---------------dance-double - G. Ramos----------------
#NOTES:
     dance-double:
     G. Ramos:
     Easy:
     5:
     0.443,0.531,0.597,0.149,0.000,142.000,36.000,9.000,0.000,0.000,0.000,0.443,0.531,0.597,0.149,0.000,142.000,36.000,9.000,0.000,0.000,0.000:
00000000
00000000
00000000
00000000
,
00000000
00000000
00000000
00000000
,
00000000
00000000
00000000
00000000
,
00100000
00100000
01000000
01000000
,
00100000
00100000
01000000
01000000
,
10000000
10000000
00010000
00010000
,
10000000
10000000
00010000
00010000
,
01000000
01000000
00001000
00001000
,
00000100
00000100
00010000
00010000
,
00001001
00000000
00000010
00000010
,
00000010
00000000
00000100
00000100
,
00000100
00000000
00000001
00000001
,
00001000
00000001
00001000
00000001
,
00000001
00000001
00000100
00000100
,
00000101
00000101
00000101
00000101
,
00000010
00000010
00001000
00001000
,
00001010
00001010
00001010
00001010
,
00001000
00000000
00010000
00010000
00000000
00000000
00000000
00000000
,
00010000
01000000
00100000
10000000
,
00100000
00000000
01000000
01000000
00000000
00000000
00000000
00000000
,
10000000
01000000
00100000
00010000
,
01000000
00000000
01000000
00010000
00000000
00010000
00000000
00020000
,
00000000
00000000
00000000
00000000
,
00030000
00000000
00002000
00000000
,
00203000
00000000
00320000
00000000
,
00030020
00000000
00000032
00000000
,
00000203
00000000
00000001
00000001
,
00000301
00001000
00000001
00000000
,
00001001
00001001
00001001
00001001
,
00000000
00000010
00000001
00000000
,
00000011
00000011
00001001
00001001
,
00001100
00011000
01010000
00000000
,
00010000
01000000
00100000
10000000
,
11000000
10100000
00110000
00000000
,
00100000
00010000
00001000
00000010
,
00000100
00000000
00000000
00000010
00000000
00000000
00000100
00000000
,
00000010
00000000
00000000
00000100
00000000
00000000
00000010
00000000
,
00001100
00000101
00000011
00000000
,
00001000
00000100
00000001
00000010
,
00001010
00011000
00110000
00000000
,
00000010
00001000
00010000
00100000
,
00110000
10100000
11000000
00000000
,
00010000
00100000
10000000
01000000
,
01010000
00011000
00001100
00000000
,
01000000
00010000
00001000
00000100
,
00022000
00000000
00000000
00033000
;
