#TITLE:Power Rangers Lost Galaxy Theme;
#SUBTITLE:;
#ARTIST:Shuki Levy and Jeremy Sweet;
#TITLETRANSLIT:;
#SUBTITLETRANSLIT:;
#ARTISTTRANSLIT:;
#GENRE:;
#CREDIT:;
#BANNER:Power Rangers Lost Galaxy Theme.png;
#BACKGROUND:Power Rangers Lost Galaxy Theme-bg.png;
#LYRICSPATH:;
#CDTITLE:;
#MUSIC:Power Rangers Lost Galaxy Theme.ogg;
#OFFSET:0.950;
#SAMPLESTART:0.010;
#SAMPLELENGTH:12.000;
#SELECTABLE:YES;
#BPMS:0.000=180.000;
#STOPS:48.000=1.000
,77.000=1.000
,150.000=0.640
;
#TIMESIGNATURES:0.000=4=4
;
#BGCHANGES:1.750=prlgt1.avi=1.000=0=0=0=StretchNoLoop====,
99999=-nosongbg-=1.000=0=0=0 // don't automatically add -songbackground-
;
#KEYSOUNDS:;

//---------------dance-single - Gabe (Zenius-I-vanisher.com)----------------
#NOTES:
     dance-single:
     Gabe (Zenius-I-vanisher.com):
     Hard:
     8:
     0.722,1.000,0.944,0.641,0.000,206.000,56.000,38.000,0.000,0.000,0.000,0.722,1.000,0.944,0.641,0.000,206.000,56.000,38.000,0.000,0.000,0.000: // measure 1
0000
0000
0000
0000
,  // measure 2
0000
0000
0000
0000
,  // measure 3
0020
0000
0130
0100
,  // measure 4
0001
2000
0000
0200
0000
0000
0000
0000
,  // measure 5
0000
0000
3000
0310
,  // measure 6
1001
0100
0010
0001
1000
0100
0010
0001
,  // measure 7
1000
0010
0100
0001
1000
0010
0100
0001
,  // measure 8
0010
0001
0100
1000
0100
0001
0010
1000
,  // measure 9
0010
0001
1000
0100
1000
0010
0100
0001
,  // measure 10
0101
0000
1000
0010
1010
0000
0101
0000
,  // measure 11
1001
0000
0001
0010
0011
0000
1100
0000
,  // measure 12
1001
0000
0010
0100
0110
0000
1001
0000
,  // measure 13
2002
3003
0110
1000
0100
0010
0001
0100
,  // measure 14
0010
1000
0100
0010
0001
0100
0010
1000
,  // measure 15
0100
0010
0001
1000
0001
1000
0100
1000
,  // measure 16
0100
1000
0010
1000
0100
0001
0100
1000
,  // measure 17
0010
0001
0011
0000
1000
0010
1010
0000
,  // measure 18
1100
0000
1010
0000
0001
0010
0011
0000
,  // measure 19
0101
0000
0011
0000
1000
0001
1001
0000
,  // measure 20
0110
0000
0220
0330
2010
0000
0000
0000
,  // measure 21
0100
0100
3100
0000
0102
0000
0000
0000
,  // measure 22
0100
0100
0103
0000
2000
0000
0000
0000
,  // measure 23
0100
0100
0100
0000
0002
0000
0000
0000
,  // measure 24
0000
0000
3003
0000
0002
0010
0010
0010
,  // measure 25
0010
0010
0010
0013
2000
0100
0100
0100
,  // measure 26
0100
0100
0100
3100
1100
1100
0000
0001
,  // measure 27
1000
0101
0011
1010
,  // measure 28
1100
0000
1001
0000
1000
0001
1000
0001
,  // measure 29
2000
0000
0001
0000
3001
0010
1000
0200
,  // measure 30
0000
0010
0310
0000
0011
0011
0000
1000
,  // measure 31
0001
1100
1010
0011
,  // measure 32
0101
0000
1001
0000
0010
0100
0010
0100
,  // measure 33
0020
0000
0100
0000
0130
0010
1000
0002
,  // measure 34
0000
1000
1003
0000
1100
0011
0000
0101
,  // measure 35
1010
0000
1001
0000
0220
0330
2002
3003
,  // measure 36
2020
3030
0022
0033
2200
3300
0202
0303
,  // measure 37
2001
0000
0001
0000
3001
1000
0010
0100
,  // measure 38
0010
1000
0001
0100
2002
3003
1010
1010
,  // measure 39
1020
0000
0000
0000
0000
0000
0000
0030
,  // measure 40
0201
0000
0010
0310
,  // measure 41
1000
0002
0000
0200
0000
0000
0000
0000
,  // measure 42
0000
0000
0000
0303
,  // measure 43
2002
0000
0000
3003
;

//---------------dance-single - Gabe (Zenius-I-vanisher.com)----------------
#NOTES:
     dance-single:
     Gabe (Zenius-I-vanisher.com):
     Beginner:
     2:
     0.164,0.177,0.067,0.000,0.000,64.000,4.000,0.000,0.000,0.000,0.000,0.164,0.177,0.067,0.000,0.000,64.000,4.000,0.000,0.000,0.000,0.000:
0000
0000
0000
0000
,
0000
0000
0000
0000
,
0000
0000
0000
0000
,
0000
0000
0000
0000
,
0000
0000
0000
0000
,
1000
0000
1000
0000
,
0001
0000
0001
0000
,
1000
0000
1000
0000
,
0001
0000
0001
0000
,
0010
0000
0000
0000
,
0100
0000
0000
0000
,
1000
0000
0000
0000
,
0001
0001
0000
0001
,
0000
1000
0000
1000
,
0000
0001
0000
1000
,
0000
0001
0000
1000
,
0000
0010
0000
0000
,
0000
0100
0000
0000
,
0000
0001
0000
0000
,
0000
1000
1000
0000
,
0000
0000
0100
0000
,
0010
0010
0010
0000
,
0000
0000
0001
0000
,
0000
0000
0100
0000
,
0000
0000
0010
0000
,
0000
0000
1001
0000
,
0000
0000
0010
0010
,
0010
0000
0100
0100
,
0100
0000
0010
0000
,
0100
0000
0110
0000
,
0000
0000
0100
0100
,
0100
0000
0010
0010
,
0010
0000
0100
0000
,
0010
0000
1001
0000
,
0000
0000
1000
1000
,
1000
0000
0001
0001
,
0001
0000
1000
0000
,
0001
0000
1001
0000
,
0010
0000
0000
0000
,
0100
0000
0000
0000
,
0010
0000
0000
0000
,
0000
0000
0000
0000
,
0100
0000
0000
0000
;

//---------------dance-single - Gabe (Zenius-I-vanisher.com)----------------
#NOTES:
     dance-single:
     Gabe (Zenius-I-vanisher.com):
     Medium:
     6:
     0.436,0.496,0.152,0.725,0.000,129.000,9.000,43.000,0.000,0.000,0.000,0.436,0.496,0.152,0.725,0.000,129.000,9.000,43.000,0.000,0.000,0.000:
0000
0000
0000
0000
,
0000
0000
0000
0000
,
2000
0000
0100
3100
,
1000
0002
0000
2000
0000
0000
0000
0000
,
0000
0000
0000
3003
,
1001
0000
0000
0000
0010
0100
0000
0010
,
0000
0000
0000
0000
1000
0001
0000
1000
,
0000
0000
0000
0000
0001
1000
0000
0002
,
0000
0023
0000
0230
0000
2300
0000
3002
,
0000
0000
0100
0100
0103
0000
0010
0000
,
0120
0000
1000
1000
1030
0000
0100
0000
,
0102
0000
0010
0010
0013
0000
1000
0000
,
0002
0003
0101
0000
0000
0000
1000
0100
,
0000
0010
0000
0000
0000
0000
0001
0100
,
0000
0010
0000
0000
1000
0000
0100
1000
,
0000
0020
0000
0000
2030
0000
3002
0103
,
0000
2001
0000
0000
0010
0010
0010
0000
,
3100
0000
1002
0000
0010
0010
0010
0000
,
0103
0000
0120
0000
0100
0100
0100
0000
,
1030
0000
0020
0030
0020
0000
0000
0000
,
0000
0000
0230
0000
,
0302
0023
0230
0000
,
0000
0000
0320
0000
,
0000
0000
0032
0000
,
0000
0000
2000
0000
,
0000
0000
3003
0000
1000
0001
0000
0001
,
1000
0001
1000
0100
,
1000
0200
0001
0001
,
0001
0000
0300
0000
0001
2000
0000
0001
,
0000
0000
3000
0000
0001
1000
0000
1000
,
0001
1000
0001
0100
,
0001
0200
1000
1000
,
1000
0000
0300
0000
1000
0002
0000
1000
,
0000
0000
0003
0000
1000
0100
0000
0010
,
0001
0100
0020
2030
,
3200
0320
0032
2003
,
0002
0000
3000
0000
1000
1000
0000
1000
,
0000
0000
0003
0000
0220
0330
0010
1000
,
0200
0000
0000
0000
,
2300
0000
0001
3001
,
0001
0020
0000
0200
0000
0000
0000
0000
,
0000
0000
0000
0330
,
0110
0000
0000
0000
;

//---------------dance-single - Gabe (Zenius-I-vanisher.com)----------------
#NOTES:
     dance-single:
     Gabe (Zenius-I-vanisher.com):
     Easy:
     5:
     0.282,0.389,0.152,0.253,0.000,93.000,9.000,15.000,0.000,0.000,0.000,0.282,0.389,0.152,0.253,0.000,93.000,9.000,15.000,0.000,0.000,0.000:
0000
0000
0000
0000
,
0000
0000
0000
0000
,
0000
0000
0000
0000
,
0000
0000
0000
0000
,
0010
0010
0010
0010
,
0100
0000
0100
0001
,
1000
0000
0100
1000
,
0001
0000
0100
0001
,
0010
1000
0100
0001
,
0101
0000
0000
0000
,
1010
0000
0000
0000
,
0011
0000
0000
0000
,
1100
0001
0000
1000
,
0100
0001
0000
0001
,
0100
1000
0000
1000
,
0010
0001
0000
0001
,
0010
1100
0000
0000
,
0000
0101
0000
0000
,
0000
1001
0000
0000
,
0000
0110
0020
0000
,
0000
0000
2000
0000
,
0000
0030
0002
0000
,
0000
3000
0200
0000
,
0000
0303
0100
0100
,
0100
0100
0100
0100
,
0100
0000
0100
0000
0010
0100
0000
0000
,
0000
0000
1000
0001
,
1000
0001
2000
0001
,
0001
3000
0002
1000
,
1000
0000
0003
0000
0010
0100
0000
0000
,
0000
0000
0001
1000
,
0001
1000
0002
1000
,
1000
0003
2000
0001
,
0001
0000
3000
0000
0010
0100
0000
0001
,
1000
0000
2000
3002
,
2003
3002
1000
1000
,
1000
0003
0010
0001
,
0100
1000
1001
0000
,
0020
0000
0000
0000
,
0200
0000
0000
0030
,
2000
0000
0000
0000
,
0000
0000
0000
0300
,
3001
0000
0000
0000
;

//---------------dance-double - Automatic----------------
#NOTES:
     dance-double:
     Automatic:
     Hard:
     8:
     0.713,1.000,0.876,0.641,0.000,206.000,52.000,38.000,0.000,0.000,0.000,0.713,1.000,0.876,0.641,0.000,206.000,52.000,38.000,0.000,0.000,0.000:
00000000
00000000
00000000
00000000
,
00000000
00000000
00000000
00000000
,
00200000
00000000
01300000
01000000
,
00010000
20000000
00000000
02000000
00000000
00000000
00000000
00000000
,
00000000
00000000
30000000
03100000
,
01001000
00100000
00010000
00001000
01000000
00100000
00010000
00001000
,
01000000
00010000
00100000
00001000
01000000
00010000
00100000
00001000
,
00010000
00001000
00100000
01000000
00100000
00001000
00010000
01000000
,
00010000
00001000
01000000
00100000
01000000
00010000
00100000
00001000
,
00010100
00000000
00100000
00001000
00101000
00000000
00010100
00000000
,
00100000
00000000
00000100
00001000
00001100
00000000
00110000
00000000
,
00100000
00000000
00001000
00010000
00011000
00000000
00100000
00000000
,
00200200
00300300
00011000
00100000
00010000
00001000
00000100
00010000
,
00000100
00010000
00001000
00000100
00000010
00001000
00000100
00010000
,
00001000
00000100
00000010
00010000
00000010
00010000
00001000
00010000
,
00001000
00010000
00000100
00010000
00001000
00000010
00001000
00010000
,
00000100
00000010
00000110
00000000
00010000
00000100
00010100
00000000
,
00001100
00000000
00001010
00000000
00000001
00000010
00000011
00000000
,
00000101
00000000
00000011
00000000
00001000
00000001
00001001
00000000
,
00000110
00000000
00000220
00000330
00002010
00000000
00000000
00000000
,
00000100
00000100
00003100
00000000
00000102
00000000
00000000
00000000
,
00000100
00000100
00000103
00000000
00002000
00000000
00000000
00000000
,
00000100
00000100
00000100
00000000
00000002
00000000
00000000
00000000
,
00000000
00000000
00003003
00000000
00000020
00000100
00000100
00000100
,
00000100
00000100
00000100
00000130
00020000
00001000
00001000
00001000
,
00001000
00001000
00001000
00031000
00011000
00011000
00000000
00000010
,
00010000
00001010
00000110
00010100
,
00110000
00000000
00100000
00000000
00100000
00000100
00100000
00000100
,
00200000
00000000
00000100
00000000
00300100
00001000
00100000
00020000
,
00000000
00001000
00031000
00000000
00001100
00001100
00000000
00100000
,
00000100
00110000
00101000
00001100
,
00101000
00000000
01001000
00000000
00010000
00100000
00010000
00100000
,
00020000
00000000
00100000
00000000
00130000
00010000
01000000
00002000
,
00000000
01000000
01003000
00000000
01100000
00011000
00000000
00101000
,
01010000
00000000
01001000
00000000
00220000
00330000
02002000
03003000
,
20200000
30300000
00220000
00330000
22000000
33000000
02020000
03030000
,
20010000
00000000
00010000
00000000
30010000
10000000
00100000
01000000
,
00100000
10000000
00010000
01000000
20020000
30030000
10100000
10100000
,
10200000
00000000
00000000
00000000
00000000
00000000
00000000
00300000
,
00201000
00000000
00010000
00310000
,
01000000
00002000
00000000
00200000
00000000
00000000
00000000
00000000
,
00000000
00000000
00000000
00303000
,
02002000
00000000
00000000
03003000
;

//---------------dance-double - Automatic----------------
#NOTES:
     dance-double:
     Automatic:
     Medium:
     6:
     0.436,0.496,0.152,0.725,0.000,129.000,9.000,43.000,0.000,0.000,0.000,0.436,0.496,0.152,0.725,0.000,129.000,9.000,43.000,0.000,0.000,0.000:
00000000
00000000
00000000
00000000
,
00000000
00000000
00000000
00000000
,
20000000
00000000
01000000
31000000
,
10000000
00020000
00000000
20000000
00000000
00000000
00000000
00000000
,
00000000
00000000
00000000
30030000
,
10010000
00000000
00000000
00000000
00100000
01000000
00000000
00100000
,
00000000
00000000
00000000
00000000
01000000
00001000
00000000
01000000
,
00000000
00000000
00000000
00000000
00001000
01000000
00000000
00002000
,
00000000
00023000
00000000
00230000
00000000
02300000
00000000
03002000
,
00000000
00000000
00100000
00100000
00103000
00000000
00010000
00000000
,
00012000
00000000
00100000
00100000
00103000
00000000
00010000
00000000
,
00010200
00000000
00001000
00001000
00001300
00000000
00100000
00000000
,
00000200
00000300
00010100
00000000
00000000
00000000
00100000
00010000
,
00000000
00001000
00000000
00000000
00000000
00000000
00000100
00010000
,
00000000
00000100
00000000
00000000
00010000
00000000
00001000
00010000
,
00000000
00000200
00000000
00000000
00020300
00000000
00030020
00001030
,
00000000
00020010
00000000
00000000
00000100
00000100
00000100
00000000
,
00031000
00000000
00010020
00000000
00000100
00000100
00000100
00000000
,
00001030
00000000
00001200
00000000
00001000
00001000
00001000
00000000
,
00010300
00000000
00000200
00000300
00000200
00000000
00000000
00000000
,
00000000
00000000
00002300
00000000
,
00003020
00000230
00002300
00000000
,
00000000
00000000
00003200
00000000
,
00000000
00000000
00000320
00000000
,
00000000
00000000
00020000
00000000
,
00000000
00000000
00030030
00000000
00001000
00000001
00000000
00000001
,
00001000
00000001
00001000
00000100
,
00001000
00000200
00000001
00000001
,
00000001
00000000
00000300
00000000
00000001
00002000
00000000
00000001
,
00000000
00000000
00003000
00000000
00000010
00010000
00000000
00010000
,
00000010
00010000
00000010
00001000
,
00000010
00002000
00010000
00010000
,
00010000
00000000
00003000
00000000
00010000
00000020
00000000
00010000
,
00000000
00000000
00000030
00000000
00100000
00010000
00000000
00001000
,
00000100
00010000
00002000
00203000
,
00320000
00032000
00003200
00200300
,
00000200
00000000
00300000
00000000
00100000
00100000
00000000
00100000
,
00000000
00000000
00000300
00000000
00220000
00330000
00010000
01000000
,
00200000
00000000
00000000
00000000
,
02300000
00000000
00001000
03001000
,
00001000
00020000
00000000
00200000
00000000
00000000
00000000
00000000
,
00000000
00000000
00000000
00330000
,
01100000
00000000
00000000
00000000
;

//---------------dance-double - Gabe (Zenius-I-vanisher.com)----------------
#NOTES:
     dance-double:
     Gabe (Zenius-I-vanisher.com):
     Easy:
     5:
     0.260,0.283,0.034,0.253,0.000,91.000,2.000,15.000,0.000,0.000,0.000,0.260,0.283,0.034,0.253,0.000,91.000,2.000,15.000,0.000,0.000,0.000:
00000000
00000000
00000000
00000000
,
00000000
00000000
00000000
00000000
,
00000000
00000000
00000000
00000000
,
00000000
00000000
00000000
00000000
,
00010000
00001000
00010000
00001000
,
00011000
00000000
00010000
01000000
,
10000000
00000000
10000000
01000000
,
00010000
00000000
00001000
00000100
,
00000001
00000100
00001000
00000100
,
00000010
00000000
00000000
00000000
00000000
00000000
00000000
00000010
,
00001000
00000000
00000000
00000000
00000000
00000000
00000000
00001000
,
00010000
00000000
00000000
00000000
00000000
00000000
00000000
00010000
,
00100000
00000000
00000000
00000000
,
00100000
00000000
10000000
00100000
,
00010000
00000000
01000000
00010000
,
00001000
00010000
00000010
00001000
,
00000001
00000000
00000000
00000000
,
00000000
00001000
00010000
00000000
00000000
00000000
00000000
00000000
,
00000000
00010000
00100000
00000000
00000000
00000000
00000000
00000000
,
00000000
10000000
01000000
00000000
00020000
00000000
00000000
00000000
,
00000000
00000000
20030000
00000000
,
00000000
00000000
32000000
00000000
,
00000000
00000000
03002000
00000000
,
00000000
00000000
00003002
00000000
,
00000000
00000000
00000203
00000000
,
00000000
00000000
00000000
00000000
00001300
00010000
00000000
00000000
,
00000000
00000000
10000000
00100000
,
01000000
00010000
00002000
00010000
,
00000010
00003000
00000200
00000010
,
00001000
00000000
00000300
00000000
00001000
00010000
00000000
00000000
,
00000000
00000000
00100000
00010000
,
10000000
01000000
00200000
01000000
,
01000000
00300000
02000000
00010000
,
00010000
00000000
03000000
00000000
00100000
01000000
00000000
00001000
,
00010000
00000000
00010000
01000000
,
00001000
00000100
00000020
00000001
,
00000001
00000030
00000002
00000100
,
00000100
00000003
00001100
00010000
,
00002000
00000000
00000000
00000000
,
00020000
00000000
00000000
00003000
,
00000200
00000000
00000000
00000000
,
00000000
00000000
00000000
00030000
,
01000300
00000000
00000000
00000000
;
