#TITLE:Justice League Unlimited Theme;
#SUBTITLE:;
#ARTIST:Michael McCuistion;
#TITLETRANSLIT:;
#SUBTITLETRANSLIT:;
#ARTISTTRANSLIT:;
#GENRE:;
#CREDIT:;
#BANNER:Justice League Unlimited Theme.png;
#BACKGROUND:Justice League Unlimited Theme-bg.png;
#LYRICSPATH:;
#CDTITLE:;
#MUSIC:Justice League Unlimited Theme.ogg;
#OFFSET:3.268;
#SAMPLESTART:19.269;
#SAMPLELENGTH:12.000;
#SELECTABLE:YES;
#BPMS:0.000=70.000,20.000=88.000,28.000=177.000;
#STOPS:;
#TIMESIGNATURES:0.000=4=4
;
#BGCHANGES:3.625=Justice League Unlimited Theme.avi=1.000=0=0=0=StretchNoLoop====,
99999=-nosongbg-=1.000=0=0=0 // don't automatically add -songbackground-
;
#KEYSOUNDS:;

//---------------dance-single - G.Ramos----------------
#NOTES:
     dance-single:
     G.Ramos:
     Beginner:
     1:
     0.129,0.163,0.000,0.000,0.000,55.000,0.000,0.000,0.000,0.000,0.000,0.129,0.163,0.000,0.000,0.000,55.000,0.000,0.000,0.000,0.000,0.000:
0000
0000
0000
0000
,
0000
0000
0000
0000
,
0000
0000
0000
0000
,
0010
0000
0000
0000
,
0000
0000
0000
0000
,
0010
0000
0010
0000
,
0010
0000
0010
0000
,
0010
0010
0000
0000
,
0010
0010
0000
0000
,
0010
0010
0000
0010
,
0010
0000
0000
0000
,
0010
0010
0000
0000
,
0010
0010
0000
0010
,
0010
0000
0010
0010
,
0010
0000
0000
0000
,
0010
0010
0000
0000
,
0010
0010
0000
0000
,
0010
0010
0000
0010
,
0010
0000
0000
0000
,
0010
0010
0000
0000
,
0010
0010
0000
0010
,
0010
0000
0010
0010
,
0010
0000
0000
0000
,
0010
0000
0010
0000
,
0010
0000
0000
0000
,
0010
0000
0010
0000
,
0010
0000
0000
0000
,
0010
0000
0010
0000
,
0010
0000
0000
0000
,
0010
0000
0010
0000
,
0010
0000
0000
0000
,
0010
0000
0010
0000
,
0010
0000
0000
0000
,
0010
0000
0000
0000
;

//---------------dance-single - G.Ramos----------------
#NOTES:
     dance-single:
     G.Ramos:
     Hard:
     8:
     0.501,0.571,0.411,0.313,0.074,169.000,25.000,19.000,0.000,0.000,0.000,0.501,0.571,0.411,0.313,0.074,169.000,25.000,19.000,0.000,0.000,0.000:
0000
0000
0000
0000
,
0000
0000
0000
0000
,
0000
0000
0000
0000
0000
0000
0000
0000
0000
0000
0000
0000
0000
0000
0001
0010
,
0200
0000
0000
0000
0000
0000
1300
0010
0200
0000
0000
0000
0000
0000
0000
0000
,
0301
0001
0000
0000
1100
0000
0000
0000
0101
0000
0000
0000
0110
0000
0000
0000
,
1001
0000
0000
0110
0000
0000
1001
0000
0000
0000
0010
0100
0010
0100
0010
0000
,
0110
0000
0000
1001
0000
0000
0110
0000
0000
0000
0100
0010
0100
0010
0100
0000
,
1000
0100
0001
0100
1000
0000
0011
0000
,
0001
0100
1000
0100
0001
0000
1010
0000
,
0010
0100
0001
0000
0010
0100
1000
0000
,
2002
0000
0000
3003
,
1000
0010
0001
0010
1000
0000
0101
0000
,
0001
0010
1000
0010
0001
0000
1000
0010
,
0201
0000
0001
0001
0302
0000
1003
0000
,
2002
0000
0000
3003
,
1000
0010
1010
0100
1000
0010
1010
0000
,
0001
0010
0011
0100
0001
0010
0011
0000
,
1000
0001
0200
0000
0301
1000
0200
0000
,
2000
0000
0000
3300
,
1000
0100
0001
0100
1000
0010
1001
0000
,
0001
0100
1000
0100
0001
0010
0001
1000
,
1002
0000
1003
0001
1000
0010
0100
0000
,
0001
1000
0001
1000
0001
1000
0001
1000
,
0010
0000
0010
1000
0000
1000
0200
0000
,
0000
0000
1300
0100
1000
0100
1000
0000
,
0010
0000
0010
0001
0000
0001
0200
0000
,
0000
0000
0301
0100
0001
0100
0001
0000
,
1000
0000
1000
0001
0000
0001
0020
0000
,
0000
0031
0010
0001
0010
0001
0011
0000
,
0001
0000
0001
1000
0000
1000
0020
0000
,
0000
1030
0010
1000
0010
1000
1010
0000
,
0010
0000
0010
0100
0000
0100
0020
0000
,
0000
0130
0010
0100
0010
0010
0110
0000
,
2002
0000
0000
0000
,
0000
0000
0000
0000
,
0000
0000
0000
0000
,
0000
0000
3003
0000
;

//---------------dance-single - G.Ramos----------------
#NOTES:
     dance-single:
     G.Ramos:
     Medium:
     7:
     0.390,0.481,0.444,0.247,0.016,124.000,27.000,15.000,0.000,0.000,0.000,0.390,0.481,0.444,0.247,0.016,124.000,27.000,15.000,0.000,0.000,0.000: // measure 1
0000
0000
0000
0000
,  // measure 2
0000
0000
0000
0000
,  // measure 3
0000
0000
0000
0000
0000
0000
0000
1000
,  // measure 4
2000
0000
0000
0001
3002
0000
0000
0000
,  // measure 5
0013
1001
0110
1001
,  // measure 6
0110
0000
0000
0110
0000
0000
0110
0000
0000
0000
1000
0000
0001
0000
1000
0000
,  // measure 7
1001
0000
0000
1001
0000
0000
1001
0000
0000
0000
0010
0000
0100
0000
0010
0000
,  // measure 8
1000
0100
0001
0000
1100
0000
0101
0000
,  // measure 9
1000
0010
0001
0000
1010
0000
0011
0000
,  // measure 10
1000
0100
0020
0000
0000
0000
0031
0000
,  // measure 11
0200
0000
0000
0300
,  // measure 12
0001
0100
1000
0000
0101
0000
0011
0000
,  // measure 13
0001
0010
1000
0000
1001
0000
1000
0001
,  // measure 14
0200
0000
0000
0310
2000
0000
3100
0000
,  // measure 15
2002
0000
0000
3003
,  // measure 16
1000
0100
1000
0000
1010
0000
1010
0000
,  // measure 17
0001
0100
0001
0000
0011
0000
0011
0000
,  // measure 18
1000
0001
2000
0000
0001
0000
3001
0000
,  // measure 19
0200
0000
0000
0300
,  // measure 20
0010
1000
0010
0000
1100
0000
0101
0000
,  // measure 21
0010
0001
0010
0000
0110
0000
0001
1000
,  // measure 22
0200
0000
0000
0310
0002
0000
0103
0000
,  // measure 23
2002
0000
0000
3003
,  // measure 24
0010
0000
0000
0001
0000
0000
0100
0000
,  // measure 25
0000
0000
0010
1000
0100
0100
0100
0000
,  // measure 26
0010
0000
0000
1000
0000
0000
0100
0000
,  // measure 27
0000
0000
0010
0001
0100
0100
0100
0000
,  // measure 28
0010
0000
0000
0001
0000
0000
0100
0000
,  // measure 29
0000
0110
0000
1000
0100
0100
0100
0000
,  // measure 30
0010
0000
0000
1000
0000
0000
0100
0000
,  // measure 31
0000
0110
0000
0001
0100
0100
0100
0000
,  // measure 32
0001
0000
0000
0010
0000
0000
0100
0000
,  // measure 33
0000
1000
0000
0100
0001
0001
0100
0000
,  // measure 34
2000
0000
0000
0000
,  // measure 35
0000
0000
0000
0000
,  // measure 36
0000
0000
0000
0000
,  // measure 37
0000
0000
3000
0000
;

//---------------dance-single - G.Ramos----------------
#NOTES:
     dance-single:
     G.Ramos:
     Easy:
     4:
     0.273,0.300,0.132,0.296,0.000,90.000,8.000,18.000,0.000,0.000,0.000,0.273,0.300,0.132,0.296,0.000,90.000,8.000,18.000,0.000,0.000,0.000:
0000
0000
0000
0000
,
0000
0000
0000
0000
,
0000
0000
0000
0000
,
0020
0000
0000
0000
,
0030
0000
0000
0000
,
1000
1000
1000
1000
,
0001
0001
0001
0001
,
1000
2000
0000
3000
,
0001
0002
0000
0003
,
0100
0200
0300
0010
,
0020
0000
0000
0030
,
0010
0020
0000
0030
,
0001
0002
0003
0100
,
0200
0300
1000
1000
,
2000
0000
0000
3000
,
0010
2000
0001
3001
,
0100
0002
1000
1003
,
0010
0002
0003
0100
,
2000
0000
0000
3000
,
1000
0200
0010
0310
,
0002
1000
1003
0001
,
1001
0000
0110
0000
,
2002
0000
0000
3003
,
1001
0100
0001
0100
,
1000
0100
0001
0100
,
1001
0010
0001
0010
,
1000
0010
0001
0010
,
1001
0100
0001
0100
,
1001
0010
0001
0110
,
0010
0010
0010
0010
,
0010
0010
0010
0010
,
0100
0100
0100
0100
,
0100
0100
0100
0100
,
0200
0000
0000
0000
,
0000
0000
0000
0000
,
0000
0000
0000
0000
,
0000
0000
0300
0000
;

//---------------dance-double - G.Ramos----------------
#NOTES:
     dance-double:
     G.Ramos:
     Hard:
     8:
     0.501,0.571,0.411,0.313,0.074,169.000,25.000,19.000,0.000,0.000,0.000,0.501,0.571,0.411,0.313,0.074,169.000,25.000,19.000,0.000,0.000,0.000:
00000000
00000000
00000000
00000000
,
00000000
00000000
00000000
00000000
,
00000000
00000000
00000000
00000000
00000000
00000000
00000000
00000000
00000000
00000000
00000000
00000000
00000000
00000000
00010000
00100000
,
02000000
00000000
00000000
00000000
00000000
00000000
13000000
00100000
02000000
00000000
00000000
00000000
00000000
00000000
00000000
00000000
,
03010000
00010000
00000000
00000000
11000000
00000000
00000000
00000000
01010000
00000000
00000000
00000000
01100000
00000000
00000000
00000000
,
01001000
00000000
00000000
00110000
00000000
00000000
01001000
00000000
00000000
00000000
00010000
00100000
00010000
00100000
00010000
00000000
,
00110000
00000000
00000000
01001000
00000000
00000000
00110000
00000000
00000000
00000000
00100000
00010000
00100000
00010000
00100000
00000000
,
01000000
00100000
00001000
00100000
01000000
00000000
00011000
00000000
,
00001000
00100000
01000000
00100000
00001000
00000000
01010000
00000000
,
00001000
00010000
00000100
00000000
00001000
00010000
00100000
00000000
,
00200200
00000000
00000000
00300300
,
00100000
00001000
00000100
00001000
00100000
00000000
00010100
00000000
,
00000100
00001000
00100000
00001000
00000100
00000000
00100000
00001000
,
00002010
00000000
00000010
00000010
00003020
00000000
00010030
00000000
,
00020020
00000000
00000000
00030030
,
00010000
00000100
00010100
00001000
00010000
00000100
00010100
00000000
,
00000010
00000100
00000110
00001000
00000010
00000100
00000110
00000000
,
00001000
00000001
00000200
00000000
00000301
00001000
00000200
00000000
,
00002000
00000000
00000000
00003300
,
00001000
00000100
00000001
00000100
00001000
00000010
00001001
00000000
,
00000001
00000100
00001000
00000100
00000001
00000010
00000001
00001000
,
00010020
00000000
00010030
00000010
00010000
00000100
00001000
00000000
,
00000010
00010000
00000010
00010000
00000010
00010000
00000010
00010000
,
00000100
00000000
00000100
00010000
00000000
00010000
00002000
00000000
,
00000000
00000000
00013000
00001000
00010000
00001000
00010000
00000000
,
00001000
00000000
00001000
00000100
00000000
00000100
00020000
00000000
,
00000000
00000000
00030100
00010000
00000100
00010000
00000100
00000000
,
00100000
00000000
00100000
00000100
00000000
00000100
00002000
00000000
,
00000000
00003100
00001000
00000100
00001000
00000100
00001100
00000000
,
00001000
00000000
00001000
01000000
00000000
01000000
00020000
00000000
,
00000000
01030000
00010000
01000000
00010000
01000000
01010000
00000000
,
00010000
00000000
00010000
00100000
00000000
00100000
00020000
00000000
,
00000000
00130000
00010000
00100000
00010000
00010000
00110000
00000000
,
20020000
00000000
00000000
00000000
,
00000000
00000000
00000000
00000000
,
00000000
00000000
00000000
00000000
,
00000000
00000000
30030000
00000000
;

//---------------dance-double - G.Ramos----------------
#NOTES:
     dance-double:
     G.Ramos:
     Medium:
     7:
     0.388,0.481,0.428,0.247,0.016,124.000,26.000,15.000,0.000,0.000,0.000,0.388,0.481,0.428,0.247,0.016,124.000,26.000,15.000,0.000,0.000,0.000:
00000000
00000000
00000000
00000000
,
00000000
00000000
00000000
00000000
,
00000000
00000000
00000000
00000000
00000000
00000000
00000000
10000000
,
20000000
00000000
00000000
00010000
30020000
00000000
00000000
00000000
,
00130000
10010000
01100000
10010000
,
00110000
00000000
00000000
00110000
00000000
00000000
00110000
00000000
00000000
00000000
01000000
00000000
00001000
00000000
01000000
00000000
,
01001000
00000000
00000000
01001000
00000000
00000000
01001000
00000000
00000000
00000000
00010000
00000000
00100000
00000000
00010000
00000000
,
01000000
00100000
00001000
00000000
01100000
00000000
00101000
00000000
,
01000000
00010000
00001000
00000000
01010000
00000000
00011000
00000000
,
00100000
00010000
00002000
00000000
00000000
00000000
00003100
00000000
,
00020000
00000000
00000000
00030000
,
00000100
00010000
00100000
00000000
00010100
00000000
00001100
00000000
,
00000100
00001000
00100000
00000000
00100000
00000000
00100000
00000100
,
00002000
00000000
00000000
00003100
00020000
00000000
00031000
00000000
,
00020020
00000000
00000000
00030030
,
00010000
00001000
00010000
00000000
00010100
00000000
00010100
00000000
,
00000010
00001000
00000010
00000000
00000110
00000000
00000110
00000000
,
00001000
00000001
00002000
00000000
00000001
00000000
00003001
00000000
,
00000200
00000000
00000000
00000300
,
00000010
00001000
00000010
00000000
00001100
00000000
00000101
00000000
,
00000010
00000001
00000010
00000000
00000110
00000000
00000001
00001000
,
00002000
00000000
00000000
00003100
00000020
00000000
00001030
00000000
,
00020020
00000000
00000000
00030030
,
00000100
00000000
00000000
00000010
00000000
00000000
00001000
00000000
,
00000000
00000000
00000100
00010000
00001000
00001000
00001000
00000000
,
00001000
00000000
00000000
00100000
00000000
00000000
00010000
00000000
,
00000000
00000000
00001000
00000100
00010000
00010000
00010000
00000000
,
00001000
00000000
00000000
00000100
00000000
00000000
00010000
00000000
,
00000000
00011000
00000000
00100000
00010000
00010000
00010000
00000000
,
00010000
00000000
00000000
01000000
00000000
00000000
00100000
00000000
,
00000000
00110000
00000000
00001000
00100000
00100000
00100000
00000000
,
00001000
00000000
00000000
00010000
00000000
00000000
00100000
00000000
,
00000000
01000000
00000000
00100000
00001000
00001000
00100000
00000000
,
20000000
00000000
00000000
00000000
,
00000000
00000000
00000000
00000000
,
00000000
00000000
00000000
00000000
,
00000000
00000000
30000000
00000000
;

//---------------dance-double - G.Ramos----------------
#NOTES:
     dance-double:
     G.Ramos:
     Easy:
     3:
     0.235,0.240,0.115,0.362,0.000,71.000,7.000,22.000,0.000,0.000,0.000,0.235,0.240,0.115,0.362,0.000,71.000,7.000,22.000,0.000,0.000,0.000:
00000000
00000000
00000000
00000000
,
00000000
00000000
00000000
00000000
,
00000000
00000000
00000000
00000000
,
00020000
00030000
00002000
00003000
,
00022000
00000000
00000000
00033000
,
00001000
00001000
00001000
00010000
,
00010000
00010000
00001000
00010000
,
00010000
00020000
00000000
00030000
,
00001000
00002000
00000000
00003000
,
00000010
00002000
00000000
00003100
,
00002000
00000000
00000000
00003000
,
00010000
00020000
00000000
00030000
,
00001000
00002000
00000000
00013000
,
00020000
00000000
10000000
10000000
,
02030000
00000000
00000000
03000000
,
00001000
00000020
00000000
00000030
,
00010000
00200000
00000000
00300000
,
00001000
00020000
00000000
01030000
,
00020000
00000000
00000000
00030000
,
00001000
00000200
00000000
00000300
,
00010000
02000000
00000000
03001000
,
00002000
00000000
00010000
00010000
,
00023000
00000000
00000000
00030000
,
11000000
00000000
01000000
00000000
,
00100000
00100000
00100000
00000000
,
01100000
00000000
00100000
00000000
,
00010000
00010000
00010000
00000000
,
00110000
00000000
00001000
00000000
,
00000100
00000100
00000100
00000000
,
00001100
00000000
00000001
00000000
,
00000010
00000010
00000010
00000000
,
00000011
00000000
00001000
00000000
,
00010000
00001000
00010000
00000000
,
00022000
00000000
00000000
00000000
,
00000000
00000000
00000000
00000000
,
00000000
00000000
00000000
00000000
,
00000000
00000000
00033000
00000000
;
