#TITLE:Pure Blue;
#SUBTITLE:-チャンス トライアングルセッション OP テーマ-;
#ARTIST:R-3;
#TITLETRANSLIT:;
#SUBTITLETRANSLIT:-Chance Pop Session Opening Theme-;
#ARTISTTRANSLIT:;
#GENRE:;
#CREDIT:;
#BANNER:Pure Blue -Chance Pop Session Opening Theme-.png;
#BACKGROUND:Pure Blue -Chance Pop Session Opening Theme--bg.png;
#LYRICSPATH:;
#CDTITLE:;
#MUSIC:Pure Blue -Chance Pop Session Opening Theme-.ogg;
#OFFSET:1.180;
#SAMPLESTART:39.180;
#SAMPLELENGTH:12.000;
#SELECTABLE:YES;
#BPMS:0.000=121.000;
#STOPS:148.000=0.960
;
#TIMESIGNATURES:0.000=4=4
;
#BGCHANGES:0.000=Pure Blue -Chance Pop Session Opening Theme-.avi=1.000=0=0=0=StretchNoLoop====,
99999=-nosongbg-=1.000=0=0=0 // don't automatically add -songbackground-
;
#KEYSOUNDS:;

//---------------dance-single - ----------------
#NOTES:
     dance-single:
     :
     Beginner:
     1:
     0.113,0.166,0.056,0.000,0.000,66.000,5.000,0.000,0.000,0.000,0.000,0.113,0.166,0.056,0.000,0.000,66.000,5.000,0.000,0.000,0.000,0.000:
0000
0000
0000
0000
,
0000
0000
0000
0000
,
0000
0000
0000
0000
,
0000
0000
0000
0000
,
0000
0000
0000
0000
,
1000
0000
0000
0000
,
0001
0000
0000
0000
,
1000
0000
0000
0000
,
0001
0000
0000
0000
,
1000
0000
0000
0000
,
0010
0000
0000
0000
,
0001
0000
0000
0000
,
0010
0000
0000
0000
,
1000
0000
0000
0000
,
0001
0000
0000
0000
,
0100
0000
0000
0000
,
0010
0000
0000
0000
,
1000
0000
0000
0000
,
0001
0000
0000
0000
,
1001
0000
0000
0000
,
0110
0000
0000
0000
,
0010
0010
0010
0010
,
0010
0010
0010
0000
,
0100
0100
0100
0100
,
0100
0100
0100
0000
,
1000
0000
0001
0000
,
1000
0000
0001
0000
,
1001
0000
0000
0100
,
0100
0000
0000
0000
,
1000
1000
1000
1000
,
1000
1000
1000
0000
,
0001
0001
0001
0001
,
0001
0001
0001
0000
,
0010
0000
0000
0000
,
0010
0010
0010
0000
,
1001
0000
0000
0000
,
0000
0000
0000
0000
,
0010
0000
0010
0010
,
0010
0000
1001
0000
,
0000
0000
0000
0000
,
0000
0000
0010
0000
,
0000
0000
0100
0000
,
0010
0010
0010
0000
;

//---------------dance-single - ----------------
#NOTES:
     dance-single:
     :
     Easy:
     1:
     0.134,0.176,0.000,0.078,0.000,77.000,0.000,7.000,0.000,0.000,0.000,0.134,0.176,0.000,0.078,0.000,77.000,0.000,7.000,0.000,0.000,0.000:
0000
0000
0000
0000
,
0000
0000
0000
0000
,
0000
0000
0000
0000
,
0000
0000
0000
0000
,
0000
0000
0000
0000
,
0010
0000
0000
0000
,
0001
0000
0000
0000
,
0100
0000
0000
0000
,
1000
0000
0000
0000
,
0010
0000
0000
0000
,
1000
0000
0000
0000
,
0100
0000
0000
0001
,
0002
0000
0003
0000
,
1000
0000
0001
0000
,
1000
0000
0001
0000
,
1000
0010
0001
0100
,
1000
0000
0001
0000
,
1000
0000
0100
0000
,
0001
0000
0100
0000
,
0020
0000
0000
0000
,
0030
0000
0000
0000
,
0010
0100
0010
0100
,
0010
0010
0010
0000
,
0100
0010
0100
0010
,
0100
0100
0100
0000
,
1000
0000
0100
0000
,
0001
0000
0100
0000
,
0020
0000
0000
0000
,
0030
0000
0000
0000
,
1000
0001
1000
0001
,
1000
1000
1000
0000
,
0001
1000
0001
1000
,
0001
0001
0010
0010
,
0010
0000
0000
0000
,
0010
0100
0010
0100
,
0020
0000
0000
0000
,
0030
0000
0010
0010
,
0010
0000
0010
0100
,
0010
0100
0020
0000
,
0000
0000
0030
0000
,
0000
0000
0200
0000
,
0000
0300
0100
0000
,
0010
0100
0020
0000
,
0000
0000
0000
0000
,
0000
0000
0000
0000
,
0030
0000
0000
0000
;

//---------------dance-single - ----------------
#NOTES:
     dance-single:
     :
     Medium:
     4:
     0.219,0.201,0.123,0.145,0.000,113.000,11.000,13.000,0.000,0.000,0.000,0.219,0.201,0.123,0.145,0.000,113.000,11.000,13.000,0.000,0.000,0.000:
0000
0000
0000
0000
,
0000
0000
0000
0000
,
0000
0000
0000
0000
,
0000
0000
0000
0000
,
0000
0000
0000
0000
,
0010
0100
0010
0001
,
0010
0100
0010
1000
,
0001
0100
1000
0100
,
0010
0010
0010
0010
,
0100
0010
0100
0001
,
0100
0010
0100
1000
,
0020
0000
0000
0030
,
0200
0000
0000
0300
,
1000
1000
0001
0001
,
1000
0001
0100
0010
,
0010
1000
0100
0001
,
0010
0010
0010
0100
,
0001
0001
1000
1000
,
0010
1000
0100
0001
,
0110
0000
0000
0000
,
1001
1001
0000
0000
,
0010
0100
0010
0100
,
0010
0010
1001
0000
,
0100
0010
0100
0010
,
0100
0100
1001
0000
,
1000
0001
0010
0001
,
0001
1000
0010
1000
,
1001
0000
0000
0000
,
0010
0010
0010
0010
,
1000
0100
0001
0100
,
1000
1000
1001
0000
,
0001
0100
1000
0100
,
0001
1001
0010
0100
,
0020
0000
0000
0030
,
0100
0010
0100
0010
,
2002
0000
0000
0000
,
3003
0000
0010
0100
,
0020
0030
0100
0010
,
0100
0010
2002
0000
,
0000
0000
3003
0000
,
0000
0000
0020
0000
,
0000
0030
2000
3000
,
0002
0003
2002
0000
,
0000
0000
0000
0000
,
0000
0000
0000
0000
,
3003
0000
0000
0000
;

//---------------dance-single - ----------------
#NOTES:
     dance-single:
     :
     Hard:
     7:
     0.391,0.453,0.414,0.313,0.050,180.000,37.000,28.000,0.000,0.000,0.000,0.391,0.453,0.414,0.313,0.050,180.000,37.000,28.000,0.000,0.000,0.000: // measure 1
0000
0000
0000
0000
,  // measure 2
0000
0000
0000
0000
,  // measure 3
0000
0000
0000
0000
,  // measure 4
0000
0000
0000
0000
,  // measure 5
0000
0000
0000
0000
,  // measure 6
1001
0000
0000
0100
0010
0100
0000
0002
,  // measure 7
0000
1000
0100
0013
,  // measure 8
0011
0000
0020
0200
0000
0000
0330
0000
,  // measure 9
0010
0001
0100
1000
0100
0001
0010
0000
,  // measure 10
1001
0000
0000
1000
0010
0001
0000
2000
,  // measure 11
0000
0100
0010
3001
,  // measure 12
2002
0000
0000
0000
3003
0010
0100
0220
,  // measure 13
0000
0000
0000
0000
0330
0010
0000
1000
,  // measure 14
0001
0000
0100
0000
0010
1000
0000
1100
,  // measure 15
0000
0000
0000
0001
1000
0001
0000
1000
,  // measure 16
0000
0000
0100
0000
0010
0100
0000
0101
,  // measure 17
0000
0000
0000
0002
0000
2003
0000
3020
,  // measure 18
0000
0030
0010
0200
0000
0000
0010
0310
,  // measure 19
1010
0000
0101
0000
0010
0100
0000
2002
,  // measure 20
0000
0000
0000
3003
,  // measure 21
0210
0000
0310
0100
0010
0100
0010
0000
,  // measure 22
1000
0100
0001
0100
1000
0100
0001
0100
,  // measure 23
1000
0010
0001
0010
1010
1010
1010
0000
,  // measure 24
0001
0100
1000
0100
0001
0100
1000
0100
,  // measure 25
0001
0010
1000
0010
0011
0011
0011
0000
,  // measure 26
1000
0001
0010
0000
0001
0000
1000
0020
,  // measure 27
0000
0000
0000
0130
0010
0000
0100
0001
,  // measure 28
0000
0000
1000
0000
0000
0010
0000
0000
0001
0000
0000
0010
0000
0000
1001
0000
,  // measure 29
0000
0000
0001
0000
0000
0010
0000
0000
0001
0000
0100
0000
0000
0000
0110
0000
,  // measure 30
0000
0010
1000
0100
1000
0010
1000
0100
,  // measure 31
1000
0001
1000
0001
0000
0101
1100
0101
,  // measure 32
0000
0001
0100
1000
0100
0001
0010
2000
,  // measure 33
0000
0100
0000
0010
0000
3010
0100
0220
,  // measure 34
0000
0000
0000
0000
0000
0030
0010
0310
,  // measure 35
1010
0000
0000
0000
1100
0000
0000
0000
0011
0000
0000
0101
0000
0000
2002
0000
,  // measure 36
0000
0000
0000
0000
0000
0000
3003
0002
,  // measure 37
0000
1003
0100
0010
0000
0010
0100
0220
,  // measure 38
0000
0030
0010
0310
0011
0000
0101
0000
,  // measure 39
1010
0000
0000
1100
0000
0000
2002
0000
0000
0000
0000
0000
0000
0000
0000
0000
,  // measure 40
0000
0000
3003
0000
0100
0001
0010
1000
,  // measure 41
0010
0000
0001
0000
0100
0000
0000
0000
0001
0000
1000
0000
0000
1000
0000
0000
,  // measure 42
0001
0000
0000
0010
0000
0000
0011
0000
0100
0000
0001
0000
0000
0001
0000
0000
,  // measure 43
1000
0000
0000
0010
0000
0000
1010
0000
2002
0000
0000
0000
0000
0000
0000
0000
,  // measure 44
0000
0000
0000
0000
,  // measure 45
0000
0000
0000
0000
,  // measure 46
3003
0000
0000
0000
;

//---------------dance-single - Mines Chart----------------
#NOTES:
     dance-single:
     Mines Chart:
     Challenge:
     4:
     0.184,0.201,0.078,0.145,0.000,95.000,7.000,13.000,96.000,0.000,0.000,0.184,0.201,0.078,0.145,0.000,95.000,7.000,13.000,96.000,0.000,0.000:
0000
0000
0000
0000
,
0000
0000
0000
0000
,
0000
0000
0000
0000
,
0000
0000
0000
0000
,
0000
0000
0000
0000
,
0010
0100
0010
0001
,
0010
0100
0010
1000
,
0001
0100
1000
0100
,
0010
MMMM
0010
MMMM
,
0100
0010
0100
0001
,
0100
0010
0100
1000
,
0020
0000
0000
0000
0000
0000
0030
MMMM
,
0200
0000
0000
0000
0000
0000
0300
MMMM
,
1000
1000
0001
0001
,
1000
0001
0100
0010
,
0010
1000
0100
0001
,
0010
MMMM
0010
MMMM
,
0001
0001
1000
1000
,
0010
1000
0100
0001
,
0110
0000
MMMM
0000
,
1001
1001
MMMM
MMMM
,
0010
0100
0010
0100
,
0010
0010
MMMM
0000
,
0100
0010
0100
0010
,
0100
0100
MMMM
0000
,
1000
0001
0010
MMMM
,
0001
1000
0010
MMMM
,
1001
0000
MMMM
0000
,
0010
0010
MMMM
MMMM
,
1000
0100
0001
0100
,
1000
1000
MMMM
0000
,
0001
0100
1000
0100
,
0001
MMMM
0010
MMMM
,
0020
0000
0000
0030
,
0100
MMMM
0100
MMMM
,
2002
0000
0000
0000
,
3003
0000
0010
MMMM
,
0020
0030
0100
MMMM
,
0100
MMMM
2002
0000
,
0000
0000
3003
0000
,
0000
0000
0020
0000
,
0000
0030
2000
3000
,
0002
0003
2002
0000
,
0000
0000
0000
0000
,
0000
0000
0000
0000
,
3003
0000
0000
0000
;

//---------------dance-double - ----------------
#NOTES:
     dance-double:
     :
     Easy:
     2:
     0.137,0.176,0.011,0.089,0.000,77.000,1.000,8.000,0.000,0.000,0.000,0.137,0.176,0.011,0.089,0.000,77.000,1.000,8.000,0.000,0.000,0.000:
00000000
00000000
00000000
00000000
,
00000000
00000000
00000000
00000000
,
00000000
00000000
00000000
00000000
,
00000000
00000000
00000000
00000000
,
00000000
00000000
00000000
00000000
,
00100000
00000000
00000000
00000000
,
00010000
00000000
00000000
00000000
,
01000000
00000000
00000000
00000000
,
01000000
00000000
00000000
00000000
,
00010000
00000000
00000000
00000000
,
01000000
00000000
00000000
00000000
,
00100000
00000000
00000000
00001000
,
00000200
00000000
00000300
00000000
,
00100000
00000000
00000100
00000000
,
00100000
00000000
00000100
00000000
,
00100000
00001000
00000100
00010000
,
00010000
00000000
00000010
00000000
,
00010000
00000000
00001000
00000000
,
00000010
00000000
00001000
00000000
,
00000200
00000000
00000000
00000000
,
00000300
00000000
00000000
00000000
,
00000010
00000100
00000010
00000100
,
00000010
00000010
00000010
00000000
,
00000100
00000010
00000100
00000010
,
00000100
00000100
00000100
00000000
,
00010000
00000000
00001000
00000000
,
00000010
00000000
00001000
00000000
,
00000200
00000000
00000000
00000000
,
00000300
00000000
00000000
00000000
,
00010000
00000010
00010000
00000010
,
00100000
00100000
00100000
00000000
,
00000100
00100000
00000100
00100000
,
00000100
00000100
00001000
00001000
,
00001000
00000000
00000000
00000000
,
00010000
00100000
00010000
00100000
,
00020000
00000000
00000000
00000000
,
00030000
00000000
00010000
00010000
,
00010000
00000000
00010000
00100000
,
00100000
01000000
00200000
00000000
,
00000000
00000000
00300000
00000000
,
00000000
00000000
02000000
00000000
,
00000000
03000000
01000000
00000000
,
00100000
01000000
00022000
00000000
,
00000000
00000000
00000000
00000000
,
00000000
00000000
00000000
00000000
,
00033000
00000000
00000000
00000000
;

//---------------dance-double - ----------------
#NOTES:
     dance-double:
     :
     Medium:
     4:
     0.217,0.201,0.112,0.145,0.000,113.000,10.000,13.000,0.000,0.000,0.000,0.217,0.201,0.112,0.145,0.000,113.000,10.000,13.000,0.000,0.000,0.000:
00000000
00000000
00000000
00000000
,
00000000
00000000
00000000
00000000
,
00000000
00000000
00000000
00000000
,
00000000
00000000
00000000
00000000
,
00000000
00000000
00000000
00000000
,
00100000
01000000
00100000
00010000
,
00100000
01000000
00100000
10000000
,
00010000
01000000
10000000
01000000
,
00010000
00010000
00010000
00010000
,
00100000
00010000
00100000
00001000
,
00100000
00010000
00100000
01000000
,
00020000
00000000
00000000
00030000
,
00020000
00000000
00000000
00030000
,
00100000
00100000
00000100
00000100
,
00100000
00000100
00010000
00001000
,
00001000
00100000
00010000
00000100
,
00000100
00000100
00000100
00001000
,
00000010
00000010
00010000
00010000
,
00000100
00010000
00001000
00000010
,
00001100
00000000
00000000
00000000
,
00001001
00001001
00000000
00000000
,
00000010
00000100
00000010
00000100
,
00000010
00000010
00001001
00000000
,
00000100
00000010
00000100
00000010
,
00001000
00001000
00010010
00000000
,
00010000
00000010
00000100
00000010
,
00000010
00010000
00000100
00010000
,
00010010
00000000
00000000
00000000
,
00001000
00001000
00001000
00001000
,
00100000
00010000
00000100
00010000
,
00100000
00100000
00100000
00000000
,
00000100
00010000
00100000
00010000
,
00001000
01001000
00010000
00100000
,
00020000
00000000
00000000
00030000
,
00100000
00010000
00100000
00010000
,
02002000
00000000
00000000
00000000
,
03003000
00000000
00100000
01000000
,
00200000
00300000
01000000
00100000
,
01000000
00100000
20020000
00000000
,
00000000
00000000
30030000
00000000
,
00000000
00000000
00200000
00000000
,
00000000
00300000
02000000
03000000
,
00002000
00003000
02002000
00000000
,
00000000
00000000
00000000
00000000
,
00000000
00000000
00000000
00000000
,
03003000
00000000
00000000
00000000
;

//---------------dance-double - ----------------
#NOTES:
     dance-double:
     :
     Hard:
     7:
     0.391,0.453,0.414,0.313,0.050,180.000,37.000,28.000,0.000,0.000,0.000,0.391,0.453,0.414,0.313,0.050,180.000,37.000,28.000,0.000,0.000,0.000:
00000000
00000000
00000000
00000000
,
00000000
00000000
00000000
00000000
,
00000000
00000000
00000000
00000000
,
00000000
00000000
00000000
00000000
,
00000000
00000000
00000000
00000000
,
10010000
00000000
00000000
01000000
00100000
01000000
00000000
00020000
,
00000000
10000000
01000000
00130000
,
00110000
00000000
00200000
02000000
00000000
00000000
03300000
00000000
,
00010000
00001000
00100000
01000000
00100000
00001000
00010000
00000000
,
01001000
00000000
00000000
01000000
00010000
00001000
00000000
02000000
,
00000000
00100000
00010000
03001000
,
02002000
00000000
00000000
00000000
03003000
00010000
00100000
00220000
,
00000000
00000000
00000000
00000000
00330000
00001000
00000000
00100000
,
00000100
00000000
00010000
00000000
00001000
00100000
00000000
00110000
,
00000000
00000000
00000000
00000100
00100000
00000100
00000000
00100000
,
00000000
00000000
00010000
00000000
00001000
00010000
00000000
00010100
,
00000000
00000000
00000000
00000020
00000000
00020030
00000000
00030200
,
00000000
00000300
00000100
00002000
00000000
00000000
00000100
00003100
,
00010100
00000000
00001010
00000000
00000100
00001000
00000000
00020020
,
00000000
00000000
00000000
00030030
,
00002100
00000000
00003100
00001000
00000100
00001000
00000100
00000000
,
00001000
00000100
00000001
00000100
00001000
00000100
00000001
00000100
,
00001000
00000010
00000001
00000010
00001010
00001010
00001010
00000000
,
00000001
00000100
00001000
00000100
00000001
00000100
00001000
00000100
,
00000001
00000010
00001000
00000010
00000011
00000011
00000011
00000000
,
00010000
00000010
00000100
00000000
00000010
00000000
00010000
00000200
,
00000000
00000000
00000000
00001300
00000100
00000000
00001000
00000010
,
00000000
00000000
00010000
00000000
00000000
00000100
00000000
00000000
00000010
00000000
00000000
00000100
00000000
00000000
00010010
00000000
,
00000000
00000000
00000010
00000000
00000000
00000100
00000000
00000000
00000010
00000000
00001000
00000000
00000000
00000000
00001100
00000000
,
00000000
00001000
00100000
00010000
00100000
00001000
00100000
00010000
,
00100000
00000100
00100000
00000100
00000000
00010100
00110000
00010100
,
00000000
00000100
00010000
00100000
00010000
00000100
00001000
00200000
,
00000000
00010000
00000000
00001000
00000000
00301000
00010000
00022000
,
00000000
00000000
00000000
00000000
00000000
00003000
00001000
00031000
,
01010000
00000000
00000000
00000000
01100000
00000000
00000000
00000000
00011000
00000000
00000000
00101000
00000000
00000000
02002000
00000000
,
00000000
00000000
00000000
00000000
00000000
00000000
03003000
00002000
,
00000000
01003000
00100000
00010000
00000000
00010000
00100000
00220000
,
00000000
00030000
00010000
00310000
00011000
00000000
00101000
00000000
,
10100000
00000000
00000000
11000000
00000000
00000000
20020000
00000000
00000000
00000000
00000000
00000000
00000000
00000000
00000000
00000000
,
00000000
00000000
30030000
00000000
01000000
00010000
00100000
10000000
,
00100000
00000000
00010000
00000000
01000000
00000000
00000000
00000000
00010000
00000000
10000000
00000000
00000000
10000000
00000000
00000000
,
00010000
00000000
00000000
00100000
00000000
00000000
00110000
00000000
01000000
00000000
00010000
00000000
00000000
00010000
00000000
00000000
,
01000000
00000000
00000000
00010000
00000000
00000000
01010000
00000000
02002000
00000000
00000000
00000000
00000000
00000000
00000000
00000000
,
00000000
00000000
00000000
00000000
,
00000000
00000000
00000000
00000000
,
03003000
00000000
00000000
00000000
;

//---------------dance-double - Mines Chart----------------
#NOTES:
     dance-double:
     Mines Chart:
     Challenge:
     4:
     0.184,0.201,0.078,0.145,0.000,95.000,7.000,13.000,192.000,0.000,0.000,0.184,0.201,0.078,0.145,0.000,95.000,7.000,13.000,192.000,0.000,0.000:
00000000
00000000
00000000
00000000
,
00000000
00000000
00000000
00000000
,
00000000
00000000
00000000
00000000
,
00000000
00000000
00000000
00000000
,
00000000
00000000
00000000
00000000
,
00100000
01000000
00100000
00010000
,
00100000
01000000
00100000
10000000
,
00010000
01000000
10000000
01000000
,
00010000
MMMMMMMM
00010000
MMMMMMMM
,
00100000
00010000
00100000
00001000
,
00100000
00010000
00100000
01000000
,
00020000
00000000
00000000
00000000
00000000
00000000
00030000
MMMMMMMM
,
00020000
00000000
00000000
00000000
00000000
00000000
00030000
MMMMMMMM
,
00100000
00100000
00000100
00000100
,
00100000
00000100
00010000
00001000
,
00001000
00100000
00010000
00000100
,
00000100
MMMMMMMM
00000100
MMMMMMMM
,
00000010
00000010
00010000
00010000
,
00000100
00010000
00001000
00000010
,
00001100
00000000
MMMMMMMM
00000000
,
00001001
00001001
MMMMMMMM
MMMMMMMM
,
00000010
00000100
00000010
00000100
,
00000010
00000010
MMMMMMMM
00000000
,
00000100
00000010
00000100
00000010
,
00001000
00001000
MMMMMMMM
00000000
,
00010000
00000010
00000100
MMMMMMMM
,
00000010
00010000
00000100
MMMMMMMM
,
00010010
00000000
MMMMMMMM
00000000
,
00001000
00001000
MMMMMMMM
MMMMMMMM
,
00100000
00010000
00000100
00010000
,
00100000
00100000
MMMMMMMM
00000000
,
00000100
00010000
00100000
00010000
,
00001000
MMMMMMMM
00010000
MMMMMMMM
,
00020000
00000000
00000000
00030000
,
00100000
MMMMMMMM
00100000
MMMMMMMM
,
02002000
00000000
00000000
00000000
,
03003000
00000000
00100000
MMMMMMMM
,
00200000
00300000
01000000
MMMMMMMM
,
01000000
MMMMMMMM
20020000
00000000
,
00000000
00000000
30030000
00000000
,
00000000
00000000
00200000
00000000
,
00000000
00300000
02000000
03000000
,
00002000
00003000
02002000
00000000
,
00000000
00000000
00000000
00000000
,
00000000
00000000
00000000
00000000
,
03003000
00000000
00000000
00000000
;
