#TITLE:PRIORITY;
#SUBTITLE:;
#ARTIST:コウダ マリコ;
#TITLETRANSLIT:;
#SUBTITLETRANSLIT:;
#ARTISTTRANSLIT:Mariko Kouda;
#GENRE:;
#CREDIT:a.k.a. r21 Edit;
#BANNER:Priority.png;
#BACKGROUND:Priority-bg.png;
#LYRICSPATH:;
#CDTITLE:;
#MUSIC:Priority.ogg;
#OFFSET:-4.422;
#SAMPLESTART:54.335;
#SAMPLELENGTH:12.000;
#SELECTABLE:YES;
#BPMS:0.000=128.000;
#STOPS:32.000=0.960
,102.000=0.920
;
#TIMESIGNATURES:0.000=4=4
;
#BGCHANGES:;
#KEYSOUNDS:;

//---------------dance-single - Gabe----------------
#NOTES:
     dance-single:
     Gabe:
     Beginner:
     1:
     0.114,0.137,0.040,0.000,0.000,76.000,4.000,0.000,0.000,0.000,0.000,0.114,0.137,0.040,0.000,0.000,76.000,4.000,0.000,0.000,0.000,0.000: // measure 1
0000
0000
0000
0000
,  // measure 2
0000
0000
0000
0000
,  // measure 3
0010
0000
0000
0000
,  // measure 4
0100
0000
0000
0000
,  // measure 5
1000
0000
0000
0000
,  // measure 6
0001
0000
0000
0000
,  // measure 7
0010
0000
0000
0000
,  // measure 8
0100
0000
0000
0000
,  // measure 9
1000
0000
1000
0000
,  // measure 10
0001
0000
0010
0000
,  // measure 11
0000
0000
0010
0000
,  // measure 12
0000
0000
0100
0000
,  // measure 13
0100
0000
0100
0000
,  // measure 14
0000
0000
0001
0000
,  // measure 15
0000
0000
0001
0000
,  // measure 16
0000
0000
1000
0000
,  // measure 17
1000
0000
1000
0000
,  // measure 18
0000
0000
0010
0000
,  // measure 19
0000
0000
0100
0000
,  // measure 20
0000
0000
0010
0000
,  // measure 21
0100
0000
0010
0000
,  // measure 22
0000
0000
1000
0000
,  // measure 23
0000
0000
0001
0000
,  // measure 24
0000
0000
1000
0000
,  // measure 25
0001
0000
0010
0000
,  // measure 26
0100
0000
1001
0000
,  // measure 27
0100
0100
0100
0000
,  // measure 28
0001
0001
0001
0000
,  // measure 29
1000
0000
0100
0000
,  // measure 30
0010
0000
0001
0000
,  // measure 31
0100
0100
0100
0000
,  // measure 32
1000
1000
1000
0000
,  // measure 33
0001
0000
0100
0000
,  // measure 34
0010
0000
1000
0000
,  // measure 35
1001
0000
0000
0000
,  // measure 36
0110
0000
0000
0000
,  // measure 37
0010
0010
0010
0000
,  // measure 38
0100
0100
0100
0000
,  // measure 39
1000
0000
0001
0000
,  // measure 40
1000
0000
0001
0000
,  // measure 41
0100
0100
0100
0000
,  // measure 42
0010
0010
0010
0000
,  // measure 43
1000
0000
0100
0000
,  // measure 44
0001
0000
0010
0000
,  // measure 45
1001
0000
0000
0000
,  // measure 46
0100
0000
0000
0000
,  // measure 47
0010
0000
0000
0000
;

//---------------dance-single - Gabe----------------
#NOTES:
     dance-single:
     Gabe:
     Easy:
     4:
     0.209,0.223,0.080,0.169,0.000,122.000,8.000,17.000,0.000,0.000,0.000,0.209,0.223,0.080,0.169,0.000,122.000,8.000,17.000,0.000,0.000,0.000:
0000
0000
0000
0000
,
0000
0000
0000
0000
,
1000
0000
0100
0000
,
1000
0000
0010
0000
,
0001
0000
0100
0000
,
0001
0000
0010
0000
,
2000
0000
0000
3000
,
0002
0000
0000
0003
,
0220
0330
0100
0100
,
0100
0100
0000
1000
,
0000
1000
0010
0001
,
1000
0001
0000
0001
,
0000
0001
1000
0010
,
0001
1000
0100
0100
,
1000
1000
0100
0100
,
0001
0001
0010
1000
,
0010
0001
1000
0001
,
0100
0000
2000
0100
,
3100
0000
0002
0100
,
0103
0000
0020
0100
,
0100
0130
0110
0000
,
0000
0000
1002
0100
,
0103
0000
2001
0100
,
3100
0001
1000
0000
,
0000
1000
0001
0000
,
0000
0000
2002
3003
,
0010
0100
0010
0000
,
0010
0100
0010
0000
,
0010
0010
0100
0100
,
1000
0100
0101
0000
,
0100
1000
0100
0000
,
0010
1000
0010
0000
,
1000
0001
0001
1000
,
0010
0000
0100
0100
,
0002
0000
0000
0003
,
2000
0000
0000
3001
,
1000
0001
1000
0000
,
0001
1000
0001
0000
,
0010
1000
0100
0001
,
0100
0001
1000
0000
,
1000
0010
0100
0000
,
0100
0001
1000
0000
,
0010
0001
0100
1000
,
0010
0000
0100
0000
,
0220
0000
0000
0330
,
0001
0000
1000
0000
,
2002
0000
0000
0000
,
0000
0000
0000
0000
,
0000
0000
0000
0000
,
0000
0000
0000
3003
;

//---------------dance-single - Gabe----------------
#NOTES:
     dance-single:
     Gabe:
     Medium:
     5:
     0.297,0.322,0.030,0.288,0.000,177.000,3.000,29.000,0.000,0.000,0.000,0.297,0.322,0.030,0.288,0.000,177.000,3.000,29.000,0.000,0.000,0.000:
0000
0000
0000
0000
,
0000
0000
0000
0000
,
1000
1000
1000
1000
,
0010
0010
0010
0010
,
0100
0100
0100
0100
,
0001
0001
0001
0001
,
0010
0100
0001
1000
,
0010
0100
1000
0001
,
1002
0000
0103
1000
0000
0001
0000
0001
,
1000
1000
0100
0001
,
0100
1000
0100
0001
,
1000
0001
1000
0000
0100
0000
1000
0000
,
0100
0001
0100
1000
,
0001
1000
0001
0000
0010
0000
1000
0000
,
0010
0001
0010
1000
,
0010
0001
0010
0000
0010
0000
0001
0000
,
0010
1000
0010
0001
,
0010
0000
0010
1000
0001
0000
0100
0000
,
0100
0010
0000
0100
,
0100
0000
1000
0000
1000
0010
0001
0000
,
0100
0000
0020
0100
0000
0100
0000
0130
,
0000
1000
2000
0010
,
0010
0000
3000
0001
0001
0000
1000
0000
,
0001
0000
0010
0200
0000
0000
0000
0000
,
0300
0010
0100
0010
0000
0000
1000
0000
,
0001
0000
0100
0000
2001
0001
3001
0000
,
0010
1000
0020
0130
,
0010
0001
0020
0130
,
2000
0000
0001
0000
0001
0000
3002
1000
,
0000
1000
0000
0000
0000
0003
0010
0000
,
0001
0000
0000
0001
0200
0000
0310
0000
,
1000
0000
0000
1000
0020
0000
0130
0000
,
0002
0000
0100
0000
2003
0000
3100
0010
,
0000
0010
0000
0000
0001
0000
0001
1000
,
0000
2000
0000
0000
0000
0000
0000
3002
,
0000
0000
0000
0000
0003
0010
0100
0000
,
2000
0100
0010
3010
,
0002
0100
0010
0013
,
2000
0000
0001
0000
0010
0000
3200
0010
,
0000
0010
0000
0000
0300
0000
1001
0000
,
0020
0000
0100
0000
1000
1000
1030
0000
,
0020
0000
0100
0000
0001
0001
0031
0000
,
2000
0000
3002
0000
0013
0000
0010
0200
,
0000
0310
0000
0000
0001
0000
1000
0200
,
0000
0320
0000
0000
0000
0000
0000
0230
,
0000
0000
0300
0000
1000
0000
0001
0200
,
0000
0320
0000
0000
0000
0000
0000
0000
,
0000
0000
0000
0000
,
0000
0000
0000
0000
,
0000
0000
0000
0030
;

//---------------dance-double - Gabe's First DIY Double Steps----------------
#NOTES:
     dance-double:
     Gabe's First DIY Double Steps:
     Hard:
     8:
     0.411,0.520,0.229,0.398,0.119,226.000,23.000,40.000,0.000,0.000,0.000,0.411,0.520,0.229,0.398,0.119,226.000,23.000,40.000,0.000,0.000,0.000:
00000000
00000000
00000000
00000000
,
00000000
00000000
00000000
00000000
,
10000000
00000000
00000000
01000000
00000000
00000000
10000000
00000000
02000000
00000000
00000000
00000000
23000000
00000000
00000000
00000000
,
30010000
00000000
00000000
01000000
00000000
00000000
00010000
00000000
02000000
00000000
00000000
00000000
03020000
00000000
00000000
00000000
,
00032000
00000000
00003200
00000000
00000310
00000200
00000000
00020300
,
00000000
00000000
00031000
00200000
00000000
00000000
10300000
02000000
,
00000000
00000000
00000000
00000000
00000000
00100000
00100000
00200000
,
00000000
00000000
00000000
03300000
,
00022000
00000000
00033000
00000000
00010000
00000000
00002000
00000000
00000000
00000000
00010000
00000000
00000000
00010000
00000000
00000000
,
00013000
00001000
00000100
00001000
00011000
00100000
01000000
10000000
,
00100000
00010000
00001000
00000020
00000000
00001030
00000100
00002000
,
00000000
00000000
00000000
00000000
00003000
00000000
00000000
00000000
00000001
00000000
00000000
00000000
00010000
00000000
00000000
00001000
,
00000000
10000000
00010000
00001000
00011000
00000000
00200000
00000000
,
00000100
00300000
02000000
00000000
00010000
00000000
03010000
00000000
,
00100000
01000000
00010000
00002000
00000000
00003010
00001000
00000100
,
00000000
00000000
00000000
00000000
00000000
00000000
00001000
00000000
00001000
00000000
00000000
00000100
00000000
00000000
00000010
00000000
,
00000001
00001000
00000100
00020000
00000000
00001000
00000000
00030000
,
00000000
00000000
00000000
00000000
00100000
00000000
00010000
00000000
00120000
00000000
00000000
01000000
00000000
00000000
00130000
00000000
,
00000000
00000000
00000000
00000000
00010000
00000000
01000000
00000000
02010000
00000000
00000000
00001000
00000000
00000000
03010000
00000000
,
00000000
00000000
10000000
00010000
10010000
00000000
00011000
00000000
,
00001001
00000010
00000001
00000200
00000000
00001000
00000000
00010300
,
00000000
00000000
00000000
00000000
00000010
00000000
00000010
00000000
00001001
00000000
00000000
00001000
00000000
00000000
00020000
00000000
,
00000000
00000000
00000000
00000010
00030020
00000000
00000001
00000000
,
00001000
00000000
00000130
00000020
00000000
00000000
00000000
00000000
,
00000000
00000000
00000000
00010000
00000000
00000000
00010000
00000000
00000000
00010030
00000000
00000000
00011000
00000000
00010000
00001000
00000000
00010000
00001000
00000000
00000000
00010000
00001000
00000000
,
00000000
00000000
00010000
00001000
00000000
00000000
00010000
00000000
00000000
00001000
00000000
00000000
00012000
00000000
00000000
00013000
00000000
00000000
00100000
00000000
00000000
01000000
00000000
00000000
,
10000000
00000000
00000000
10000000
00000000
00000000
10000000
00000000
00000000
00000000
00100000
00000000
01000000
00000000
00010000
00000000
,
00001000
00000000
00000000
00001000
00000000
00000000
00001000
00000000
00000000
00000000
00000010
00000000
00000100
00000000
00000001
00000000
,
00000110
00000000
00001001
00000000
00010100
00000000
00020000
00001000
,
00000000
00001000
00000000
00030000
00000000
01000000
00100000
00010000
,
01000000
00000000
00000000
01000000
00000000
00000000
01000000
00000000
00000000
00010000
00100000
00000000
00010000
00000000
00001000
00000000
,
00000010
00000000
00000000
00000010
00000000
00000000
00000010
00000000
00000000
00001000
00000100
00000000
00001000
00000000
00010000
00000000
,
00011000
00000000
01001000
00000000
00010100
00001000
00100000
20000000
,
00000000
00010000
30000000
00000000
00010000
00100000
00010000
02000000
,
00000000
03010000
00002000
00000000
00000000
00000000
00000000
00003200
,
00000000
00000000
00000000
00000000
00000000
00001000
00000310
00000100
,
00000001
00000000
00000000
00000001
00000000
00000000
00000001
00000000
00000000
00000000
00000100
00000000
00000010
00000000
00001000
00000000
,
00010000
00000000
00000000
00010000
00000000
00000000
00010000
00000000
00000000
00000000
01000000
00000000
00100000
00000000
10000000
00000000
,
01100000
00000000
10010000
00000000
00101000
00000000
00002000
00010000
,
00000000
00010000
00000000
00003000
00000000
00000010
00000100
00001000
,
00000010
00000000
00000000
00000010
00000000
00000000
00000010
00000000
00000000
00001000
00000100
00000000
00001000
00000000
00010000
00000000
,
01000000
00000000
00000000
01000000
00000000
00000000
01000000
00000000
00000000
00010000
00100000
00000000
00010000
00000000
00001000
00000000
,
00011000
00000000
00010010
00000000
00101000
00010000
00000100
00000002
,
00000000
00001000
00000003
00000000
00001000
00000100
00001000
00000020
,
00000000
00001030
00020000
00000000
00000000
00000000
00000000
00230000
,
00000000
00000000
00000000
00000000
00301000
00000100
00001000
00000020
,
00000000
00020030
00002000
00000000
00000000
00000000
00000000
00000000
,
00000000
00000000
00000000
00000000
,
00000000
00000000
00000000
00000000
,
00000000
00000000
00000000
00033000
;

//---------------dance-double - Gabe----------------
#NOTES:
     dance-double:
     Gabe:
     Easy:
     5:
     0.234,0.247,0.159,0.169,0.000,132.000,16.000,17.000,0.000,0.000,0.000,0.234,0.247,0.159,0.169,0.000,132.000,16.000,17.000,0.000,0.000,0.000:
00000000
00000000
00000000
00000000
,
00000000
00000000
00000000
00000000
,
10000000
00000000
01000000
00000000
,
10000000
00000000
00100000
00000000
,
00010000
00000000
01000000
00000000
,
00001000
00000000
00010000
00000000
,
02000000
00000000
00000000
03000000
,
00002000
00000000
00000000
00003000
,
00220000
00330000
00100000
00100000
,
00010000
00010000
00000000
00001000
,
00000000
00001000
00000010
00000001
,
00010000
00000010
00000000
00000010
,
00000000
00000010
00010000
00000100
,
00000010
00010000
00001000
00001000
,
00010000
00010000
00001000
00001000
,
00000100
00000100
00001000
00100000
,
00001000
00000100
00100000
00000100
,
00010000
00000000
00200000
00010000
,
00310000
00000000
00000200
00010000
,
00010300
00000000
00002000
00010000
,
00010000
00013000
00011000
00000000
,
00000000
00000000
01002000
00100000
,
00103000
00000000
02001000
00100000
,
03100000
00001000
01000000
00000000
,
00000000
01000000
00001000
00000000
,
00000000
00000000
20020000
30030000
,
00100000
01000000
00100000
10000000
,
00100000
01000000
00100000
00010000
,
00100000
00100000
01000000
01000000
,
01001000
01100000
00101000
00000000
,
00100000
01000000
00100000
00001000
,
00010000
01000000
00010000
00001000
,
01000000
00001000
00001000
01000000
,
00001000
00001000
00010000
00010000
,
00000200
00000000
00000000
00000300
,
00200000
00000000
00000100
00300100
,
00100000
00000100
00100000
00000100
,
00010010
00010000
00000010
00010000
,
00000100
00010000
00001000
00000010
,
00001100
00000110
00010100
00000000
,
00010010
00000100
00001000
00000100
,
00000110
00000001
00001000
00000001
,
00000010
00000001
00000100
00001000
,
00000010
00000000
00000100
00000000
,
00000220
00000000
00000000
00000330
,
00000010
00000000
00010000
00000000
,
00022000
00000000
00000000
00000000
,
00000000
00000000
00000000
00000000
,
00000000
00000000
00000000
00000000
,
00000000
00000000
00000000
00033000
;

//---------------dance-double - Gabe----------------
#NOTES:
     dance-double:
     Gabe:
     Medium:
     6:
     0.318,0.346,0.040,0.288,0.000,191.000,4.000,29.000,0.000,0.000,0.000,0.318,0.346,0.040,0.288,0.000,191.000,4.000,29.000,0.000,0.000,0.000:
00000000
00000000
00000000
00000000
,
00000000
00000000
00000000
00000000
,
10000000
10000000
10000000
10000000
,
00100000
00100000
00100000
00100000
,
01000000
01000000
01000000
01000000
,
00010000
00010000
00010000
00010000
,
00010000
00100000
00001000
01000000
,
00010000
00100000
01000000
00001000
,
01002000
00000000
00103000
01000000
00000000
00001000
00000000
00001000
,
01000000
01000000
00000100
00000001
,
00000100
00001000
00000100
00000001
,
00001000
00000001
00001000
00000000
00000100
00000000
00001000
00000000
,
00000100
00000001
00000100
00001000
,
00000010
00010000
00000010
00000000
00000100
00000000
00010000
00000000
,
00000100
00000010
00000100
00010000
,
00000100
00000010
00000100
00000000
00000100
00000000
00000010
00000000
,
00000100
00010000
00000100
00000010
,
00001000
00100000
00001000
00100000
00100000
00000000
00010000
00000000
,
00010000
00000000
00001000
00000100
00100000
00000000
00010000
00000000
,
00010000
00000000
00100000
00000100
00100000
00000000
00000100
00000000
,
00010000
00000000
00002000
00010000
00000000
00010000
00000000
00013000
,
00000000
00000000
01000000
00100000
02000000
00000000
00010000
00000000
,
00010000
00000000
03000000
00001000
00001000
00000000
01000000
00000000
,
00001000
00000000
00010000
00200000
00000000
00000000
00000000
00000000
,
00300000
00010000
00100000
00010000
00000000
01000000
00000000
00001000
,
00000000
00100000
00000000
01000000
20010000
00010000
30010000
00000000
,
00100000
01000000
10000000
00000000
00200000
00000000
01300000
00000000
,
00100000
01000000
00010000
00000000
00200000
00000000
01300000
00000000
,
20000000
00000000
00010000
00000000
00010000
00000000
30020000
10000000
,
00000000
10000000
00000000
00000000
00000000
01030000
00100000
00000000
,
00001000
01000000
00001000
00000000
00200000
00000000
00310000
00000000
,
01000000
00001000
01000000
00000000
00020000
00000000
00130000
00000000
,
00002000
00000000
00100000
00000000
02003000
00000000
03100000
00010000
,
00000000
00010000
00000000
00000000
00001000
00000000
00001000
01000000
,
00000000
00200000
00000000
00000000
00000000
00000000
00000000
00300200
,
00000000
00000000
00000000
00000000
00000300
00001000
00010000
00000000
,
00200000
00000000
00010000
00000000
00001000
00001000
00301000
00000000
,
00000200
00000000
00010000
00000000
00001000
00001000
00001300
00000000
,
00020000
00000000
00000010
00000000
00000100
00000000
00032000
00000100
,
00000000
00000100
00000000
00000000
00003000
00010010
00010010
00000000
,
00000200
00000000
00001000
00000000
00010000
00010000
00010300
00000000
,
00000200
00000000
00001000
00000000
00000010
00000010
00000310
00000000
,
00002000
00000000
00003002
00000000
00000013
00000100
00000010
00000200
,
00000000
00000310
00000000
00000000
00000001
00000000
00001000
00000200
,
00000000
00000320
00000000
00000000
00000000
00000000
00000000
00000230
,
00000000
00000000
00000300
00000000
00001000
00000000
00000001
00000200
,
00000000
00000320
00000000
00000000
00000000
00000000
00000000
00000000
,
00000000
00000000
00000000
00000000
,
00000000
00000000
00000000
00000000
,
00000000
00000000
00000000
00000030
;

//---------------dance-single - Gabe----------------
#NOTES:
     dance-single:
     Gabe:
     Hard:
     7:
     0.440,0.544,0.199,0.149,0.179,275.000,20.000,15.000,0.000,0.000,0.000,0.440,0.544,0.199,0.149,0.179,275.000,20.000,15.000,0.000,0.000,0.000:
0000
0000
0000
0000
,
0000
0000
0000
0000
,
1000
0000
0000
1000
0000
0000
1000
0000
0000
0000
0001
0000
0100
0000
0001
0000
,
0010
0000
0000
0010
0000
0000
0010
0000
0000
0000
0100
0000
1000
0000
0010
0000
,
0002
0000
0203
0000
0310
0200
0000
0302
,
0000
0000
1003
0002
0000
0000
0103
0020
,
0000
0000
0000
0000
0000
1030
0100
0002
,
0000
0000
0000
0003
,
2002
0000
3003
0000
0001
0000
2000
0000
0000
0000
0010
0000
0000
0010
0000
0000
,
3010
0100
0010
1000
0010
1000
0100
0001
,
0010
0001
0100
1000
0010
0001
0010
1000
,
0100
0001
0110
0000
0010
0001
0100
1000
,
0010
1000
0100
0001
0010
1000
0010
0001
,
0100
1000
0110
0000
0100
0001
0010
1000
,
0100
1000
0010
0001
0100
1000
0100
0001
,
0010
1000
0110
0000
0100
1000
0010
0001
,
0100
0001
0010
1000
0100
0001
0100
1000
,
0010
0000
0001
0000
0110
0000
0000
0000
1000
0000
0000
1000
0000
0000
1000
0000
,
0000
1000
0000
0000
0100
0000
0010
0000
0001
0000
0000
0001
0000
0000
0001
0000
,
0000
0001
0000
0000
0100
0000
0010
0000
1000
0000
0000
1000
0000
0000
1000
0000
,
0000
1000
0000
0000
0100
0000
0010
0000
0001
0000
0000
0001
0000
0000
0001
0000
,
0000
0001
0000
0000
0100
0000
0010
0000
1000
0000
0100
0000
1000
0000
0100
0000
,
1000
0100
1000
0100
1000
0001
1000
0001
,
1000
0010
1000
0010
1000
0100
1000
0100
,
1000
0000
0000
0010
0000
0000
1000
0000
0000
0100
0000
0000
1001
0000
1000
0001
0000
1000
0001
0000
0000
1000
0001
0000
,
0000
0000
1000
0001
0000
0000
1000
0000
0000
0001
0000
0000
2001
0000
0000
0100
0000
0000
0100
0000
0000
3100
0000
0000
,
0010
0000
0000
0100
0000
0000
1001
0000
0000
0000
1000
0000
0001
0000
0000
0000
,
0010
0000
0000
1000
0000
0000
0101
0000
0000
0000
0010
0000
1000
0000
0000
0000
,
0001
0000
0000
0100
0000
0000
0011
0000
0000
0000
0100
0000
0010
0000
0000
0000
,
1000
0000
0000
0010
0000
0000
0101
0000
0000
0000
0001
0000
0010
0000
0000
0000
,
1001
0000
0000
0100
0000
0000
0001
0000
0000
0000
0010
0000
0100
0000
0000
0000
,
1001
0000
0000
0010
0000
0000
1000
0000
0000
0000
0010
0000
0001
0000
0000
0000
,
1100
0000
0000
0010
0000
0000
0100
0000
0000
0000
1000
0000
0001
0000
0000
0000
,
0010
0100
1000
0001
0100
0010
1000
0020
,
0000
0130
0200
0000
0000
0000
0000
0302
,
0000
0000
0000
0000
0000
1000
1000
1003
,
1001
0000
0000
0100
0000
0000
1001
0000
0000
0000
0100
0000
0010
0000
0000
0000
,
1001
0000
0000
0010
0000
0000
0101
0000
0000
0000
0010
0000
1000
0000
0000
0000
,
0011
0000
0000
0100
0000
0000
1100
0000
0000
0000
0100
0000
0001
0000
0000
0000
,
0010
0100
1000
0001
0100
0010
1000
0000
,
0010
0001
0000
0100
0000
0000
0001
0000
0000
0000
1000
0000
0100
0000
0010
0000
,
0100
1000
0000
0010
0000
0000
0100
0000
0000
0000
0001
0000
0100
0000
0100
0000
,
0010
1000
0000
0100
0000
0000
0010
0000
0000
0000
0001
0000
1000
0000
0100
0000
,
1000
0001
0010
1000
0010
0001
0100
0000
,
0010
0010
0010
0010
0010
0010
0010
0010
,
1000
0100
0000
0100
0010
0000
0001
1000
0000
0100
1000
0000
0010
0000
0100
0001
,
2000
0000
0000
0000
,
0000
0000
0000
0000
,
0000
0000
0000
0000
,
0000
0000
0000
3000
;

//---------------dance-single - Gabe----------------
#NOTES:
     dance-single:
     Gabe:
     Challenge:
     8:
     0.577,0.643,0.646,0.269,0.274,314.000,65.000,27.000,0.000,0.000,0.000,0.577,0.643,0.646,0.269,0.274,314.000,65.000,27.000,0.000,0.000,0.000:
0000
0000
0000
0000
,
0000
0000
0000
0000
,
1000
0000
0100
1000
0000
0100
1000
0000
0000
0000
0100
0000
1000
0000
0100
0000
,
0001
0000
0100
0001
0000
0100
0001
0000
0000
0000
0001
0000
1000
0000
0001
0000
,
0200
0000
0301
0000
0020
0001
0030
0200
,
0000
0000
0301
0020
0000
0000
0031
2000
,
0000
0000
0001
0000
0001
0010
0010
3010
,
0000
1000
0100
0010
0001
1000
0100
0010
,
2002
0000
3003
0000
1001
0000
0110
0000
0000
0000
0100
0000
0000
0100
0000
0000
,
0100
0010
1000
0100
0001
0100
0100
0010
,
0010
0001
1000
0100
1000
1000
0010
0010
,
0110
0000
0100
0000
0101
0000
1000
0000
0001
0010
0000
0010
0100
0000
1000
0010
,
0000
0010
0100
0000
0001
0000
0100
0000
0001
0000
0000
0000
1000
0000
0000
0100
,
0000
0100
1001
0010
0012
0000
1003
0000
,
1000
0100
1000
0020
0000
0130
0001
0100
,
0110
0000
1000
0000
0001
0000
0010
0001
0100
0000
0100
0001
0000
0001
0100
0000
,
0101
0010
1000
1000
0001
1000
1001
0000
,
0010
0000
0010
0000
0010
0000
1000
0000
2100
0000
0000
0010
0000
0000
3001
0000
,
0000
0000
0000
0010
0100
0000
0001
0000
1002
0000
0000
1000
0000
0000
0103
0000
,
0000
0010
0001
0100
0001
0000
1000
0000
2001
0000
0000
0000
3010
0000
0000
0000
,
1010
0010
0011
1100
0000
0101
0000
1001
,
0000
0000
0000
0000
0010
0000
0100
0000
0110
0000
0100
0001
0000
0001
0020
0000
,
0000
0000
0000
0030
0100
0000
0010
0000
2100
0000
0000
0000
3001
0000
0000
0000
,
0102
0000
1003
1001
0000
0010
0110
0100
,
0110
0000
0000
0010
0000
0000
1000
0000
0000
0001
0000
0000
1001
0000
1000
0001
0000
1000
0001
0000
0000
1000
0001
0000
,
0000
0000
1000
0001
0000
0000
1000
0000
0001
1000
0000
0001
1000
0000
0000
0110
0000
0000
0110
0000
0000
0110
0000
0000
,
1001
0000
1000
0100
0000
0001
0100
0000
0000
0000
0001
0000
1001
0000
0110
0000
,
1001
0000
0001
0100
0000
1000
0100
0000
0000
0000
1000
0000
1001
0000
0110
0000
,
2010
0000
3100
0000
1002
0000
0013
0101
,
0000
0000
1010
0000
0000
0101
0000
0001
0020
0000
0000
0000
0100
0000
0030
0000
,
1100
0000
0100
0010
0000
0010
0001
0000
0000
0000
0100
0000
0101
0000
0101
0000
,
1000
0010
1000
0100
0000
0100
0010
0000
0000
0000
0001
0000
0001
0000
1000
0000
,
0120
0000
1030
0000
1000
0010
1010
2010
,
0000
3001
0100
0000
0001
0010
0011
0102
,
0000
1000
1003
0000
0001
1000
0100
0001
,
0100
0000
0001
0000
0011
0000
0010
0000
1010
0000
1000
0100
1000
0010
0100
0001
,
0100
0000
0001
0010
0000
0010
0100
0000
0000
0000
1000
0000
0100
0000
0010
0000
,
0110
0000
1000
0010
0000
0010
0100
0000
0000
0000
0001
0000
0100
0000
0010
0000
,
0210
0000
1300
0000
0102
0000
1003
0101
,
0000
0000
0101
0000
0000
1100
0000
0001
0200
0000
0000
0000
0010
0000
0300
0000
,
0011
0000
1000
0010
0000
0010
0100
0000
0000
0000
1000
0000
0001
0000
0100
0000
,
1000
0001
0010
0001
0000
0100
1000
0000
0000
0000
0010
0000
0100
0000
0010
0000
,
1001
0000
1001
0000
0010
0001
0011
0012
,
0000
0100
0013
0000
0100
1000
1100
2100
,
0000
0000
0010
0000
3010
0000
0000
0001
0100
0000
0010
0000
1000
0000
0100
0000
,
1010
0000
0101
0000
1001
0000
0010
0000
0100
0000
0100
0001
0010
1000
0100
1000
,
0020
0000
0000
0000
,
0000
0000
0000
0000
,
0000
0000
0000
0000
,
0000
0000
0000
0030
;

//---------------dance-double - Expert----------------
#NOTES:
     dance-double:
     Expert:
     Challenge:
     9:
     0.665,0.643,0.915,0.159,0.358,360.000,92.000,16.000,0.000,0.000,0.000,0.665,0.643,0.915,0.159,0.358,360.000,92.000,16.000,0.000,0.000,0.000:
00000000
00000000
00000000
00000000
,
00000000
00000000
00000000
00000000
,
10000000
00000000
01000000
10000000
00000000
01000000
10000000
00000000
00010000
00000000
01000000
00000000
10000000
00000000
01000000
00000000
,
00010000
00000000
01000000
00010000
00000000
01000000
00010000
00000000
00100000
00000000
00010000
00000000
10000000
00000000
00010000
00000000
,
02000000
00010000
03010000
00000000
00200000
00010000
00310000
02000000
,
00000000
00010000
03100000
20000000
00000000
00100000
30010000
02000000
,
00000000
00000000
00010000
00000000
00010000
00100000
00100000
03100000
,
00000000
00001000
01000000
00000000
00100000
00000000
00010000
00000000
00001000
00000000
01000000
00000000
00100000
00000000
00010000
00000000
,
02002000
00000000
03003000
00000000
01001000
00000000
00110000
00000000
00000000
00000000
00100000
00000000
00000000
00100000
00000000
00010000
,
00100000
00010000
01000000
00100000
00001001
00000100
00000100
00000010
,
00000010
00000001
00001000
00000100
00001000
00001000
00000010
00000010
,
00000110
00000000
00000100
00000000
00000101
00000000
00001000
00000000
00000001
00000010
00000001
00000010
00000100
00000000
00001000
00000010
,
00001000
00000010
00000100
00000000
00000001
00001000
00000100
00000010
00000001
00000000
00000000
00000000
00001000
00000000
00001000
00000100
,
00000000
00000100
00001000
00000000
00010010
00000000
00000100
00000000
00000110
00000000
00000010
00000000
00010010
00000000
00000000
00000000
,
00010000
00001000
00011000
00000100
00001100
00000100
00000010
00001000
,
00001100
00000000
00001100
00000000
00000110
00000000
00000100
00000010
00001000
00000000
00001000
00000010
00000000
00000010
00001000
00000000
,
00001010
00000100
00010000
00010000
00000010
00010000
00010010
00000000
,
00001000
00000000
00001000
00000000
00001000
00000000
00100000
00000000
00110000
00000000
00010000
00001000
00000000
00001000
00000100
00000000
,
00000000
00000000
00010000
00001000
00010000
00000000
00000100
00000000
00100000
00000000
00000100
00100000
00000000
00100000
00010000
00000000
,
00000000
00001000
00000100
00010000
00000100
00000000
00100000
00000000
00100000
00000000
00100000
00000000
00101000
00000000
00000000
00000000
,
00101000
00001000
00001100
00110000
00000000
00010100
00000000
00100000
,
00000000
00000000
00000000
00000000
00010000
00000000
00100000
00000000
00110000
00000000
00100000
00001000
00000000
00001000
01000000
00000000
,
00000000
00000000
00100000
01000000
00100000
00000000
00010000
00000000
02100000
00000000
00000000
00000000
03001000
00000000
00000000
00000000
,
00102000
00000000
01003000
01001000
00000000
00010000
00110000
00100000
,
00110000
00000000
00000000
00010000
00000000
00000000
01000000
00000000
00000000
00001000
00000000
00000000
01001000
00000000
01000000
00001000
00000000
01000000
00001000
00000000
00000000
01000000
00001000
00000000
,
00000000
00000000
10000000
00010000
00000000
00000000
10000000
00000000
00010000
10000000
00000000
00010000
10000000
00000000
00000000
01100000
00000000
00000000
01100000
00000000
00000000
01100000
00000000
00000000
,
10010000
00000000
10000000
01000000
00000000
00010000
01000000
00000000
00000000
10000000
00010000
00000000
10010000
00000000
01100000
00000000
,
10010000
00000000
00010000
01000000
00000000
10000000
01000000
00000000
00000000
00010000
10000000
00000000
10010000
00000000
01100000
00000000
,
10100000
10000000
11000000
10000000
10010000
00010000
00110000
01010000
,
00000000
00000000
01010000
00000000
00000000
00101000
00000000
00001000
00020000
00000000
00100000
00000000
00100000
00000000
00130000
00000000
,
01100000
00000000
00100000
00010000
00000000
00010000
00001000
00000000
00000000
00001000
00100000
00000000
00101000
00000000
00101000
00000000
,
01000000
00010000
01000000
00100000
00000000
00100000
00010000
00000000
00000000
00010000
00001000
00000000
00001000
00000000
01000000
00000000
,
00010000
01000000
01100000
00000000
01010000
01010000
01010000
02010000
,
00000000
03001000
00100000
00001000
00011000
00011000
00011000
00102000
,
00000000
00000000
01000000
00000000
01003000
00000000
00000000
00100000
00001000
00000000
01000000
00000000
00100000
00000000
00001000
00000000
,
00011000
00000000
00011000
00000000
00011000
00000000
00001000
00100000
00001000
00000000
00101000
00000000
00110000
00000000
00010000
00000000
,
00011000
00000000
00000100
00001000
00000000
00001000
00010000
00000000
00000000
00010000
00100000
00000000
00110000
00000000
00101000
00000000
,
00011000
00000000
00100000
00001000
00000000
00001000
00010000
00000000
00000000
00010000
00000100
00000000
00010100
00000000
00001100
00000000
,
00011000
00100000
00110000
00000100
00010100
00001000
00101000
00010100
,
00000000
00000000
00001010
00000000
00000000
00011000
00000000
00000010
00002000
00000000
00000100
00000000
00010000
00000000
00003100
00000000
,
00000110
00000000
00010000
00000100
00000000
00000100
00001000
00000000
00000000
00001000
00010000
00000000
00001010
00000000
00001100
00000000
,
00010000
00000010
00000100
00001000
00000000
00000100
00010000
00000000
00000000
00010000
00000100
00000000
00001000
00000000
00000100
00000000
,
00010010
00001100
00010010
00000000
00000110
00000110
00000110
00000120
,
00000000
00001000
00000130
00000000
00011000
00011000
00011000
00021000
,
00000000
00000000
00000100
00000000
00030100
00000000
00000000
00000010
00001000
00000000
00000100
00000000
00010000
00000000
00001000
00000000
,
00001010
00000000
00000101
00000000
00001001
00000000
00000010
00000001
00000100
00001000
00000100
00000001
00000010
00001000
00000100
00001000
,
00000020
00000000
00000000
00000000
,
00000000
00000000
00000000
00000000
,
00000000
00000000
00000000
00000000
,
00000000
00000000
00000000
00000030
;
