#TITLE:Steel Angel Kurumi;
#SUBTITLE:- Kiss Kara Hajimaru Miracle;
#ARTIST:Atsuko Enomoto, Rie Tanaka & Masayo Kurata;
#TITLETRANSLIT:;
#SUBTITLETRANSLIT:;
#ARTISTTRANSLIT:;
#GENRE:;
#CREDIT:;
#BANNER:Steel Angel Kurumi - Kiss Kara Hajimaru Miracle.png;
#BACKGROUND:Steel Angel Kurumi - Kiss Kara Hajimaru Miracle-bg.png;
#LYRICSPATH:;
#CDTITLE:;
#MUSIC:Steel Angel Kurumi - Kiss Kara Hajimaru Miracle.ogg;
#OFFSET:0.005;
#SAMPLESTART:64.284;
#SAMPLELENGTH:12.000;
#SELECTABLE:YES;
#BPMS:0.000=156.680;
#STOPS:;
#TIMESIGNATURES:0.000=4=4
;
#BGCHANGES:0.000=Steel Angel Kurumi - Kiss Kara Hajimaru Miracle.avi=1.000=0=0=0=StretchNoLoop====,
99999=-nosongbg-=1.000=0=0=0 // don't automatically add -songbackground-
;
#KEYSOUNDS:;

//---------------dance-single - BASIC----------------
#NOTES:
     dance-single:
     BASIC:
     Easy:
     4:
     0.250,0.317,0.295,0.131,0.011,121.000,27.000,12.000,0.000,0.000,0.000,0.250,0.317,0.295,0.131,0.011,121.000,27.000,12.000,0.000,0.000,0.000: // measure 1
0000
0000
0000
0000
,  // measure 2
0000
0000
0000
0000
,  // measure 3
0000
0000
0000
0000
,  // measure 4
0000
0000
0000
0000
,  // measure 5
2000
0000
0000
3000
,  // measure 6
0002
0000
0000
0003
,  // measure 7
2000
0000
0000
3000
,  // measure 8
0002
0000
0000
0003
,  // measure 9
0020
0000
0000
0030
,  // measure 10
0200
0000
0000
0300
,  // measure 11
0220
0000
0000
0330
,  // measure 12
2002
0000
0000
3003
,  // measure 13
1000
0100
0010
0001
,  // measure 14
0100
0010
1000
0010
,  // measure 15
0100
0010
0100
0001
,  // measure 16
0100
1000
0010
0110
,  // measure 17
1000
0000
0001
0000
,  // measure 18
1000
0000
0001
0000
,  // measure 19
0100
0100
0010
0000
,  // measure 20
1000
0000
0000
0000
,  // measure 21
0001
0000
1000
0000
,  // measure 22
0010
0000
1000
0000
,  // measure 23
0010
0010
0100
0000
,  // measure 24
0110
0000
0000
0000
,  // measure 25
0001
0000
1000
0000
,  // measure 26
0001
0000
0100
0000
,  // measure 27
1000
1000
0001
0000
,  // measure 28
0110
0000
0000
0000
,  // measure 29
0100
0000
0001
0000
,  // measure 30
1000
0000
0010
0000
,  // measure 31
0100
1000
1000
0000
,  // measure 32
1001
0000
0000
0000
,  // measure 33
0110
0000
1001
0000
,  // measure 34
1100
0000
0101
0000
,  // measure 35
1001
1001
0110
0000
,  // measure 36
0010
0000
0000
0000
,  // measure 37
1100
0000
1010
0000
,  // measure 38
0101
0000
0011
0000
,  // measure 39
0010
0001
0011
0000
,  // measure 40
2000
0000
0000
3000
,  // measure 41
1000
0000
0000
0000
0000
0000
0000
0100
0000
0000
0000
0000
0000
0010
0000
0000
,  // measure 42
0000
0001
0000
0000
0000
0000
0000
0000
,  // measure 43
1000
0100
0010
0001
,  // measure 44
1000
0010
0010
0000
,  // measure 45
0010
0100
1000
0100
,  // measure 46
0100
0001
0001
0000
,  // measure 47
1000
1100
0001
0101
,  // measure 48
0010
0110
0100
0000
,  // measure 49
1001
0000
1001
0000
,  // measure 50
1001
0000
0000
0000
,  // measure 51
1001
0000
1001
0010
,  // measure 52
0110
0000
0000
0000
,  // measure 53
0001
0010
0100
1000
,  // measure 54
0010
0100
0001
0100
,  // measure 55
1000
0010
0001
0100
,  // measure 56
1000
0000
0010
0000
0001
0000
0100
0200
,  // measure 57
0000
0000
0000
0000
,  // measure 58
0000
0000
0000
0000
,  // measure 59
0300
0000
0000
0000
;

//---------------dance-single - TRICK----------------
#NOTES:
     dance-single:
     TRICK:
     Medium:
     5:
     0.384,0.507,0.437,0.350,0.011,174.000,40.000,32.000,0.000,0.000,0.000,0.384,0.507,0.437,0.350,0.011,174.000,40.000,32.000,0.000,0.000,0.000: // measure 1
0000
0000
0000
0000
,  // measure 2
0000
0000
0000
0000
,  // measure 3
0000
0000
0000
0000
,  // measure 4
0000
0000
0000
0000
,  // measure 5
2002
0000
0000
3003
,  // measure 6
0220
0000
0000
0330
,  // measure 7
2200
0000
0000
3300
,  // measure 8
0202
0000
0000
0303
,  // measure 9
2020
0000
0000
3030
,  // measure 10
0022
0000
0000
0033
,  // measure 11
2002
0000
0000
3003
,  // measure 12
0220
0000
0000
0330
,  // measure 13
1000
0100
0010
0001
,  // measure 14
0100
0010
1000
0010
,  // measure 15
0100
0010
0100
0001
,  // measure 16
0100
1000
0010
0110
,  // measure 17
1000
0001
0001
1000
,  // measure 18
1000
0001
0001
0010
,  // measure 19
0100
0100
0110
0001
,  // measure 20
1000
0001
1000
0001
,  // measure 21
1000
1000
1000
0001
,  // measure 22
0001
0001
0010
0100
,  // measure 23
0010
0100
0100
0010
,  // measure 24
0100
0100
0100
0100
0000
0000
0001
0000
,  // measure 25
0001
0100
1000
0100
,  // measure 26
0001
0010
0100
1000
,  // measure 27
0001
1000
0001
0110
,  // measure 28
1000
0001
1000
0001
,  // measure 29
0100
0010
0001
0010
,  // measure 30
1000
0100
0010
0001
,  // measure 31
0100
0001
1000
1001
,  // measure 32
1001
2002
0000
3003
,  // measure 33
0100
1001
0100
0101
,  // measure 34
0010
1100
0001
0120
,  // measure 35
0100
0100
0100
0130
,  // measure 36
0220
0000
0000
0330
,  // measure 37
1001
0100
1010
0001
,  // measure 38
0101
0100
1100
0010
,  // measure 39
1010
0001
1001
0100
,  // measure 40
2002
0000
0000
3003
,  // measure 41
2200
0000
0000
3300
0000
0000
0000
0202
0000
0000
0303
0000
0000
0220
0000
0330
,  // measure 42
0000
2002
0000
0000
0000
0000
3003
0000
,  // measure 43
1000
0010
0001
0010
,  // measure 44
1000
0100
0001
0100
,  // measure 45
1000
0100
1000
0001
,  // measure 46
0100
0001
0001
1000
,  // measure 47
0001
0110
1000
0110
,  // measure 48
0001
0110
1000
0110
,  // measure 49
1100
0100
0101
0100
,  // measure 50
1001
0001
0001
0001
,  // measure 51
1001
0100
1001
0010
,  // measure 52
0110
0010
0010
0010
,  // measure 53
0001
0010
0100
1000
,  // measure 54
0001
0100
1000
0010
,  // measure 55
0001
0100
1000
0100
,  // measure 56
0010
0000
0001
0000
1000
0000
0100
0200
,  // measure 57
0000
0000
0000
0000
,  // measure 58
0000
0000
0000
0000
,  // measure 59
0300
0000
0000
0000
;

//---------------dance-single - MANIAC----------------
#NOTES:
     dance-single:
     MANIAC:
     Hard:
     8:
     0.553,0.539,0.470,0.404,0.087,274.000,43.000,37.000,0.000,0.000,0.000,0.553,0.539,0.470,0.404,0.087,274.000,43.000,37.000,0.000,0.000,0.000: // measure 1
0000
0000
0000
0000
,  // measure 2
0000
0000
0000
0000
,  // measure 3
0000
0000
0000
0000
,  // measure 4
0000
0000
0000
0000
,  // measure 5
1000
0100
1000
0000
0022
0000
0033
0000
,  // measure 6
1000
0010
1000
0000
0202
0000
0303
0000
,  // measure 7
0001
0100
0001
0000
2020
0000
3030
0000
,  // measure 8
1001
0000
0000
0000
0000
0000
1000
0001
1000
0001
1000
0001
1000
0000
0000
0000
,  // measure 9
1000
0100
0000
1000
0200
0000
0000
0000
0000
0000
0000
0000
0300
0000
0000
0000
,  // measure 10
0001
0010
0000
0001
0020
0000
0000
0000
0000
0000
0030
0000
0000
0000
0010
0000
,  // measure 11
0220
0000
0330
0000
1000
1000
0000
1000
,  // measure 12
2002
0000
0000
3003
0000
0100
1001
0000
,  // measure 13
0000
0000
1000
0000
0001
0000
0000
0000
0100
0000
0000
0010
0000
0000
0001
0000
,  // measure 14
0000
0000
0100
0000
1000
0000
0000
0000
0001
0000
0000
0010
0000
0000
0100
0000
,  // measure 15
0000
0000
0100
0000
0001
0000
0000
0000
1000
0000
0000
0010
0000
0000
0100
0000
,  // measure 16
0000
0000
0100
0000
1100
0000
0000
0000
0001
0000
0000
1001
0000
0000
0110
0000
,  // measure 17
1000
0100
0001
0010
1000
0100
0001
0010
,  // measure 18
1000
0100
0010
0001
0011
0000
0100
0000
,  // measure 19
0100
0100
0100
1002
0000
0000
1000
0000
,  // measure 20
0100
1000
0100
1003
,  // measure 21
0010
0001
0100
1000
0100
0001
0010
0001
,  // measure 22
0100
0001
0010
0100
1000
0100
0010
0001
,  // measure 23
0000
0010
0010
0010
2001
0000
0001
0000
,  // measure 24
0100
0001
0100
3001
,  // measure 25
0001
0010
0100
0001
1000
0010
0100
0010
,  // measure 26
0001
1000
0010
0100
0100
0001
0100
0000
,  // measure 27
1000
1000
1000
0120
0000
0000
0001
0000
,  // measure 28
1000
0001
1000
0130
,  // measure 29
0100
0010
0100
0001
0001
1000
1000
0010
,  // measure 30
0010
0001
1000
0100
0010
0001
0010
0100
,  // measure 31
0100
1000
1000
1000
1000
0000
0001
1000
,  // measure 32
1001
0100
0200
0000
0000
0000
0310
0000
,  // measure 33
0110
0010
1001
0100
,  // measure 34
1100
0001
0101
0100
,  // measure 35
1001
0100
1001
0000
0110
0000
0010
0000
,  // measure 36
2000
0100
0002
3003
,  // measure 37
1100
0100
1010
0010
,  // measure 38
0101
1000
0011
0000
,  // measure 39
1000
0001
1000
0000
0000
0000
0011
0000
0001
0000
0010
0000
0010
0000
0010
0000
,  // measure 40
0100
0100
0100
0202
0000
0000
0303
0000
,  // measure 41
2200
0000
3300
0220
0000
0330
0022
0000
,  // measure 42
0033
2002
0000
0000
0000
3003
0000
0000
,  // measure 43
1000
1000
0100
0100
0010
0010
0001
0001
,  // measure 44
1000
0001
0010
0100
0020
0000
0030
0000
,  // measure 45
0001
0001
0010
0010
0100
0100
1000
1000
,  // measure 46
0010
0001
1000
0001
2000
0000
3000
0000
,  // measure 47
1000
1000
1100
0000
0001
0001
0101
0000
,  // measure 48
0010
0010
0110
0000
0100
1000
1001
0001
,  // measure 49
1001
0000
0110
0000
1000
1001
0000
0001
,  // measure 50
1002
2003
3002
1003
,  // measure 51
1000
0100
0010
0001
1000
0100
0010
0100
,  // measure 52
1000
1001
2002
0000
,  // measure 53
3003
0000
0001
0000
1000
0000
0000
0000
0010
0000
0000
0100
0000
0000
1000
0000
,  // measure 54
0000
0000
0010
0000
0001
0000
0000
0000
0100
0000
0000
0010
0000
0000
0001
0000
,  // measure 55
0000
0000
1000
0000
0001
0000
0000
0000
1000
0000
0000
0010
0000
0000
0001
0000
,  // measure 56
0000
0000
1000
0000
0100
0000
0000
0000
0001
0000
0000
0100
1000
0000
0202
0000
,  // measure 57
0000
0000
0000
0000
,  // measure 58
0000
0000
0000
0000
,  // measure 59
0303
0000
0000
0000
;

//---------------dance-single - G.Ramos----------------
#NOTES:
     dance-single:
     G.Ramos:
     Beginner:
     1:
     0.136,0.184,0.033,0.000,0.000,84.000,3.000,0.000,0.000,0.000,0.000,0.136,0.184,0.033,0.000,0.000,84.000,3.000,0.000,0.000,0.000,0.000: // measure 1
0000
0000
0000
0000
,  // measure 2
0000
0000
0000
0000
,  // measure 3
0000
0000
0000
0000
,  // measure 4
0000
0000
0000
0000
,  // measure 5
0010
0000
0000
0000
,  // measure 6
0000
0000
0000
0000
,  // measure 7
0010
0000
0000
0000
,  // measure 8
0000
0000
0000
0000
,  // measure 9
0100
0000
0000
0000
,  // measure 10
0100
0000
0000
0000
,  // measure 11
1000
0000
0001
0000
,  // measure 12
1001
0000
0000
0000
,  // measure 13
0010
0000
0010
0000
,  // measure 14
1000
0000
1000
0000
,  // measure 15
0100
0000
0100
0000
,  // measure 16
0001
0000
0001
0000
,  // measure 17
1000
0000
0000
0000
,  // measure 18
0001
0000
0000
0000
,  // measure 19
1000
0000
0000
0000
,  // measure 20
0001
0000
0000
0000
,  // measure 21
0100
0000
0000
0000
,  // measure 22
0010
0000
0000
0000
,  // measure 23
0100
0000
0000
0000
,  // measure 24
0010
0000
0000
0000
,  // measure 25
0010
0000
0000
0000
,  // measure 26
0010
0000
0000
0000
,  // measure 27
0001
0000
0000
0000
,  // measure 28
0001
0000
0000
0000
,  // measure 29
0100
0000
0000
0000
,  // measure 30
0100
0000
0000
0000
,  // measure 31
1000
0000
0000
0000
,  // measure 32
1000
0000
0000
0000
,  // measure 33
1000
0000
0001
0000
,  // measure 34
0100
0000
0010
0000
,  // measure 35
0010
0000
0001
0000
,  // measure 36
0100
0000
1000
0000
,  // measure 37
0001
0000
1000
0000
,  // measure 38
0100
0000
0010
0000
,  // measure 39
0010
0000
1000
0000
,  // measure 40
0100
0000
0001
0000
,  // measure 41
1000
0000
0100
0000
,  // measure 42
0010
0010
0010
0000
,  // measure 43
1000
1000
1000
0000
,  // measure 44
0100
0100
0100
0000
,  // measure 45
0001
0001
0001
0000
,  // measure 46
0010
0010
0010
0000
,  // measure 47
1000
0000
0100
0000
,  // measure 48
0001
0000
0010
0000
,  // measure 49
1000
0000
0001
0000
,  // measure 50
1001
0000
0000
0000
,  // measure 51
0001
0000
0100
0000
,  // measure 52
1000
0000
0010
0000
,  // measure 53
0010
0000
0001
0000
,  // measure 54
0100
0000
1000
0000
,  // measure 55
0010
0000
1000
0000
,  // measure 56
0100
0000
0001
0000
,  // measure 57
1001
0000
0000
0000
;

//---------------dance-double - BASIC----------------
#NOTES:
     dance-double:
     BASIC:
     Easy:
     4:
     0.248,0.306,0.295,0.120,0.022,121.000,27.000,11.000,0.000,0.000,0.000,0.248,0.306,0.295,0.120,0.022,121.000,27.000,11.000,0.000,0.000,0.000:
00000000
00000000
00000000
00000000
,
00000000
00000000
00000000
00000000
,
00000000
00000000
00000000
00000000
,
00000000
00000000
00000000
00000000
,
20000000
00000000
00000000
30000000
,
00020000
00000000
00000000
00030000
,
20000000
00000000
00000000
30000000
,
00002000
00000000
00000000
00003000
,
00020000
00000000
00000000
00030000
,
00200000
00000000
00000000
00300000
,
00220000
00000000
00000000
00330000
,
00200200
00000000
00000000
00300300
,
00100000
00010000
00001000
00000100
,
00010000
00001000
00100000
00001000
,
00010000
00001000
00010000
00000100
,
00001000
00010000
00000100
00001100
,
00010000
00000000
00000010
00000000
,
00010000
00000000
00000010
00000000
,
00001000
00001000
00000100
00000000
,
00001000
00000000
00000000
00000000
,
00000001
00000000
00001000
00000000
,
00000010
00000000
00001000
00000000
,
00000010
00000010
00000100
00000000
,
00001100
00000000
00000000
00000000
,
00000010
00000000
00010000
00000000
,
00000010
00000000
00001000
00000000
,
00010000
00010000
00000010
00000000
,
00011000
00000000
00000000
00000000
,
00010000
00000000
00000100
00000000
,
00100000
00000000
00001000
00000000
,
00010000
00100000
00100000
00000000
,
01001000
00000000
00000000
00000000
,
00110000
00000000
01001000
00000000
,
01100000
00000000
00101000
00000000
,
01001000
01001000
00110000
00000000
,
00100000
00000000
00000000
00000000
,
11000000
00000000
10100000
00000000
,
01010000
00000000
00110000
00000000
,
00100000
00010000
00110000
00000000
,
02000000
00000000
00000000
03000000
,
01000000
00000000
00000000
00000000
00000000
00000000
00000000
00100000
00000000
00000000
00000000
00000000
00000000
00010000
00000000
00000000
,
00000000
00001000
00000000
00000000
00000000
00000000
00000000
00000000
,
01000000
00100000
00010000
00001000
,
00100000
00001000
00001000
00000000
,
00001000
00010000
00100000
00010000
,
00010000
00000100
00000100
00000000
,
00100000
00110000
00000100
00010100
,
00000100
00001100
00001000
00000000
,
00010010
00000000
00010010
00000000
,
00010010
00000000
00000000
00000000
,
00010010
00000000
00010010
00000100
,
00000110
00000000
00000000
00000000
,
00000001
00000010
00000100
00001000
,
00000010
00000100
00000001
00000100
,
00001000
00000010
00000001
00000100
,
00010000
00000000
00000000
00000000
00000100
00000000
00000000
00000000
00000010
00000000
00000000
00000000
00000000
00001000
00000000
00001000
;

//---------------dance-double - ANOTHER----------------
#NOTES:
     dance-double:
     ANOTHER:
     Medium:
     5:
     0.381,0.489,0.426,0.339,0.022,174.000,39.000,31.000,0.000,0.000,0.000,0.381,0.489,0.426,0.339,0.022,174.000,39.000,31.000,0.000,0.000,0.000:
00000000
00000000
00000000
00000000
,
00000000
00000000
00000000
00000000
,
00000000
00000000
00000000
00000000
,
00000000
00000000
00000000
00000000
,
20020000
00000000
00000000
30030000
,
02200000
00000000
00000000
03300000
,
22000000
00000000
00000000
33000000
,
00202000
00000000
00000000
00303000
,
02020000
00000000
00000000
03030000
,
00022000
00000000
00000000
00033000
,
02002000
00000000
00000000
03003000
,
00022000
00000000
00000000
00033000
,
00100000
00010000
00001000
00000100
,
00010000
00001000
00100000
00001000
,
00010000
00001000
00010000
00000100
,
00001000
00010000
00000100
00001100
,
00010000
00000010
00000010
00010000
,
00010000
00000010
00000010
00000100
,
00001000
00001000
00001100
00000010
,
00001000
00000001
00001000
00000001
,
00001000
00001000
00001000
00000001
,
00000001
00000001
00000010
00000100
,
00000010
00000100
00000100
00000010
,
00001000
00001000
00001000
00001000
00000000
00000000
00000010
00000000
,
00000010
00001000
00010000
00001000
,
00000010
00000100
00001000
00010000
,
00000010
00010000
00000010
00001100
,
00100000
00000100
00100000
00000100
,
00010000
00001000
00000100
00001000
,
00100000
00010000
00001000
00000100
,
00010000
00000100
00100000
00100000
,
01001000
02002000
00000000
03003000
,
00100000
01001000
00100000
00101000
,
00010000
01100000
00001000
00120000
,
00100000
00100000
00100000
00130000
,
02200000
00000000
00000000
03300000
,
10010000
01000000
10100000
00010000
,
01010000
01000000
11000000
00100000
,
10100000
00010000
10010000
01000000
,
02002000
00000000
00000000
03003000
,
02200000
00000000
00000000
03300000
00000000
00000000
00000000
00202000
00000000
00000000
00303000
00000000
00000000
00220000
00000000
00330000
,
00000000
02002000
00000000
00000000
00000000
00000000
03003000
00000000
,
01000000
00010000
00001000
00010000
,
00100000
00010000
00000100
00010000
,
00100000
00010000
00100000
00000100
,
00010000
00000100
00000100
00100000
,
00000100
00011000
00100000
00011000
,
00000010
00001100
00010000
00001100
,
00011000
00001000
00001010
00001000
,
00010010
00000010
00000010
00000010
,
00010010
00001000
00010010
00000100
,
00000110
00000010
00000010
00000010
,
00000001
00000010
00000100
00001000
,
00000001
00000100
00001000
00000010
,
00000001
00000100
00001000
00000100
,
00000100
00000000
00000000
00000000
00000010
00000000
00000000
00000000
00010000
00000000
00000000
00000000
00000000
00001000
00000000
00001000
;

//---------------dance-double - MANIAC----------------
#NOTES:
     dance-double:
     MANIAC:
     Hard:
     8:
     0.517,0.489,0.404,0.295,0.109,267.000,37.000,27.000,0.000,0.000,0.000,0.517,0.489,0.404,0.295,0.109,267.000,37.000,27.000,0.000,0.000,0.000:
00000000
00000000
00000000
00000000
,
00000000
00000000
00000000
00000000
,
00000000
00000000
00000000
00000000
,
00000000
00000000
00000000
00000000
,
10000000
01000000
10000000
00000000
00220000
00000000
00330000
00000000
,
10000000
00100000
10000000
00000000
02020000
00000000
03030000
00000000
,
00010000
01000000
00010000
00000000
20200000
00000000
30300000
00000000
,
01001000
00000000
00000000
00000000
00000000
00000000
01000000
00001000
01000000
00001000
01000000
00001000
01000000
00000000
00000000
00000000
,
01000000
00100000
00000000
01000000
00200000
00000000
00000000
00000000
00000000
00000000
00000000
00000000
00300000
00000000
00000000
00000000
,
00001000
00010000
00000000
00001000
00020000
00000000
00000000
00000000
00000000
00000000
00030000
00000000
00000000
00000000
00010000
00000000
,
00220000
00000000
00330000
00000000
01000000
01000000
00000000
01000000
,
00200200
00000000
00000000
00300300
00000000
00010000
00100000
00000000
,
00100000
00000000
00000100
00000000
00000000
00000000
00010000
00000000
00000000
00001000
00000000
00000000
00000100
00000000
00000000
00000000
,
00010000
00000000
00100000
00000000
00000000
00000000
00000100
00000000
00000000
00001000
00000000
00000000
00010000
00000000
00000000
00000000
,
00010000
00000000
00000100
00000000
00000000
00000000
00100000
00000000
00000000
00001000
00000000
00000000
00010000
00000000
00000000
00000000
,
00001000
00000000
00011000
00000000
00000000
00000000
00000010
00000000
00000000
00010010
00000000
00000000
00001100
00000000
00000000
00000000
,
00010000
00001000
00000010
00000100
00010000
00001000
00000010
00000100
,
00010000
00001000
00000100
00000010
00000110
00000000
00001000
00000000
,
00001000
00001000
00001000
00010020
00000000
00000000
00010000
00000000
,
00001000
00010000
00001000
00010030
,
00000010
00000001
00000100
00001000
00000100
00000001
00000010
00000001
,
00000100
00000001
00000010
00000100
00001000
00000100
00000010
00000001
,
00000000
00000010
00000010
00000010
00002001
00000000
00000001
00000000
,
00000100
00000001
00000100
00003001
,
00000010
00000100
00001000
00000010
00010000
00000100
00001000
00000100
,
00000010
00010000
00000100
00001000
00001000
00000010
00001000
00000000
,
00010000
00010000
00010000
00001200
00000000
00000000
00000010
00000000
,
00010000
00000010
00010000
00001300
,
00010000
00001000
00010000
00000100
00000100
00100000
00100000
00001000
,
00001000
00000100
00100000
00010000
00001000
00000100
00001000
00010000
,
00010000
00100000
00100000
00100000
00100000
00000000
00000100
00100000
,
00100000
00010000
00010000
00000000
00000000
00000000
00001000
00000000
,
00110000
00010000
01001000
00100000
,
01100000
00001000
00101000
00100000
,
01001000
00100000
01001000
00000000
00110000
00000000
00020000
00000000
,
00000000
00000000
00000000
00030000
,
01100000
00100000
01010000
00010000
,
01010000
10000000
00110000
00000000
,
10000000
00010000
10000000
00000000
00000000
00000000
00000000
00000000
00110000
00000000
00010000
00000000
00000000
00000000
00000000
00000000
,
00100000
00100000
00100000
01000000
01000000
01000000
00000000
00000000
,
22000000
00000000
33000000
00000000
00000000
00000000
00000000
02200000
00000000
00000000
03300000
00000000
00000000
00220000
00330000
00000000
,
00000000
02002000
00000000
00000000
00000000
03003000
00000000
00000000
,
01000000
01000000
00100000
00100000
00010000
00010000
00001000
00001000
,
01000000
00001000
00010000
00100000
00010000
00000000
00000000
00000000
,
00001000
00001000
00010000
00010000
00100000
00100000
01000000
01000000
,
00001000
00000100
00100000
00000100
00100000
00000000
00000000
00000000
,
00100000
00100000
00110000
00000000
00000100
00000100
00010100
00000000
,
00001000
00001000
00011000
00000000
00010000
00000000
00000000
00000100
,
00100000
00000000
00000000
00100000
00100000
00000000
00000000
00000100
,
00010020
00020030
00030020
00010030
,
00010000
00001000
00000100
00000010
00010000
00001000
00000100
00001000
,
00010000
00010010
00010010
00000000
,
00000010
00000000
00010000
00000000
00000000
00000000
00000100
00000000
00000000
00001000
00000000
00000000
00010000
00000000
00000000
00000000
,
00000010
00000000
00000001
00000000
00000000
00000000
00000100
00000000
00000000
00000010
00000000
00000000
00000001
00000000
00000000
00000000
,
00001000
00000000
00000001
00000000
00000000
00000000
00001000
00000000
00000000
00000010
00000000
00000000
00000001
00000000
00000000
00000000
,
00001000
00000000
00000100
00000000
00000000
00000000
00000001
00000000
00000000
00000100
00000000
00000000
00000000
00001100
00000000
00000101
;
