#TITLE:Galaxy Angel;
#SUBTITLE:- Galaxy Bang Bang;
#ARTIST:Angel Tai;
#TITLETRANSLIT:;
#SUBTITLETRANSLIT:;
#ARTISTTRANSLIT:;
#GENRE:;
#CREDIT:;
#BANNER:Galaxy BANG BANG.png;
#BACKGROUND:Galaxy BANG BANG-bg.png;
#LYRICSPATH:;
#CDTITLE:;
#MUSIC:Galaxy BANG BANG.ogg;
#OFFSET:-1.540;
#SAMPLESTART:52.840;
#SAMPLELENGTH:12.000;
#SELECTABLE:YES;
#BPMS:0.000=163.000;
#STOPS:;
#TIMESIGNATURES:0.000=4=4
;
#BGCHANGES:8.500=GalaxyAngel.avi=1.000=1=0=0=StretchNoLoop==CrossFade==,
212.000=Galaxy BANG BANG-bg.png=1.000=0=0=1=====,
99999=-nosongbg-=1.000=0=0=0 // don't automatically add -songbackground-
;
#KEYSOUNDS:;

//---------------dance-single - SUPER MANIAC----------------
#NOTES:
     dance-single:
     SUPER MANIAC:
     Challenge:
     10:
     0.546,0.825,0.445,0.072,0.120,275.000,37.000,6.000,0.000,0.000,0.000,0.546,0.825,0.445,0.072,0.120,275.000,37.000,6.000,0.000,0.000,0.000:
0000
0000
0000
0000
,
0000
0000
0000
0000
,
1001
0000
0000
0100
1000
0000
0000
0010
,
0000
0010
0000
0001
0010
0000
0100
0000
,
1000
0000
0001
0010
0100
1000
0001
1001
,
0000
1001
0000
0100
1000
0000
0001
0000
,
0000
0000
0001
0001
0000
0000
1000
0000
,
0000
0100
0000
0001
,
0000
0000
0100
0100
0000
0000
0001
0000
,
0000
0000
1000
0000
0001
1000
0001
1000
,
0000
0000
0010
0010
0000
0000
1000
0000
,
0000
0000
0001
0000
1000
0001
1000
0001
,
1000
0001
1000
0001
1000
0001
1000
0001
1000
0001
1000
0001
1000
0001
1000
0001
,
1000
0100
0010
0001
1001
0000
1001
0000
,
1100
0000
0000
1000
0101
0000
0000
0010
,
0000
0010
0000
0001
1010
0000
0101
0000
,
1000
0000
0001
0010
0100
1000
0001
1001
,
0000
1001
0000
0100
1000
0100
0001
0010
,
0110
0000
0000
1000
0100
0001
0010
0011
,
0000
1001
0000
1000
0001
0100
0001
1000
,
0001
1000
0001
1000
0001
1000
0001
1000
0001
1000
0001
1000
0001
1000
0001
1000
,
1001
0000
0110
0000
0110
0010
0001
1000
,
0001
0000
0101
0001
0010
0100
1000
0001
,
0000
0001
0000
0100
1000
0000
0010
0000
,
0001
0010
0001
0010
0001
0010
0001
0010
,
0002
1000
0000
1000
0000
1000
0000
1003
,
0010
1000
0010
1000
0010
1000
0010
2000
,
0001
0001
0001
3001
,
0100
0000
0001
0001
0000
0000
0100
0100
,
0000
0000
1000
1000
0000
0000
0100
0100
,
0002
1000
0100
0010
,
0100
1000
0100
0013
,
1001
0000
0000
0000
0000
0100
0100
0100
,
0100
0000
0000
0100
0010
0000
0000
0001
,
0011
0000
1001
0000
1100
0000
0010
0100
,
0000
0010
0010
1000
0100
0000
0001
1000
,
0000
1000
0000
1000
0000
1000
0100
1000
,
0100
0010
0001
0010
1000
0100
0000
0001
,
0000
0000
0000
0000
0000
0000
0010
0000
0001
0000
0100
0000
,
0001
1000
0010
0100
,
0001
1000
0100
0010
,
1010
0000
1001
0000
,
0101
0000
1000
0000
1000
0000
0000
0010
,
0000
0001
0010
0100
1000
0010
0001
0100
,
1000
0000
0000
0100
0000
0001
0010
0100
,
1000
0100
0001
0100
1000
0010
0001
0000
,
0100
0000
0000
0000
0000
0000
0001
0000
1000
0000
0010
0000
,
0200
0001
0010
0301
,
0020
1000
0001
1030
,
0001
0000
1000
2000
0000
0000
0000
0000
,
3010
1000
0101
0001
,
1001
0000
1100
1100
0000
0000
0101
0000
,
0000
0000
0110
0110
0000
0000
1010
0000
,
0100
1010
0000
0100
1001
0000
0100
0010
,
0100
0010
0000
0001
1100
0000
0010
0101
;

//---------------dance-single - MANIAC----------------
#NOTES:
     dance-single:
     MANIAC:
     Hard:
     9:
     0.505,0.495,0.469,0.120,0.024,245.000,39.000,10.000,0.000,0.000,0.000,0.505,0.495,0.469,0.120,0.024,245.000,39.000,10.000,0.000,0.000,0.000: // measure 1
0000
0000
0000
0000
,  // measure 2
0000
0000
0000
0000
,  // measure 3
1001
0000
0000
0100
1000
0000
0000
0010
,  // measure 4
0000
0010
0000
0001
0010
0000
0100
0000
,  // measure 5
1000
0000
0001
0010
0100
1000
0001
1001
,  // measure 6
0000
1001
0000
0100
1000
0000
0001
0000
,  // measure 7
0000
0000
0001
0001
0000
0000
1000
0000
,  // measure 8
0000
0100
0000
0001
,  // measure 9
0000
0000
0100
0100
0000
0000
0001
0000
,  // measure 10
0000
0000
1000
0000
0001
1000
0001
1000
,  // measure 11
0000
0000
0010
0010
0000
0000
1000
0000
,  // measure 12
0000
0000
0001
0000
1000
0001
1000
0001
,  // measure 13
2002
0000
0000
3000
,  // measure 14
1003
0100
0010
0001
1001
0000
1001
0000
,  // measure 15
1100
0000
0000
0001
0101
0000
0000
0010
,  // measure 16
0000
0010
0000
1000
1010
0000
0101
0000
,  // measure 17
1000
0000
0001
0010
0100
1000
0001
1001
,  // measure 18
0000
1001
0000
0100
1000
0100
0001
0010
,  // measure 19
0110
0000
0000
1000
0100
0001
0010
0011
,  // measure 20
0000
1001
0000
1000
0001
0100
0001
1000
,  // measure 21
2002
0000
0000
3003
,  // measure 22
1001
0000
0110
0000
0110
0010
0001
1000
,  // measure 23
0001
0000
0101
0001
0010
0100
1000
0001
,  // measure 24
0000
0001
0000
0100
1000
0000
0010
0000
,  // measure 25
0001
0010
0001
0010
0001
0010
0001
0010
,  // measure 26
0002
1000
0000
1000
0000
1000
0000
1003
,  // measure 27
0010
1000
0010
1000
0010
1000
0010
2000
,  // measure 28
0001
0001
0001
3001
,  // measure 29
0100
0000
0001
0001
0000
0000
0100
0100
,  // measure 30
0000
0000
1000
1000
0000
0000
0100
0100
,  // measure 31
0002
1000
0100
0010
,  // measure 32
0100
1000
0100
0013
,  // measure 33
1001
0000
0000
0000
0000
0100
0100
0100
,  // measure 34
0100
0000
0000
0100
0010
0000
0000
0001
,  // measure 35
0011
0000
1001
0000
1100
0000
0010
0100
,  // measure 36
0000
0010
0010
1000
0100
0000
0001
1000
,  // measure 37
0000
1000
0000
1000
0000
1000
0100
1000
,  // measure 38
0100
0010
0001
0010
1000
0100
0000
0001
,  // measure 39
0000
0000
0000
0000
0000
0000
0010
0000
0001
0000
0100
0000
,  // measure 40
0001
1000
0010
0100
,  // measure 41
0001
1000
0100
0010
,  // measure 42
1010
0000
1001
0000
,  // measure 43
0101
0000
1000
0000
1000
0000
0000
0010
,  // measure 44
0000
0001
0010
0100
1000
0010
0001
0100
,  // measure 45
1000
0000
0000
0100
0000
0001
0010
0100
,  // measure 46
1000
0100
0001
0100
1000
0010
0001
0000
,  // measure 47
0100
0000
0000
0000
0000
0000
0001
0000
1000
0000
0010
0000
,  // measure 48
0200
0001
0010
0301
,  // measure 49
0020
1000
0001
1030
,  // measure 50
0001
0000
1000
2000
0000
0000
0000
0000
,  // measure 51
3010
1000
0101
0001
,  // measure 52
1001
0000
1100
1100
0000
0000
0101
0000
,  // measure 53
0000
0000
0110
0110
0000
0000
1010
0000
,  // measure 54
0100
1010
0000
0100
1001
0000
0100
0010
,  // measure 55
0100
0010
0000
0001
1100
0000
0010
0101
;

//---------------dance-single - TRICK----------------
#NOTES:
     dance-single:
     TRICK:
     Medium:
     6:
     0.297,0.330,0.253,0.000,0.000,152.000,21.000,0.000,0.000,0.000,0.000,0.297,0.330,0.253,0.000,0.000,152.000,21.000,0.000,0.000,0.000,0.000:
0000
0000
0000
0000
,
0000
0000
0000
0000
,
1001
0000
0000
0000
1000
0000
0000
0010
,
0000
0000
0010
0000
,
1000
0000
0000
0000
0001
0000
0000
1001
,
0000
1001
0000
0000
1000
0000
0001
0000
,
0000
0000
0001
0001
0000
0000
1000
0000
,
0000
0100
0000
0001
,
0000
0000
0100
0100
0000
0000
0001
0000
,
0000
1000
0001
1000
,
0000
0000
0010
0010
0000
0000
1000
0000
,
0000
0001
1000
0001
,
1000
0001
1000
0001
,
1000
0000
1001
1001
,
1001
0000
0000
0000
0001
0000
0000
0010
,
0000
0000
1001
1001
,
1000
0000
0001
0000
0100
0000
0000
1001
,
0000
1001
0000
0000
1000
0000
0000
0000
,
0110
0000
0000
0000
0100
0000
0000
1001
,
0000
1001
0000
0000
0001
0000
1000
0000
,
0001
1000
0001
1000
,
1001
1001
1001
0000
,
1000
0000
0000
0000
0001
0000
0000
0100
,
0000
0100
0000
0000
0001
0000
0010
0000
,
0001
0000
0001
0000
,
0000
1000
0000
0000
0000
1000
0000
0000
,
0010
0000
0010
0000
,
1000
0000
1000
0000
,
0100
1000
0000
0100
,
0000
1000
0000
0100
,
0001
0010
0100
1000
,
0100
0010
0001
0010
,
0100
0000
0000
0000
,
1001
0000
1001
0000
,
0001
0000
1000
0000
0001
0000
0000
0100
,
0000
0000
0001
0000
,
1000
0000
0000
0100
,
0100
0000
0001
0000
1000
0000
0000
0001
,
0000
0000
0010
0000
,
0001
1000
0010
0100
,
0001
1000
0100
0010
,
0001
0000
0001
0000
,
1000
0000
1001
0000
1001
0000
0000
0010
,
0000
0000
1000
0001
,
1000
0000
0000
0000
,
1000
0001
1000
0001
,
0100
0000
0001
0000
,
0100
0001
0010
0001
,
1000
1000
0001
1000
,
0001
0000
0000
1000
0000
0000
0000
0000
,
0010
1000
0100
1000
,
1100
1000
0000
0001
,
0000
1000
0000
0010
,
1000
1000
0000
0001
0001
0000
0010
0000
,
0100
0000
0000
0001
0001
0000
1000
1000
;

//---------------dance-single - G.Ramos----------------
#NOTES:
     dance-single:
     G.Ramos:
     Beginner:
     1:
     0.186,0.232,0.036,0.000,0.000,105.000,3.000,0.000,0.000,0.000,0.000,0.186,0.232,0.036,0.000,0.000,105.000,3.000,0.000,0.000,0.000,0.000:
0000
0000
0000
0000
,
0000
0000
0000
0000
,
0010
0000
0000
0000
,
0001
0000
0100
0000
,
1000
0000
0000
0000
,
1000
0000
0100
0000
,
0001
0000
1000
0000
,
0001
0000
0000
0000
,
1000
0000
0001
0000
,
1000
0000
0000
0000
,
0000
0010
0010
0000
,
0000
0100
0100
0000
,
0000
1000
1000
0000
,
0001
0001
0001
0001
,
0001
0000
1000
0000
,
0001
0000
0000
0000
,
1000
0000
0001
0000
,
1000
0000
0100
0100
,
0000
0010
0010
0000
,
0001
0000
1000
0000
,
0100
0000
1000
0000
,
0001
0000
0000
0000
,
1001
0000
0100
0000
,
1000
0000
0001
0000
,
0010
0010
0010
0010
,
0010
0010
0010
0000
,
0100
0100
0100
0100
,
0100
0100
0100
0000
,
0010
0000
0100
0000
,
0001
0000
1000
0000
,
0010
0000
0001
0000
,
0100
0000
1000
0000
,
0100
0000
0000
0000
,
0010
0000
1000
0000
,
0100
0100
0100
0000
,
0010
0000
0001
0000
,
1000
0000
0000
0000
,
0010
0000
1000
0000
,
0001
0000
0000
0000
,
0100
0000
0100
0000
,
0010
0000
0010
0000
,
1000
0000
0001
0000
,
0010
0010
0010
0000
,
0100
0000
0001
0000
,
1000
0000
0000
0000
,
0100
0000
1000
0000
,
0001
0000
0000
0000
,
1000
0000
0100
0000
,
0010
0000
0001
0000
,
0010
0000
0000
0000
,
0100
0000
0010
0000
,
1001
0000
0000
0000
,
0100
0100
0000
0000
,
0001
0001
0000
0000
,
1000
0000
0010
0000
,
1001
0000
0000
0000
;

//---------------dance-double - SUPER MANIAC----------------
#NOTES:
     dance-double:
     SUPER MANIAC:
     Challenge:
     10:
     0.545,0.825,0.433,0.072,0.120,275.000,36.000,6.000,0.000,0.000,0.000,0.545,0.825,0.433,0.072,0.120,275.000,36.000,6.000,0.000,0.000,0.000:
00000000
00000000
00000000
00000000
,
00000000
00000000
00000000
00000000
,
10010000
00000000
00000000
01000000
10000000
00000000
00000000
00100000
,
00000000
00100000
00000000
00010000
00100000
00000000
01000000
00000000
,
10000000
00000000
00010000
00100000
01000000
10000000
00010000
10010000
,
00000000
01001000
00000000
00100000
01000000
00000000
00001000
00000000
,
00000000
00000000
00001000
00001000
00000000
00000000
01000000
00000000
,
00000000
00100000
00000000
00001000
,
00000000
00000000
00100000
00100000
00000000
00000000
00001000
00000000
,
00000000
00000000
00100000
00000000
00000100
00100000
00000100
00100000
,
00000000
00000000
00001000
00001000
00000000
00000000
00100000
00000000
,
00000000
00000000
00000100
00000000
00100000
00000100
00100000
00000100
,
00100000
00000100
00100000
00000100
00100000
00000100
00100000
00000100
00100000
00000100
00100000
00000100
00100000
00000100
00100000
00000100
,
00010000
00001000
00000100
00000010
00010010
00000000
00010010
00000000
,
00011000
00000000
00000000
00010000
00001010
00000000
00000000
00000100
,
00000000
00000100
00000000
00000010
00010100
00000000
00001010
00000000
,
00010000
00000000
00000010
00000100
00001000
00010000
00000010
00010010
,
00000000
00001001
00000000
00000100
00001000
00000100
00000001
00000010
,
00000110
00000000
00000000
00001000
00000100
00000001
00000010
00000011
,
00000000
00001001
00000000
00001000
00000001
00000100
00000001
00001000
,
00000001
00001000
00000001
00001000
00000001
00001000
00000001
00001000
00000001
00001000
00000001
00001000
00000001
00001000
00000001
00001000
,
00010010
00000000
00001100
00000000
00001100
00000100
00000010
00010000
,
00000010
00000000
00001010
00000010
00000100
00001000
00010000
00000010
,
00000000
00000010
00000000
00001000
00010000
00000000
00000100
00000000
,
00000010
00000100
00000010
00000100
00000010
00000100
00000010
00000100
,
00000200
00100000
00000000
00100000
00000000
00100000
00000000
00100300
,
00001000
00100000
00001000
00100000
00001000
00100000
00001000
00200000
,
00000100
00000100
00000100
00300100
,
00010000
00000000
00000100
00000100
00000000
00000000
00010000
00010000
,
00000000
00000000
01000000
01000000
00000000
00000000
00100000
00100000
,
00002000
01000000
00100000
00010000
,
00100000
01000000
00100000
00013000
,
01001000
00000000
00000000
00000000
00000000
00100000
00100000
00100000
,
01000000
00000000
00000000
01000000
00100000
00000000
00000000
00010000
,
00110000
00000000
10010000
00000000
11000000
00000000
00100000
01000000
,
00000000
00100000
00100000
10000000
01000000
00000000
00010000
10000000
,
00000000
10000000
00000000
10000000
00000000
10000000
01000000
10000000
,
00100000
00010000
00001000
00010000
01000000
00100000
00000000
00001000
,
00000000
00000000
00000000
00000000
00000000
00000000
00010000
00000000
00001000
00000000
00100000
00000000
,
00001000
01000000
00010000
00100000
,
00001000
01000000
00100000
00010000
,
00101000
00000000
00100000
00000000
,
00010100
00000000
00100000
00000000
00100000
00000000
00000000
00001000
,
00000000
00000100
00001000
00010000
00100000
00001000
00000100
00010000
,
00100000
00000000
00000000
00010000
00000000
00000100
00001000
00010000
,
00010000
00001000
00000010
00001000
00010000
00000100
00000010
00000000
,
00001000
00000000
00000000
00000000
00000000
00000000
00000010
00000000
00010000
00000000
00000100
00000000
,
00002000
00000010
00000100
00003010
,
00000200
00010000
00000010
00010300
,
00000001
00000000
00001000
00002000
00000000
00000000
00000000
00000000
,
00003010
00001000
00000101
00000001
,
00001001
00000000
00001100
00001100
00000000
00000000
00000101
00000000
,
00000000
00000000
00000110
00000110
00000000
00000000
00001010
00000000
,
00001000
00010100
00000000
00001000
00010010
00000000
00001000
00000100
,
00001000
00000100
00000000
00000010
00011000
00000000
00000100
00001010
;

//---------------dance-double - MANIAC----------------
#NOTES:
     dance-double:
     MANIAC:
     Hard:
     9:
     0.502,0.495,0.445,0.120,0.024,245.000,37.000,10.000,0.000,0.000,0.000,0.502,0.495,0.445,0.120,0.024,245.000,37.000,10.000,0.000,0.000,0.000:
00000000
00000000
00000000
00000000
,
00000000
00000000
00000000
00000000
,
10010000
00000000
00000000
01000000
10000000
00000000
00000000
00100000
,
00000000
00100000
00000000
00010000
00100000
00000000
01000000
00000000
,
10000000
00000000
00010000
00100000
01000000
10000000
00010000
10010000
,
00000000
01001000
00000000
00100000
01000000
00000000
00001000
00000000
,
00000000
00000000
00001000
00001000
00000000
00000000
01000000
00000000
,
00000000
00100000
00000000
00001000
,
00000000
00000000
00100000
00100000
00000000
00000000
00001000
00000000
,
00000000
00000000
00100000
00000000
00000100
00100000
00000100
00100000
,
00000000
00000000
00001000
00001000
00000000
00000000
00100000
00000000
,
00000000
00000000
00000100
00000000
00100000
00000100
00100000
00000100
,
00200200
00000000
00000000
00300000
,
00100300
00010000
00001000
00000100
00100000
00000000
00100000
00000000
,
00011000
00000000
00000000
00000010
00001010
00000000
00000000
00000100
,
00000000
00000100
00000000
00010000
00010100
00000000
00001010
00000000
,
00010000
00000000
00000010
00000100
00001000
00010000
00000010
00010010
,
00000000
00010010
00000000
00001000
00010000
00001000
00000010
00000100
,
00000110
00000000
00000000
00001000
00000100
00000001
00000010
00000011
,
00000000
00001001
00000000
00001000
00000001
00000100
00000001
00001000
,
00002002
00000000
00000000
00003003
,
00001001
00000000
00000110
00000000
00000110
00000010
00000001
00001000
,
00000010
00000000
00001010
00000010
00000100
00001000
00010000
00000010
,
00000000
00000010
00000000
00001000
00010000
00000000
00000100
00000000
,
00000010
00000100
00000010
00000100
00000010
00000100
00000010
00000100
,
00000020
00010000
00000000
00010000
00000000
00010000
00000000
00010030
,
00001000
00100000
00001000
00100000
00001000
00100000
00001000
00200000
,
00000100
00000100
00000100
00300100
,
00010000
00000000
00000100
00000100
00000000
00000000
00010000
00010000
,
00000000
00000000
00100000
00100000
00000000
00000000
00010000
00010000
,
00002000
01000000
00100000
00010000
,
00100000
01000000
00100000
00013000
,
01001000
00000000
00000000
00000000
00000000
00100000
00100000
00100000
,
00100000
00000000
00000000
00100000
00010000
00000000
00000000
00001000
,
00110000
00000000
10010000
00000000
11000000
00000000
00100000
01000000
,
00000000
00100000
00100000
10000000
01000000
00000000
00010000
10000000
,
00000000
10000000
00000000
10000000
00000000
10000000
01000000
10000000
,
01000000
00100000
00010000
00100000
10000000
01000000
00000000
00010000
,
00000000
00000000
00000000
00000000
00000000
00000000
00010000
00000000
00001000
00000000
00100000
00000000
,
00001000
01000000
00010000
00100000
,
00001000
01000000
00100000
00010000
,
01010000
00000000
01001000
00000000
,
00010100
00000000
00100000
00000000
00100000
00000000
00000000
00001000
,
00000000
00000100
00001000
00010000
00100000
00001000
00000100
00010000
,
00100000
00000000
00000000
00010000
00000000
00000100
00001000
00010000
,
00100000
00010000
00000100
00010000
00100000
00001000
00000100
00000000
,
00001000
00000000
00000000
00000000
00000000
00000000
00000010
00000000
00010000
00000000
00000100
00000000
,
00002000
00000010
00000100
00003010
,
00000200
00010000
00000010
00010300
,
00000010
00000000
00010000
00020000
00000000
00000000
00000000
00000000
,
00030100
00010000
00001010
00000010
,
00001001
00000000
00001100
00001100
00000000
00000000
00000101
00000000
,
00000000
00000000
00000110
00000110
00000000
00000000
00001010
00000000
,
00000100
00001010
00000000
00000100
00001001
00000000
00000100
00000010
,
00000100
00000010
00000000
00000001
00001100
00000000
00000010
00000101
;

//---------------dance-double - TRICK----------------
#NOTES:
     dance-double:
     TRICK:
     Medium:
     6:
     0.294,0.330,0.229,0.000,0.000,152.000,19.000,0.000,0.000,0.000,0.000,0.294,0.330,0.229,0.000,0.000,152.000,19.000,0.000,0.000,0.000,0.000:
00000000
00000000
00000000
00000000
,
00000000
00000000
00000000
00000000
,
10010000
00000000
00000000
00000000
10000000
00000000
00000000
00100000
,
00000000
00000000
00100000
00000000
,
10000000
00000000
00000000
00000000
00010000
00000000
00000000
10010000
,
00000000
01001000
00000000
00000000
01000000
00000000
00001000
00000000
,
00000000
00000000
00001000
00001000
00000000
00000000
01000000
00000000
,
00000000
00100000
00000000
00001000
,
00000000
00000000
00100000
00100000
00000000
00000000
00001000
00000000
,
00000000
00100000
00000100
00100000
,
00000000
00000000
00001000
00001000
00000000
00000000
00100000
00000000
,
00000000
00000100
00100000
00000100
,
00100000
00000100
00100000
00000100
,
00010000
00000000
00010010
00010010
,
00010010
00000000
00000000
00000000
00000010
00000000
00000000
00000100
,
00000000
00000000
00010010
00010010
,
00010000
00000000
00000010
00000000
00001000
00000000
00000000
00010010
,
00000000
00001001
00000000
00000000
00001000
00000000
00000000
00000000
,
00000110
00000000
00000000
00000000
00000100
00000000
00000000
00001001
,
00000000
00001001
00000000
00000000
00000001
00000000
00001000
00000000
,
00000001
00001000
00000001
00001000
,
00010010
00010010
00010010
00000000
,
00010000
00000000
00000000
00000000
00000010
00000000
00000000
00001000
,
00000000
00001000
00000000
00000000
00000010
00000000
00000100
00000000
,
00000010
00000000
00000010
00000000
,
00000000
00100000
00000000
00000000
00000000
00100000
00000000
00000000
,
00001000
00000000
00001000
00000000
,
00100000
00000000
00100000
00000000
,
00010000
00100000
00000000
00010000
,
00000000
01000000
00000000
00100000
,
00001000
00010000
00100000
01000000
,
00100000
00010000
00001000
00010000
,
00100000
00000000
00000000
00000000
,
10010000
00000000
10010000
00000000
,
00010000
00000000
10000000
00000000
00010000
00000000
00000000
01000000
,
00000000
00000000
00010000
00000000
,
10000000
00000000
00000000
01000000
,
00100000
00000000
00001000
00000000
01000000
00000000
00000000
00001000
,
00000000
00000000
00010000
00000000
,
00001000
01000000
00010000
00100000
,
00001000
01000000
00100000
00010000
,
00000100
00000000
00000100
00000000
,
00100000
00000000
00100000
00000000
00100000
00000000
00000000
00001000
,
00000000
00000000
00100000
00000100
,
00100000
00000000
00000000
00000000
,
00010000
00000010
00010000
00000010
,
00001000
00000000
00000010
00000000
,
00001000
00000010
00000100
00000010
,
00010000
00010000
00000010
00010000
,
00000001
00000000
00000000
00001000
00000000
00000000
00000000
00000000
,
00000010
00001000
00000100
00001000
,
00001100
00001000
00000000
00000001
,
00000000
00001000
00000000
00000010
,
00010000
00010000
00000000
00000010
00000010
00000000
00000100
00000000
,
00001000
00000000
00000000
00000010
00000010
00000000
00010000
00010000
;

//---------------dance-single - G.Ramos/BASIC----------------
#NOTES:
     dance-single:
     G.Ramos/BASIC:
     Easy:
     4:
     0.314,0.335,0.216,0.277,0.000,142.000,18.000,23.000,0.000,0.000,0.000,0.314,0.335,0.216,0.277,0.000,142.000,18.000,23.000,0.000,0.000,0.000:
0000
0000
0000
0000
,
0000
0000
0000
0000
,
0000
0000
0000
0000
,
0000
0000
0000
0000
,
0000
0000
0000
0000
,
0000
0000
0000
0000
,
0020
0000
0001
0030
,
0200
0000
1000
1300
,
0020
0000
1000
0030
,
0200
0000
0001
0301
,
0010
0010
0000
2000
,
0001
0001
0100
0001
,
3020
1000
0100
0030
,
0010
0010
0110
1001
,
0200
0000
1000
0300
,
0020
0000
0001
0031
,
0200
0000
0001
0300
,
0020
0000
1000
1030
,
0100
0100
0000
0002
,
1000
1000
0010
1000
,
0203
0001
0010
0310
,
0110
1001
0000
0000
,
0010
0000
0100
0000
,
1000
0000
0001
1000
,
0010
0010
0100
0100
,
1000
0001
1000
0000
,
0100
0100
0010
0010
,
0001
1000
0001
0000
,
1010
0000
1100
0000
,
0010
0001
0100
0000
,
0011
0000
0101
0000
,
1001
0000
0110
0000
,
2002
0000
0000
3003
,
0020
0000
0230
0000
,
0010
0010
0020
0330
,
1000
0010
0001
0000
,
0100
0100
0100
0100
,
0001
0010
1000
0000
,
0100
0100
0100
0100
,
0010
0010
0100
0100
,
1000
0001
1000
0001
,
1001
0000
0110
0000
,
1001
0110
1001
0000
,
0010
1000
0100
0000
,
0001
0001
0001
0001
,
0010
0001
0100
0000
,
1000
1000
1000
1000
,
0001
1000
0001
1000
,
0100
0100
0010
0010
,
2000
0000
0002
3003
,
0010
0001
0100
1000
,
2002
0000
0000
0000
,
3003
0000
0000
0000
,
0010
0000
0001
0000
,
0100
0000
1000
0000
,
2002
0000
0000
3003
;

//---------------dance-double - G.Ramos/BASIC----------------
#NOTES:
     dance-double:
     G.Ramos/BASIC:
     Easy:
     4:
     0.330,0.335,0.229,0.265,0.000,151.000,19.000,22.000,0.000,0.000,0.000,0.330,0.335,0.229,0.265,0.000,151.000,19.000,22.000,0.000,0.000,0.000:
00000000
00000000
00000000
00000000
,
00000000
00000000
00000000
00000000
,
00000000
00000000
00000000
00000000
,
00000000
00000000
00000000
00000000
,
00000000
00000000
00000000
00000000
,
00000000
00000000
00000000
00000000
,
10000000
10000000
00010000
00010000
,
20000000
00000000
00010000
30010000
,
00010000
10000000
00010000
10000000
,
00020000
00000000
10000000
10030000
,
00100000
01000000
01000000
00100000
,
02000000
00000000
00100000
03100000
,
10000000
01000000
00020000
00030000
,
01010000
00011000
00001100
00000000
,
00000001
00000001
00001000
00001000
,
00000002
00000000
00001000
00001003
,
00000001
00001000
00000001
00001000
,
00000002
00000000
00001000
00001003
,
00000010
00000100
00000100
00000010
,
00000200
00000000
00000010
00000310
,
00000001
00000010
00000100
00001000
,
00010000
00011000
00011000
00000000
,
00100000
00000000
01000000
00000000
,
10000000
00000000
00010000
10000000
,
00100000
00100000
01000000
01000000
,
10000000
00010000
10000000
00000000
,
00001000
00010000
00001000
00000010
,
00000001
00000100
00001000
00000000
,
00001001
00000000
00000101
00000000
,
00000010
00000001
00000100
00000000
,
00001001
00000000
00001100
00000000
,
00001010
00000000
00011000
00000000
,
00220000
00000000
00000000
00330000
,
02000000
00000000
00010000
03000000
,
20000000
00100000
00100000
30000000
,
10000000
00100000
01000000
00010000
,
00002000
00000000
00010000
00013000
,
00000100
00001000
00000010
00000001
,
00000200
00000000
00000001
00000301
,
00000010
00000010
00000001
00000001
,
00000100
00000100
00001000
00001000
,
00020000
00000000
00002000
00033000
,
00001100
00011000
01010000
00000000
,
00000001
00000010
00000100
00001000
,
00000020
00000000
00000100
00000130
,
00001000
00000100
00001000
00010000
,
02000000
00000000
00010000
03010000
,
00100000
00100000
10000000
10000000
,
01000000
01000000
00010000
00010000
,
10000000
01000000
00020000
00000000
,
01030000
10000000
11000000
01010000
,
00022000
00000000
00000000
00000000
,
00033000
00000000
00000000
00000000
,
00100000
00000000
00000010
00000000
,
01000000
00000000
00000100
00000000
,
00022000
00000000
00000000
00033000
;
