#TITLE:Cowboy Bebop;
#SUBTITLE:- Tank;
#ARTIST:Luke Vibert;
#TITLETRANSLIT:;
#SUBTITLETRANSLIT:;
#ARTISTTRANSLIT:;
#GENRE:;
#CREDIT:;
#BANNER:CowboyBebopLogo.png;
#BACKGROUND:CowboyBebopBG.png;
#LYRICSPATH:;
#CDTITLE:;
#MUSIC:Tank.ogg;
#OFFSET:-0.243;
#SAMPLESTART:13.823;
#SAMPLELENGTH:12.000;
#SELECTABLE:YES;
#BPMS:0.000=140.800;
#STOPS:;
#TIMESIGNATURES:0.000=4=4
;
#BGCHANGES:0.000=cowboybebop.avi=1.000=0=0=1=====,
190.750=cowboybebopbg.png=1.000=0=0=1=====,
99999=-nosongbg-=1.000=0=0=0 // don't automatically add -songbackground-
;
#KEYSOUNDS:;

//---------------dance-single - BASIC----------------
#NOTES:
     dance-single:
     BASIC:
     Easy:
     2:
     0.103,0.106,0.011,0.054,0.005,60.000,1.000,5.000,0.000,0.000,0.000,0.103,0.106,0.011,0.054,0.005,60.000,1.000,5.000,0.000,0.000,0.000:
0000
0000
0000
0000
,
0000
0000
0000
0000
,
0000
0000
0000
0000
,
1000
0000
0000
0000
,
0001
0000
0000
0000
,
0010
0000
0000
0000
,
0100
0000
0000
0000
,
0100
0100
0100
0000
,
2000
0000
0000
0000
,
3000
0000
0000
0000
,
0002
0000
0000
0000
,
0003
0000
0000
0000
,
2000
0000
0000
0000
,
3000
0000
0000
0000
,
0002
0000
0000
0000
,
0003
0000
0000
0000
,
1000
0000
1000
0000
,
0001
0000
0001
0000
,
0000
0000
0100
0000
,
0010
0000
0001
0000
,
1000
0000
0001
0000
,
0010
0000
1000
0000
,
0001
0000
0100
0000
,
0100
0000
0001
0000
,
1000
0000
0000
0000
,
0000
0000
0000
0000
,
0002
0000
0000
0000
,
0000
0003
0000
0000
,
0000
0010
0000
0001
,
0000
1000
0000
0100
,
0000
0010
0000
0001
,
0000
1000
0000
1000
,
0000
1000
0000
1000
,
0000
0001
0000
0001
,
0000
0001
0000
0001
,
0000
0010
0000
0010
,
0000
0100
0000
0100
,
0000
0000
0000
0000
,
0000
0000
0000
0000
,
0000
0000
0000
0000
,
0000
0010
0000
1000
,
0000
0001
0000
1000
,
0000
0001
0000
0010
,
0000
0010
0000
0010
,
0000
0010
0000
0100
,
0000
0100
0000
0100
,
0000
0100
0000
0000
,
0000
0000
0000
0000
,
0000
0000
0000
0000
0000
0000
0000
1001
0000
0000
0000
0000
0000
0000
0000
0000
;

//---------------dance-single - TRICK----------------
#NOTES:
     dance-single:
     TRICK:
     Medium:
     3:
     0.257,0.264,0.120,0.131,0.005,142.000,11.000,12.000,0.000,0.000,0.000,0.257,0.264,0.120,0.131,0.005,142.000,11.000,12.000,0.000,0.000,0.000:
0000
0000
0000
0000
,
0000
0000
0000
0000
,
0000
0000
0000
0000
,
1000
1000
1000
1000
,
0001
0001
0001
0001
,
1000
1000
1000
1000
,
0001
0001
0001
0001
,
1001
1001
1001
0000
,
2000
0001
0001
0001
,
3001
0000
1001
0000
,
0002
1000
1000
1000
,
1003
0000
1001
0000
,
2000
0001
0001
0001
,
3001
0000
1001
0000
,
0002
1000
1000
1000
,
1003
0000
1001
0000
,
0010
0010
0010
0110
,
0100
0100
0100
0110
,
0001
0100
1000
0100
,
0001
0100
1000
0100
,
0001
0100
1000
0001
,
1000
0001
0010
0001
,
1000
0100
0010
1000
,
0001
0100
1000
0010
,
0001
0100
1000
0001
,
1000
0001
1000
0001
,
0220
0000
0000
0000
,
0000
0330
0000
0000
,
1000
0100
0001
0100
,
1000
0100
0001
0010
,
1000
0010
0001
0010
,
1000
0010
0001
1000
,
0001
1000
0100
0010
,
0100
0010
1000
0001
,
1000
0001
0100
1000
,
0010
0001
0100
1000
,
0010
0001
0100
1000
,
0001
1000
0001
0010
,
0100
1000
0001
0200
,
0000
0000
0000
0000
0000
0000
0000
0300
,
0000
0020
0000
0000
2000
0000
0000
0000
,
0000
0000
0000
0000
0000
3030
0000
0000
,
0020
0000
0000
0002
0000
0000
0000
0000
,
0000
0000
0033
0000
,
0100
0100
0100
0100
,
0100
0100
0100
0100
,
0200
0000
0000
0000
,
0000
0000
0000
0000
,
0000
0000
0000
0000
0300
0000
0000
1001
0000
0000
0000
0000
0000
0000
0000
0000
;

//---------------dance-single - MANIAC----------------
#NOTES:
     dance-single:
     MANIAC:
     Hard:
     8:
     0.490,0.659,0.152,0.174,0.343,285.000,14.000,16.000,0.000,0.000,0.000,0.490,0.659,0.152,0.174,0.343,285.000,14.000,16.000,0.000,0.000,0.000:
0000
0000
0000
0000
,
0000
0000
0000
0000
,
1000
0100
0010
0001
1000
0100
0010
0001
,
1000
0100
0010
0001
1000
0100
0010
0001
,
0100
0001
1000
0010
0100
0001
1000
0010
,
1000
0100
0001
0010
1000
0100
0001
0010
,
0002
0000
0000
0000
0000
1000
1003
0000
,
1001
0000
0110
0000
1001
1000
1000
0000
,
1000
0100
0000
1000
0100
0000
1000
0100
0000
1000
0200
0000
0000
0000
0310
0000
,
0000
0000
0000
1000
0100
1000
0000
0000
,
0001
0100
0000
0001
0100
0000
0001
0100
0000
0001
0200
0000
0000
0000
0310
0000
,
0000
0000
0000
0001
0100
0001
0000
0000
,
1000
0001
0000
1000
0001
0000
1000
0001
0000
1000
0002
0000
0000
0000
1003
0000
,
0000
0000
0000
0100
0001
0100
0000
0000
,
0010
0100
0000
0010
0100
0000
0010
0100
0000
0010
0200
0000
0000
0000
0310
0000
,
0000
0000
0000
0100
1000
0100
0000
0000
,
0000
0010
0010
0000
0000
0000
0000
0010
0010
0000
0000
0000
1000
0001
0000
0000
,
0000
0100
0100
0000
0000
0000
0000
0100
0100
0000
0000
0000
1000
0001
0000
0000
,
0020
1000
0001
1000
,
0130
0000
1000
0000
0001
0001
0000
1001
,
0000
0010
1000
0001
0100
0010
1000
0001
,
1000
0001
1000
0001
1000
0100
0010
0001
,
1000
0100
0010
0001
0100
0010
0100
0010
,
0100
0010
0010
0001
1000
0100
0010
0001
,
1000
1000
0001
0010
0100
1000
0001
0010
,
0100
1000
0001
1000
0001
1000
0001
0000
,
1000
1000
1000
0000
0001
0001
0001
0000
,
1000
1000
1000
0000
0000
0000
1001
0000
,
1000
0100
0000
1000
0100
0000
1000
0100
0000
1000
0200
0000
0000
0000
0310
0000
,
0000
0000
0010
0100
0010
0100
0010
0000
,
0001
0100
0000
0001
0100
0000
0001
0100
0000
0001
0200
0000
0000
0000
0310
0000
,
0000
0000
0010
0100
0010
0100
0010
0000
,
1000
0001
0000
1000
0001
0000
1000
0001
0000
1000
0002
0000
0000
0000
1003
0000
,
0000
0000
1000
0001
1000
0001
1000
0000
,
0010
0100
0000
0010
0100
0000
0010
0100
0000
0010
0200
0000
0000
0000
0310
0000
,
0000
0000
1000
0001
1000
0001
1000
0000
,
0000
0100
0100
0000
0000
0000
0000
0100
0100
0000
0000
0000
1000
0001
0000
0000
,
0000
0010
0010
0000
0000
0000
0000
0010
0010
0000
0000
0000
1000
0001
0000
0000
,
0000
1000
1000
0000
0000
0000
0000
0001
0001
0000
0000
0000
1000
0001
0000
0000
,
0000
0000
0100
0100
0000
0000
0000
0000
0010
0020
0000
0000
0000
0000
0030
0000
,
0000
2000
0000
0001
0200
0000
0000
0000
,
0000
0000
0000
3300
0000
1000
1000
0000
,
0002
0000
0000
0000
0000
1000
0000
0200
0000
0000
0000
0000
0000
0000
0000
0000
,
0000
0000
0303
0000
0000
0001
0001
0000
,
1010
0011
1010
0011
,
1100
0101
1100
0101
,
0110
0000
0000
0000
1000
0001
1000
0001
1000
0001
1000
0001
1000
0001
1000
0001
,
1000
0001
1000
0001
1000
0001
1000
0001
1000
0002
0000
0000
0000
0000
0000
0000
,
0000
0000
0000
0000
0000
0000
0000
1003
0000
0000
0000
0000
0000
0000
0000
0000
;

//---------------dance-double - TRICK----------------
#NOTES:
     dance-double:
     TRICK:
     Medium:
     3:
     0.252,0.264,0.087,0.131,0.005,142.000,8.000,12.000,0.000,0.000,0.000,0.252,0.264,0.087,0.131,0.005,142.000,8.000,12.000,0.000,0.000,0.000: // measure 1
00000000
00000000
00000000
00000000
,  // measure 2
00000000
00000000
00000000
00000000
,  // measure 3
00000000
00000000
00000000
00000000
,  // measure 4
10000000
10000000
10000000
10000000
,  // measure 5
00010000
00010000
00010000
00010000
,  // measure 6
10000000
10000000
10000000
10000000
,  // measure 7
00001000
00001000
00001000
00001000
,  // measure 8
01001000
01001000
01001000
00000000
,  // measure 9
02000000
00001000
00001000
00001000
,  // measure 10
03001000
00000000
01001000
00000000
,  // measure 11
00000200
00100000
00100000
00100000
,  // measure 12
00100300
00000000
00100000
00000000
,  // measure 13
00200000
00000100
00000100
00000100
,  // measure 14
00300100
00000000
00100000
00000000
,  // measure 15
00000020
00010000
00010000
00010000
,  // measure 16
00010030
00000000
00010010
00000000
,  // measure 17
00000100
00000100
00000100
00001100
,  // measure 18
00001000
00001000
00001000
00001100
,  // measure 19
00000001
00000100
00001000
00000100
,  // measure 20
00000001
00000100
00001000
00000100
,  // measure 21
00000001
00000100
00001000
00000001
,  // measure 22
00001000
00000001
00000010
00000001
,  // measure 23
00010000
00001000
00000100
00010000
,  // measure 24
00000010
00001000
00010000
00000100
,  // measure 25
00000010
00001000
00010000
00000010
,  // measure 26
00010000
00000010
00010000
00000010
,  // measure 27
00022000
00000000
00000000
00000000
,  // measure 28
00000000
00033000
00000000
00000000
,  // measure 29
00100000
00010000
00000100
00010000
,  // measure 30
00100000
00010000
00000100
00001000
,  // measure 31
00100000
00001000
00000100
00001000
,  // measure 32
01000000
00010000
00001000
01000000
,  // measure 33
00001000
01000000
00100000
00010000
,  // measure 34
00100000
00010000
01000000
00001000
,  // measure 35
01000000
00001000
00100000
01000000
,  // measure 36
00100000
00010000
01000000
10000000
,  // measure 37
00100000
00010000
01000000
10000000
,  // measure 38
00010000
10000000
00010000
00100000
,  // measure 39
01000000
10000000
00010000
02000000
,  // measure 40
00000000
00000000
00000000
00000000
00000000
00000000
00000000
03000000
,  // measure 41
00000000
00020000
00000000
00000000
02000000
00000000
00000000
00000000
,  // measure 42
00000000
00000000
00000000
00000000
00000000
03030000
00000000
00000000
,  // measure 43
00020000
00000000
00000000
00002000
00000000
00000000
00000000
00000000
,  // measure 44
00000000
00000000
00033000
00000000
,  // measure 45
00100000
00100000
00100000
00100000
,  // measure 46
00100000
00100000
00100000
00100000
,  // measure 47
00020000
00000000
00000000
00000000
,  // measure 48
00000000
00000000
00000000
00000000
,  // measure 49
00000000
00000000
00000000
00000000
00030000
00000000
00000000
00100000
00000000
00000000
00000000
00000000
00000000
00000000
00000000
00000000
;

//---------------dance-double - MANIAC----------------
#NOTES:
     dance-double:
     MANIAC:
     Hard:
     8:
     0.489,0.659,0.142,0.174,0.343,285.000,13.000,16.000,0.000,0.000,0.000,0.489,0.659,0.142,0.174,0.343,285.000,13.000,16.000,0.000,0.000,0.000:
00000000
00000000
00000000
00000000
,
00000000
00000000
00000000
00000000
,
10000000
01000000
00100000
00010000
10000000
01000000
00100000
00010000
,
10000000
01000000
00100000
00010000
10000000
01000000
00100000
00010000
,
01000000
00010000
10000000
00100000
01000000
00010000
10000000
00100000
,
01000000
00100000
00001000
00010000
01000000
00100000
00001000
00010000
,
00002000
00000000
00000000
00000000
00000000
01000000
01003000
00000000
,
01001000
00000000
00110000
00000000
01001000
01000000
01000000
00000000
,
01000000
00100000
00000000
01000000
00100000
00000000
01000000
00100000
00000000
01000000
00200000
00000000
00000000
00000000
00310000
00000000
,
00000000
00000000
00000000
00100000
00010000
00100000
00000000
00000000
,
00000100
00010000
00000000
00000100
00010000
00000000
00000100
00010000
00000000
00000100
00020000
00000000
00000000
00000000
00031000
00000000
,
00000000
00000000
00000000
00000100
00010000
00000100
00000000
00000000
,
00100000
00000100
00000000
00100000
00000100
00000000
00100000
00000100
00000000
00100000
00000200
00000000
00000000
00000000
00100300
00000000
,
00000000
00000000
00000000
00001000
00000010
00001000
00000000
00000000
,
00000100
00001000
00000000
00000100
00001000
00000000
00000100
00001000
00000000
00000100
00002000
00000000
00000000
00000000
00003100
00000000
,
00000000
00000000
00000000
00001000
00010000
00001000
00000000
00000000
,
00000000
00000100
00000100
00000000
00000000
00000000
00000000
00000100
00000100
00000000
00000000
00000000
00010000
00000010
00000000
00000000
,
00000000
00000100
00000100
00000000
00000000
00000000
00000000
00000100
00000100
00000000
00000000
00000000
00001000
00000001
00000000
00000000
,
00000020
00001000
00000001
00001000
,
00000130
00000000
00001000
00000000
00000001
00000001
00000000
00001001
,
00000000
00000010
00001000
00000001
00000100
00000010
00001000
00000001
,
00010000
00000010
00010000
00000010
00010000
00001000
00000100
00000010
,
00010000
00001000
00000100
00000010
00001000
00000100
00001000
00000100
,
00001000
00000100
00000100
00000010
00010000
00001000
00000100
00000010
,
00010000
00010000
00000010
00000100
00001000
00010000
00000010
00000100
,
00010000
00100000
00000100
00100000
00000100
00100000
00000100
00000000
,
00100000
00100000
00100000
00000000
00000100
00000100
00000100
00000000
,
00100000
00100000
00100000
00000000
00000000
00000000
00100000
00000000
,
00100000
00010000
00000000
00100000
00010000
00000000
00100000
00010000
00000000
00100000
00020000
00000000
00000000
00000000
00031000
00000000
,
00000000
00000000
00010000
00100000
00010000
00100000
00010000
00000000
,
00001000
00100000
00000000
00001000
00100000
00000000
00001000
00100000
00000000
00001000
00200000
00000000
00000000
00000000
00310000
00000000
,
00000000
00000000
00010000
00100000
00010000
00100000
00010000
00000000
,
01000000
00001000
00000000
01000000
00001000
00000000
01000000
00001000
00000000
01000000
00002000
00000000
00000000
00000000
01003000
00000000
,
00000000
00000000
10000000
00010000
10000000
00010000
10000000
00000000
,
00100000
01000000
00000000
00100000
01000000
00000000
00100000
01000000
00000000
00100000
02000000
00000000
00000000
00000000
03100000
00000000
,
00000000
00000000
10000000
00010000
10000000
00010000
10000000
00000000
,
00000000
01000000
01000000
00000000
00000000
00000000
00000000
01000000
01000000
00000000
00000000
00000000
10000000
00010000
00000000
00000000
,
00000000
00010000
00010000
00000000
00000000
00000000
00000000
00010000
00010000
00000000
00000000
00000000
01000000
00001000
00000000
00000000
,
00000000
01000000
01000000
00000000
00000000
00000000
00000000
00001000
00001000
00000000
00000000
00000000
01000000
00001000
00000000
00000000
,
00000000
00000000
00100000
00100000
00000000
00000000
00000000
00000000
00010000
00020000
00000000
00000000
00000000
00000000
00030000
00000000
,
00000000
02000000
00000000
00001000
00200000
00000000
00000000
00000000
,
00000000
00000000
00000000
03300000
00000000
00100000
00100000
00000000
,
00000200
00000000
00000000
00000000
00000000
00100000
00000000
00020000
00000000
00000000
00000000
00000000
00000000
00000000
00000000
00000000
,
00000000
00000000
00030300
00000000
00000000
00000100
00000100
00000000
,
00101000
00001100
00101000
00001100
,
00011000
00001010
00011000
00001010
,
00001100
00000000
00000000
00000000
00010000
00000010
00010000
00000010
00010000
00000010
00010000
00000010
00010000
00000010
00010000
00000010
,
00010000
00000010
00010000
00000010
00010000
00000010
00010000
00000010
00010000
00000020
00000000
00000000
00000000
00000000
00000000
00000000
,
00000000
00000000
00000000
00000000
00000000
00000000
00000000
00010030
00000000
00000000
00000000
00000000
00000000
00000000
00000000
00000000
;

//---------------dance-single - G.Ramos----------------
#NOTES:
     dance-single:
     G.Ramos:
     Beginner:
     1:
     0.109,0.172,0.033,0.000,0.000,67.000,3.000,0.000,0.000,0.000,0.000,0.109,0.172,0.033,0.000,0.000,67.000,3.000,0.000,0.000,0.000,0.000:
0000
0000
0000
0000
,
0000
0000
0000
0000
,
0000
0000
0000
0000
,
0000
0000
0000
0000
,
0000
0000
0000
0000
,
0000
0000
0000
0000
,
0000
0000
0000
0000
,
0000
0000
0000
0000
,
0010
0000
0100
0000
,
0010
0000
0000
0000
,
0100
0000
0010
0000
,
0100
0000
0000
0000
,
1000
0000
0001
0000
,
1000
0000
0000
0000
,
0001
0000
1000
0000
,
0001
0000
0000
0000
,
1000
0000
0100
0000
,
0001
0000
0100
0000
,
0010
0010
0010
0010
,
0000
0100
0100
0000
,
0001
0000
0000
0000
,
1000
0000
0001
0000
,
1000
0000
0000
0000
,
0001
0000
1000
0000
,
0001
0000
0000
0000
,
0010
0000
1000
0000
,
0100
0000
0001
0000
,
1001
0000
0000
0000
,
1000
0000
0010
0000
,
1000
0000
0000
0000
,
0001
0000
0010
0000
,
0001
0000
0000
0000
,
1000
0000
0100
0000
,
1000
0000
0000
0000
,
0001
0000
0100
0000
,
0001
0000
0000
0000
,
1000
0000
0001
0000
,
0001
0000
1000
0000
,
0100
0000
1000
0000
,
0010
0000
0001
0000
,
1001
0000
0000
0000
,
0100
0000
0100
0000
,
1001
0000
0000
0000
,
0010
0000
0010
0000
,
1000
0000
0001
0000
,
0001
0000
1000
0000
,
0100
0000
0000
0000
,
0000
0000
0000
0000
,
0000
0100
0000
0000
,
0000
0000
0000
0000
,
0000
0000
0000
0000
,
0000
0000
0000
0000
,
0000
0000
0010
0000
;

//---------------dance-double - G.Ramos/BASIC----------------
#NOTES:
     dance-double:
     G.Ramos/BASIC:
     Easy:
     3:
     0.204,0.343,0.054,0.425,0.011,87.000,5.000,39.000,0.000,0.000,0.000,0.204,0.343,0.054,0.425,0.011,87.000,5.000,39.000,0.000,0.000,0.000: // measure 1
00000000
00000000
00000000
00000000
,  // measure 2
00000000
00000000
00000000
00000000
,  // measure 3
00000000
00000000
00000000
00000000
,  // measure 4
00000000
00000000
00000000
00000000
,  // measure 5
00000000
00000000
00000000
00000000
,  // measure 6
00000000
00000000
00000000
00000000
,  // measure 7
00000000
00000000
00000000
00000000
,  // measure 8
00000000
00000000
00000000
00000000
,  // measure 9
00000002
00000000
00001000
00001000
,  // measure 10
00002003
00000000
00000000
00003000
,  // measure 11
00002000
00000000
00000001
00000001
,  // measure 12
00003002
00000000
00000000
00000003
,  // measure 13
00000020
00000000
00000100
00000100
,  // measure 14
00000230
00000000
00000000
00000300
,  // measure 15
00000200
00000000
00000010
00000010
,  // measure 16
00000320
00000000
00000000
00000030
,  // measure 17
00001000
00000000
00000010
00000001
,  // measure 18
00000100
00000000
00000010
00001000
,  // measure 19
00000200
00000000
00001000
00001000
,  // measure 20
00002300
00000001
00000001
00003100
,  // measure 21
00020000
00000000
00100000
00100000
,  // measure 22
00230000
00000000
00000000
00300000
,  // measure 23
20000000
00000000
00100000
00100000
,  // measure 24
30200000
00000000
00000000
00300000
,  // measure 25
02000000
00000000
00100000
00100000
,  // measure 26
03200000
00000000
00000000
00300000
,  // measure 27
00200000
00000000
01000000
01000000
,  // measure 28
02300000
00000000
00000000
03000000
,  // measure 29
00100000
00000000
00010000
01000000
,  // measure 30
10000000
00000000
00100000
10000000
,  // measure 31
01000000
00010000
01000000
10000000
,  // measure 32
00020000
00000000
10030000
10010000
,  // measure 33
02000000
00000000
00000000
00000000
,  // measure 34
00020000
00030000
00200000
03300000
,  // measure 35
00020000
00000000
00000000
00030000
,  // measure 36
01000000
01000000
01000000
01000000
,  // measure 37
00020000
00000000
00000000
00000000
,  // measure 38
00002000
00003000
00000200
00030300
,  // measure 39
00002002
00003003
00000220
00000330
,  // measure 40
00002002
00000000
00000000
00003003
,  // measure 41
00000002
00000000
00002000
00000000
,  // measure 42
00003003
00000000
00000000
00000000
,  // measure 43
20000000
00000000
00020000
00000000
,  // measure 44
30030000
00000000
00000000
00000000
,  // measure 45
00000020
00000100
00001000
00000130
,  // measure 46
00000020
00000001
00000100
00000031
,  // measure 47
00001010
00000000
00000000
00000000
,  // measure 48
00000000
00000000
00000000
00000000
,  // measure 49
00000000
00000000
00000000
00000000
00000000
00000200
00000000
00000000
00000000
00000000
00000000
00000000
00000000
00000000
00000000
00000000
,  // measure 50
00000000
00000000
00000000
00000000
,  // measure 51
00000000
00000000
00000000
00000000
,  // measure 52
00000000
00000000
00000000
00000000
,  // measure 53
00000000
00000000
00000000
00000000
00000000
00000000
00000000
00000310
00000000
00000000
00000000
00000000
00000000
00000000
00000000
00000000
;
