#TITLE:Comic Party;
#SUBTITLE:- Kimi No Mama De;
#ARTIST:Emi Motoda;
#TITLETRANSLIT:;
#SUBTITLETRANSLIT:;
#ARTISTTRANSLIT:;
#GENRE:;
#CREDIT:;
#BANNER:ComicPartylogo.png;
#BACKGROUND:ComicParty.png;
#LYRICSPATH:;
#CDTITLE:;
#MUSIC:ComicParty.ogg;
#OFFSET:-0.021;
#SAMPLESTART:1.100;
#SAMPLELENGTH:12.000;
#SELECTABLE:YES;
#BPMS:0.000=134.000;
#STOPS:;
#TIMESIGNATURES:0.000=4=4
;
#BGCHANGES:20.000=ComicParty.avi=1.000=1=0=0=StretchNoLoop==CrossFade==,
188.000=comicparty.png=1.000=0=0=1=====,
99999=-nosongbg-=1.000=0=0=0 // don't automatically add -songbackground-
;
#KEYSOUNDS:;

//---------------dance-single - BASIC----------------
#NOTES:
     dance-single:
     BASIC:
     Easy:
     3:
     0.237,0.243,0.044,0.076,0.005,141.000,4.000,7.000,0.000,0.000,0.000,0.237,0.243,0.044,0.076,0.005,141.000,4.000,7.000,0.000,0.000,0.000: // measure 1
0000
0000
0000
0000
,  // measure 2
1001
0000
0001
0000
,  // measure 3
1000
0000
0001
0000
,  // measure 4
0010
0010
0010
0010
,  // measure 5
0010
0010
0000
0000
,  // measure 6
1000
0000
0001
0000
,  // measure 7
1000
0000
0100
0100
,  // measure 8
0100
0100
0100
0100
,  // measure 9
0000
0000
1000
0100
,  // measure 10
0001
0100
1000
0100
,  // measure 11
0001
0100
1000
0100
,  // measure 12
0001
1000
0010
0100
,  // measure 13
0001
0000
0001
0001
,  // measure 14
1000
1000
0001
0001
,  // measure 15
1000
1000
0100
0100
,  // measure 16
0010
0010
0100
0100
,  // measure 17
1000
1000
0001
0001
,  // measure 18
0100
0100
0010
0000
,  // measure 19
0010
0001
0100
1000
,  // measure 20
0010
0001
0100
1000
,  // measure 21
0001
0000
0010
0100
,  // measure 22
1000
0100
0001
0010
,  // measure 23
1000
0100
0001
0010
,  // measure 24
1000
0000
0000
0000
0100
0000
0000
0000
0001
0000
0000
0000
0000
0000
0000
0200
,  // measure 25
0000
0000
0300
0000
,  // measure 26
0020
0000
0000
0000
,  // measure 27
0000
0030
0000
0200
,  // measure 28
0000
0000
0000
0000
,  // measure 29
0300
0000
0002
0000
,  // measure 30
0000
0000
0000
0003
,  // measure 31
0000
2000
0000
0000
,  // measure 32
0000
0000
3000
0000
,  // measure 33
0000
0000
0000
0000
,  // measure 34
1001
0100
0100
0100
,  // measure 35
0010
0010
0010
1000
,  // measure 36
1000
1000
0001
0001
,  // measure 37
0001
0000
1000
0100
,  // measure 38
0001
0010
1000
0100
,  // measure 39
0001
0010
1000
0100
,  // measure 40
0001
1000
0001
1000
,  // measure 41
0000
0000
0001
1000
,  // measure 42
1000
0001
0001
1000
,  // measure 43
1000
0100
0010
0100
,  // measure 44
0010
0100
0010
1000
,  // measure 45
0001
1000
0001
0001
,  // measure 46
1000
0001
0100
0100
,  // measure 47
0010
0010
0100
0100
,  // measure 48
0010
0000
1000
0000
0001
0000
0000
0100
,  // measure 49
0000
1001
0000
2002
0000
0000
0000
0000
,  // measure 50
0000
0000
3003
0000
;

//---------------dance-single - ANOTHER----------------
#NOTES:
     dance-single:
     ANOTHER:
     Medium:
     5:
     0.302,0.324,0.436,0.207,0.000,135.000,40.000,19.000,0.000,0.000,0.000,0.302,0.324,0.436,0.207,0.000,135.000,40.000,19.000,0.000,0.000,0.000: // measure 1
0000
0000
0000
0000
0000
2000
0000
0000
,  // measure 2
0000
0000
0000
0000
0000
0000
0000
3000
0000
0000
0002
0000
0000
0000
0000
0000
,  // measure 3
0000
0000
0000
0000
0000
0000
0000
0003
0000
0000
0000
0000
0000
0000
0000
0000
,  // measure 4
1001
0110
1001
0110
,  // measure 5
1100
0000
0101
0000
0000
0002
0000
0000
,  // measure 6
0000
0000
0000
0000
0000
0000
0000
0003
0000
0000
2000
0000
0000
0000
0000
0000
,  // measure 7
0000
0000
0000
0000
0000
0000
0000
3000
0000
0000
0000
0000
1100
0000
0000
0000
,  // measure 8
0101
0000
1100
0000
0101
0000
0100
0100
,  // measure 9
0000
0000
1001
1000
,  // measure 10
0100
0001
0100
1000
,  // measure 11
0100
0001
0100
1000
,  // measure 12
0001
0001
1000
1000
,  // measure 13
0010
0010
0100
0100
,  // measure 14
0001
1000
0010
0001
,  // measure 15
1000
0100
0010
0001
,  // measure 16
0100
0000
1000
0000
0000
1001
0000
0000
,  // measure 17
0010
0000
0001
0001
0000
0000
1001
0000
,  // measure 18
1000
0001
0100
0100
,  // measure 19
0100
0010
0010
0010
,  // measure 20
0001
0001
0001
1000
,  // measure 21
1000
1000
0010
0001
,  // measure 22
0100
1000
0010
0001
,  // measure 23
0100
1000
0010
0001
,  // measure 24
0100
0000
1000
0000
0001
0000
0010
0010
,  // measure 25
0000
0000
0200
0000
0000
0000
0000
0000
0000
0300
0000
0000
0000
0000
0000
0000
,  // measure 26
1000
0001
1000
0001
,  // measure 27
1000
0001
1001
0010
,  // measure 28
0100
0010
0100
0010
,  // measure 29
0100
0110
0001
1000
,  // measure 30
0001
0000
1000
0000
0001
0000
0000
2002
,  // measure 31
0000
0000
0000
0000
0000
3003
0000
0220
,  // measure 32
0000
0000
0000
0000
,  // measure 33
0330
0100
0100
0000
0000
0002
0000
0000
,  // measure 34
0000
0000
0000
0003
0000
2000
0000
0000
,  // measure 35
0000
0000
0000
3000
0000
0000
0000
0000
,  // measure 36
1001
1100
0101
1100
,  // measure 37
0101
0000
1001
0000
0000
0020
0000
0000
,  // measure 38
0000
0000
0000
0030
0000
0200
0000
0000
,  // measure 39
0000
0000
0000
0300
0000
0000
1010
0000
,  // measure 40
0011
1010
0011
0110
,  // measure 41
1001
0000
0000
0000
0000
2000
0000
0000
,  // measure 42
0000
0000
0000
3000
0000
0002
0000
0000
,  // measure 43
0000
0000
0000
0003
0000
0000
0000
0000
,  // measure 44
1001
1001
0110
0110
,  // measure 45
1010
0000
0101
0000
0000
0002
0000
0000
,  // measure 46
0000
0000
0000
0003
0000
2000
0000
0000
,  // measure 47
0000
0000
0000
3000
0000
0000
1001
0000
,  // measure 48
1010
0011
1100
0101
,  // measure 49
0000
2000
0000
0002
0000
0000
0000
0000
,  // measure 50
0000
0000
3003
0000
;

//---------------dance-single - MANIAC----------------
#NOTES:
     dance-single:
     MANIAC:
     Hard:
     7:
     0.415,0.378,0.098,0.251,0.000,234.000,9.000,23.000,0.000,0.000,0.000,0.415,0.378,0.098,0.251,0.000,234.000,9.000,23.000,0.000,0.000,0.000: // measure 1
0000
0000
0000
0000
0000
1000
0100
1000
,  // measure 2
0000
0001
0100
0001
0000
0100
1000
0100
,  // measure 3
0000
0100
0001
0100
0000
0000
0000
1000
,  // measure 4
1000
0000
1000
0001
0010
0200
0000
0302
,  // measure 5
0000
0003
0001
0000
1000
0000
0001
0000
0000
0000
1000
0000
0001
0000
1000
0000
,  // measure 6
0000
0001
0100
0001
0000
1000
0010
1000
,  // measure 7
0000
0100
0010
0001
0000
0000
0010
0001
,  // measure 8
1000
0100
0010
0001
1000
0001
0100
0020
,  // measure 9
0000
0030
0000
0000
1001
0000
0110
0000
,  // measure 10
0001
1000
0001
0000
0010
0000
0100
0000
,  // measure 11
0100
0100
0100
0000
1000
0000
0100
0000
,  // measure 12
0010
0001
0010
0000
0001
0000
1000
0000
,  // measure 13
0100
0100
0100
0000
1010
0000
0011
0000
,  // measure 14
0001
0000
0001
0000
1000
1000
1000
0000
,  // measure 15
0100
0000
0010
0000
0001
0001
0001
0000
,  // measure 16
1000
0000
0001
1000
0100
1000
0000
0002
,  // measure 17
0000
0003
0000
0000
0010
0000
0200
0000
0300
0000
0000
0000
1000
0000
0000
0000
,  // measure 18
0001
0000
1001
0000
1000
0000
0100
1000
,  // measure 19
0100
0000
0100
0000
0010
0000
0001
0001
,  // measure 20
0100
0000
0100
0000
0001
0000
0001
0001
,  // measure 21
0100
0000
1000
0000
0100
0000
0010
0010
,  // measure 22
0001
0000
0100
0000
0001
0000
0100
0100
,  // measure 23
0001
2000
3000
0002
,  // measure 24
0003
0000
2002
0000
3003
0000
0001
0002
,  // measure 25
0000
0000
2000
0000
0000
0000
0000
0000
0000
0000
0000
3003
0000
0000
0000
0000
,  // measure 26
2000
0001
0100
0001
,  // measure 27
0010
0100
3001
0020
,  // measure 28
1000
0100
0001
0100
,  // measure 29
1000
0130
0200
0001
,  // measure 30
0010
1000
0010
0001
,  // measure 31
0310
0000
0010
0000
1000
0001
0000
0220
,  // measure 32
0000
0000
0000
0000
,  // measure 33
0330
1001
1001
0000
0000
0001
0100
0001
,  // measure 34
0000
1000
0100
1000
0000
0010
0100
0010
,  // measure 35
0000
1000
0001
1000
0000
0000
0000
0001
,  // measure 36
0001
0000
0000
0000
0010
0000
0001
0000
1000
0000
0200
0000
0000
0300
0020
0000
,  // measure 37
0000
0030
1000
0000
0001
0000
1000
0000
0000
0000
0001
0000
0010
0000
0001
0000
,  // measure 38
0000
1000
0010
1000
0000
1000
0001
1000
,  // measure 39
0000
0100
0010
0100
0000
0000
1000
0001
,  // measure 40
0010
0100
1000
0100
0010
0001
1000
0200
,  // measure 41
0000
0000
0000
0300
0000
0000
0000
0000
0000
0000
1000
0000
1000
0000
1000
0000
,  // measure 42
0000
0001
0001
0001
0000
0010
0010
0010
,  // measure 43
0000
0100
0100
0100
0000
0000
0000
1000
,  // measure 44
0010
0000
0000
0000
0001
0000
1000
0000
0100
0000
0020
0000
0000
0030
0200
0000
,  // measure 45
0000
0300
0010
0000
0100
0000
0010
0000
0000
0000
0010
0000
1000
0000
0001
0000
,  // measure 46
0000
0100
1000
0001
0000
1000
1000
0001
,  // measure 47
0000
0001
0001
1000
0000
0000
1000
0100
,  // measure 48
0010
0001
0100
0010
1000
0001
0010
0100
,  // measure 49
0000
0020
0000
0200
0000
0000
0000
0000
,  // measure 50
0000
0000
0330
0000
;

//---------------dance-double - BASIC----------------
#NOTES:
     dance-double:
     BASIC:
     Easy:
     3:
     0.235,0.243,0.033,0.076,0.005,141.000,3.000,7.000,0.000,0.000,0.000,0.235,0.243,0.033,0.076,0.005,141.000,3.000,7.000,0.000,0.000,0.000:
00000000
00000000
00000000
00000000
,
10010000
00000000
00010000
00000000
,
10000000
00000000
00010000
00000000
,
00100000
00100000
00100000
00100000
,
00010000
00010000
00000000
00000000
,
01000000
00000000
00001000
00000000
,
01000000
00000000
00100000
00100000
,
00100000
00100000
00100000
00100000
,
00000000
00000000
00100000
00010000
,
00000100
00010000
00100000
00010000
,
00000100
00010000
00100000
00010000
,
00000100
00100000
00001000
00010000
,
00000010
00000000
00000010
00000010
,
00010000
00010000
00000010
00000010
,
00010000
00010000
00001000
00001000
,
00000100
00000100
00001000
00001000
,
00001000
00001000
00000001
00000001
,
00000100
00000100
00000010
00000000
,
00000010
00000001
00000100
00001000
,
00000010
00000001
00000100
00001000
,
00000010
00000000
00000100
00001000
,
00010000
00001000
00000010
00000100
,
00010000
00001000
00000010
00000100
,
00010000
00000000
00000000
00000000
00001000
00000000
00000000
00000000
00000010
00000000
00000000
00000000
00000000
00000000
00000000
00002000
,
00000000
00000000
00003000
00000000
,
00002000
00000000
00000000
00000000
,
00000000
00003000
00000000
00020000
,
00000000
00000000
00000000
00000000
,
00030000
00000000
00000200
00000000
,
00000000
00000000
00000000
00000300
,
00000000
00200000
00000000
00000000
,
00000000
00000000
00300000
00000000
,
00000000
00000000
00000000
00000000
,
01001000
00100000
00100000
00100000
,
00010000
00010000
00010000
01000000
,
01000000
01000000
00001000
00001000
,
00001000
00000000
01000000
00100000
,
00010000
00100000
10000000
01000000
,
00010000
00100000
10000000
01000000
,
00010000
10000000
00010000
10000000
,
00000000
00000000
00010000
10000000
,
01000000
00001000
00001000
01000000
,
01000000
00100000
00010000
00100000
,
00010000
00100000
00010000
01000000
,
00001000
01000000
00001000
00001000
,
00100000
00000100
00010000
00010000
,
00001000
00001000
00010000
00010000
,
00001000
00000000
00100000
00000000
00000100
00000000
00000000
00010000
,
00000000
00100000
00000000
00022000
00000000
00000000
00000000
00000000
,
00000000
00000000
00033000
00000000
;

//---------------dance-double - ANOTHER----------------
#NOTES:
     dance-double:
     ANOTHER:
     Medium:
     5:
     0.299,0.324,0.426,0.207,0.000,134.000,39.000,19.000,0.000,0.000,0.000,0.299,0.324,0.426,0.207,0.000,134.000,39.000,19.000,0.000,0.000,0.000:
00000000
00000000
00000000
00000000
00000000
20000000
00000000
00000000
,
00000000
00000000
00000000
00000000
00000000
00000000
00000000
30000000
00000000
00000000
00020000
00000000
00000000
00000000
00000000
00000000
,
00000000
00000000
00000000
00000000
00000000
00000000
00000000
00030000
00000000
00000000
00000000
00000000
00000000
00000000
00000000
00000000
,
10010000
01100000
10010000
01100000
,
11000000
00000000
01010000
00000000
00000000
00020000
00000000
00000000
,
00000000
00000000
00000000
00000000
00000000
00000000
00000000
00030000
00000000
00000000
02000000
00000000
00000000
00000000
00000000
00000000
,
00000000
00000000
00000000
00000000
00000000
00000000
00000000
03000000
00000000
00000000
00000000
00000000
01100000
00000000
00000000
00000000
,
00101000
00000000
01100000
00000000
00101000
00000000
00100000
00100000
,
00000000
00000000
01001000
01000000
,
00010000
00000100
00010000
00100000
,
00010000
00000100
00010000
00100000
,
00000100
00000100
00100000
00100000
,
00001000
00001000
00010000
00010000
,
00000010
00010000
00000100
00000010
,
00010000
00001000
00000100
00000010
,
00001000
00000000
00010000
00000000
00000000
00010010
00000000
00000000
,
00000100
00000000
00000010
00000010
00000000
00000000
00010010
00000000
,
00001000
00000001
00000100
00000100
,
00000100
00000010
00000010
00000010
,
00000001
00000001
00000001
00001000
,
00001000
00001000
00000010
00000001
,
00001000
00010000
00000100
00000010
,
00001000
00010000
00000100
00000010
,
00001000
00000000
00010000
00000000
00000010
00000000
00000100
00000100
,
00000000
00000000
00002000
00000000
00000000
00000000
00000000
00000000
00000000
00003000
00000000
00000000
00000000
00000000
00000000
00000000
,
00100000
00000100
00100000
00000100
,
00100000
00000100
00100000
00001000
,
00010000
00001000
00010000
00001000
,
00010000
00011000
00000100
00100000
,
00001000
00000000
01000000
00000000
00001000
00000000
00000000
02002000
,
00000000
00000000
00000000
00000000
00000000
03003000
00000000
00220000
,
00000000
00000000
00000000
00000000
,
00330000
00100000
00100000
00000000
00000000
00002000
00000000
00000000
,
00000000
00000000
00000000
00003000
00000000
02000000
00000000
00000000
,
00000000
00000000
00000000
03000000
00000000
00000000
00000000
00000000
,
10010000
11000000
01010000
11000000
,
01010000
00000000
10010000
00000000
00000000
00200000
00000000
00000000
,
00000000
00000000
00000000
00300000
00000000
02000000
00000000
00000000
,
00000000
00000000
00000000
03000000
00000000
00000000
10100000
00000000
,
00011000
01010000
00011000
00110000
,
01001000
00000000
00000000
00000000
00000000
02000000
00000000
00000000
,
00000000
00000000
00000000
03000000
00000000
00002000
00000000
00000000
,
00000000
00000000
00000000
00003000
00000000
00000000
00000000
00000000
,
01001000
01001000
00110000
00110000
,
00101000
00000000
00010100
00000000
00000000
00000200
00000000
00000000
,
00000000
00000000
00000000
00000300
00000000
00200000
00000000
00000000
,
00000000
00000000
00000000
00300000
00000000
00000000
00100000
00000000
,
00101000
00001100
00110000
00010100
,
00000000
00022000
00000000
00000000
00000000
00000000
00000000
00000000
,
00000000
00000000
00033000
00000000
;

//---------------dance-double - MANIAC----------------
#NOTES:
     dance-double:
     MANIAC:
     Hard:
     7:
     0.413,0.378,0.098,0.251,0.000,233.000,9.000,23.000,0.000,0.000,0.000,0.413,0.378,0.098,0.251,0.000,233.000,9.000,23.000,0.000,0.000,0.000:
00000000
00000000
00000000
00000000
00000000
10000000
01000000
10000000
,
00000000
00010000
01000000
00010000
00000000
01000000
10000000
01000000
,
00000000
01000000
00010000
01000000
00000000
00000000
00000000
10000000
,
10000000
00000000
10000000
00010000
00100000
02000000
00000000
03020000
,
00000000
00030000
00001000
00000000
01000000
00000000
00001000
00000000
00000000
00000000
01000000
00000000
00001000
00000000
01000000
00000000
,
00000000
00001000
00100000
00001000
00000000
01000000
00010000
01000000
,
00000000
00100000
00010000
00001000
00000000
00000000
00010000
00001000
,
01000000
00100000
00010000
00001000
01000000
00001000
00100000
00020000
,
00000000
00030000
00000000
00000000
00100000
00000000
00011000
00000000
,
00000100
00100000
00000100
00000000
00001000
00000000
00010000
00000000
,
00010000
00010000
00010000
00000000
00100000
00000000
00010000
00000000
,
00001000
00000100
00001000
00000000
00000100
00000000
00100000
00000000
,
00001000
00001000
00001000
00000000
00010100
00000000
00000110
00000000
,
00000010
00000000
00000010
00000000
00010000
00010000
00010000
00000000
,
00001000
00000000
00000100
00000000
00000010
00000010
00000010
00000000
,
00010000
00000000
00000010
00010000
00001000
00010000
00000000
00000020
,
00000000
00000030
00000000
00000000
00000010
00000000
00000200
00000000
00000300
00000000
00000000
00000000
00001000
00000000
00000000
00000000
,
00000001
00000000
00001001
00000000
00001000
00000000
00000100
00001000
,
00000100
00000000
00000100
00000000
00000010
00000000
00000001
00000001
,
00000100
00000000
00000100
00000000
00000001
00000000
00000001
00000001
,
00001000
00000000
00010000
00000000
00001000
00000000
00000100
00000100
,
00000010
00000000
00001000
00000000
00000010
00000000
00001000
00001000
,
00000010
00020000
00030000
00000020
,
00000030
00000000
00020020
00000000
00030030
00000000
00000010
00000020
,
00000000
00000000
00020000
00000000
00000000
00000000
00000000
00000000
00000000
00000000
00000000
00030030
00000000
00000000
00000000
00000000
,
00200000
00000100
00010000
00000100
,
00001000
00010000
00300100
00002000
,
00100000
00010000
00000100
00010000
,
00100000
00013000
00020000
00000100
,
00001000
00100000
00001000
00000100
,
00031000
00000000
00001000
00000000
00100000
00000100
00000000
00022000
,
00000000
00000000
00000000
00000000
,
00033000
01001000
01001000
00000000
00000000
00001000
00100000
00001000
,
00000000
01000000
00100000
01000000
00000000
00010000
00100000
00010000
,
00000000
01000000
00001000
01000000
00000000
00000000
00000000
00001000
,
00001000
00000000
00000000
00000000
00010000
00000000
00001000
00000000
01000000
00000000
00200000
00000000
00000000
00300000
00020000
00000000
,
00000000
00030000
10000000
00000000
00010000
00000000
10000000
00000000
00000000
00000000
00010000
00000000
00100000
00000000
00010000
00000000
,
00000000
10000000
00100000
10000000
00000000
10000000
00010000
10000000
,
00000000
01000000
00100000
01000000
00000000
00000000
10000000
00010000
,
00100000
01000000
10000000
01000000
00100000
00010000
10000000
02000000
,
00000000
00000000
00000000
03000000
00000000
00000000
00000000
00000000
00000000
00000000
01000000
00000000
01000000
00000000
01000000
00000000
,
00000000
00001000
00001000
00001000
00000000
00010000
00010000
00010000
,
00000000
00100000
00100000
00100000
00000000
00000000
00000000
01000000
,
00010000
00000000
00000000
00000000
00001000
00000000
01000000
00000000
00100000
00000000
00020000
00000000
00000000
00030000
00200000
00000000
,
00000000
00300000
00001000
00000000
00010000
00000000
00001000
00000000
00000000
00000000
00001000
00000000
00100000
00000000
00000100
00000000
,
00000000
00010000
00100000
00000100
00000000
00100000
00100000
00000100
,
00000000
00000100
00000100
00100000
00000000
00000000
00100000
00010000
,
00001000
00000100
00010000
00001000
00100000
00000100
00001000
00010000
,
00000000
00000000
00000000
00022000
00000000
00000000
00000000
00000000
,
00000000
00000000
00033000
00000000
;

//---------------dance-single - Gabe----------------
#NOTES:
     dance-single:
     Gabe:
     Beginner:
     1:
     0.090,0.132,0.033,0.000,0.000,55.000,3.000,0.000,0.000,0.000,0.000,0.090,0.132,0.033,0.000,0.000,55.000,3.000,0.000,0.000,0.000,0.000: // measure 1
0000
0000
0000
0000
,  // measure 2
0000
0000
0000
0000
,  // measure 3
0000
0000
0000
0000
,  // measure 4
0000
0000
0000
0000
,  // measure 5
0000
0000
0000
0000
,  // measure 6
1000
0000
0000
0000
,  // measure 7
1000
0000
0000
0000
,  // measure 8
0001
0000
0001
0000
,  // measure 9
0001
0000
0000
0000
,  // measure 10
0100
0000
0000
0000
,  // measure 11
0000
0000
0000
0000
,  // measure 12
0010
0000
0000
0000
,  // measure 13
0000
0000
0000
0000
,  // measure 14
0100
0000
0000
0000
,  // measure 15
0000
0000
0000
0000
,  // measure 16
0010
0000
0000
0000
,  // measure 17
0000
0000
0000
0000
,  // measure 18
0001
0000
0000
0000
,  // measure 19
0000
0000
0000
0000
,  // measure 20
0010
0000
0000
0000
,  // measure 21
0000
0000
0000
0000
,  // measure 22
1000
0000
0000
0000
,  // measure 23
0000
0000
0000
0000
,  // measure 24
0010
0000
0000
0000
,  // measure 25
1001
0000
0000
0000
,  // measure 26
0100
0000
0100
0000
,  // measure 27
0100
0000
0000
0000
,  // measure 28
1000
0000
1000
0000
,  // measure 29
1000
0000
0000
0000
,  // measure 30
0010
0000
0010
0000
,  // measure 31
0010
0000
0000
0000
,  // measure 32
0001
0000
0001
0000
,  // measure 33
0001
0000
0000
0000
,  // measure 34
0010
0000
0100
0000
,  // measure 35
0010
0000
0000
0000
,  // measure 36
0100
0000
0010
0000
,  // measure 37
0100
0000
0000
0000
,  // measure 38
1000
0000
0001
0000
,  // measure 39
1000
0000
0000
0000
,  // measure 40
0001
0000
1000
0000
,  // measure 41
0001
0000
0000
0000
,  // measure 42
1000
0000
0000
0000
,  // measure 43
0010
0010
0010
0000
,  // measure 44
0100
0000
0000
0000
,  // measure 45
0001
0001
0001
0000
,  // measure 46
1000
0000
0100
0000
,  // measure 47
0010
0010
0010
0000
,  // measure 48
0001
0000
0100
0000
,  // measure 49
1001
0000
1001
0000
;
