#VERSION:0.83;
#TITLE:inkjet samba;
#SUBTITLE:;
#ARTIST:dj VERTICAI;
#TITLETRANSLIT:;
#SUBTITLETRANSLIT:;
#ARTISTTRANSLIT:;
#GENRE:;
#ORIGIN:;
#CREDIT:;
#BANNER:inkjet samba.png;
#BACKGROUND:inkjet samba-bg.png;
#PREVIEWVID:;
#JACKET:inkjet samba-jacket.png;
#CDIMAGE:;
#DISCIMAGE:;
#LYRICSPATH:;
#CDTITLE:;
#MUSIC:inkjet samba.ogg;
#OFFSET:-0.430000;
#SAMPLESTART:84.454910;
#SAMPLELENGTH:15.000000;
#SELECTABLE:YES;
#DISPLAYBPM:140.000000;
#BPMS:0.000=140.000;
#STOPS:;
#DELAYS:;
#WARPS:;
#TIMESIGNATURES:0.000=4=4;
#TICKCOUNTS:0.000=4;
#COMBOS:0.000=1;
#SPEEDS:0.000=1.000=0.000=0;
#SCROLLS:0.000=1.000;
#FAKES:;
#LABELS:0.000=Song Start,
20.000=Chart Start,
296.000=Chart End;
#BGCHANGES:0.000=inkjet samba-bg.png=1.000=0=0=1=====,
99999=-nosongbg-=1.000=0=0=0 // don't automatically add -songbackground-
;
#KEYSOUNDS:;
#ATTACKS:
;

//---------------dance-single - ----------------
#NOTEDATA:;
#CHARTNAME:;
#STEPSTYPE:dance-single;
#DESCRIPTION:;
#CHARTSTYLE:;
#DIFFICULTY:Hard;
#METER:12;
#RADARVALUES:0.519256,0.571803,0.092803,0.386680,0.429214,470.000000,458.000000,12.000000,50.000000,0.000000,0.000000,0.000000,0.000000,0.000000,0.519256,0.571803,0.092803,0.386680,0.429214,470.000000,458.000000,12.000000,50.000000,0.000000,0.000000,0.000000,0.000000,0.000000;
#CREDIT:rapidemboar;
#DISPLAYBPM:140.000000;
#NOTES:
// measure 0
0000
0000
0000
0000
,  // measure 1
0000
0000
0000
0000
,  // measure 2
0000
0000
0000
0000
,  // measure 3
0000
0000
0000
0000
,  // measure 4
0000
0000
0000
0000
,  // measure 5
0010
0000
0001
0000
0010
0000
0000
0010
0000
0100
0000
1000
0100
0000
0000
0000
,  // measure 6
0100
0000
1000
0000
0100
0000
0000
0100
0000
0010
0000
0001
0010
0000
0010
0000
,  // measure 7
0001
0000
0100
0000
0010
0000
0000
1000
0000
0100
0000
0010
0100
0000
0000
0000
,  // measure 8
1000
0010
0100
0000
0001
0100
0010
0000
,  // measure 9
2002
0000
0000
3003
,  // measure 10
0001
1000
0000
0001
0100
0000
0001
1000
0000
0001
0100
0000
0001
1000
0000
0000
,  // measure 11
0010
0000
0000
1000
0000
0000
0100
0000
0000
1000
0000
0000
0010
0000
0100
0000
,  // measure 12
0001
0000
0000
0010
0000
0000
0001
0000
0000
0100
0000
0000
0010
0000
1000
0000
,  // measure 13
0100
0000
0000
0010
0000
0000
0100
0000
0000
1000
0000
0000
0001
0000
0100
0000
,  // measure 14
0010
1000
0000
0010
0100
0000
0010
1000
0000
0010
0100
0000
0010
1000
0000
0000
,  // measure 15
0001
0000
0000
0100
0001
0000
0010
0000
0100
0000
0000
1000
0100
0000
1000
0000
,  // measure 16
0010
0000
0000
0100
0010
0000
1000
0000
0001
1000
0000
1000
0001
0000
0000
0000
,  // measure 17
0200
0010
0000
0010
0000
0010
0300
0010
,  // measure 18
1000
0001
0000
1000
0010
0000
1000
0100
0000
1000
0010
0000
1000
0001
0000
0000
,  // measure 19
0010
0000
0001
0000
0010
0000
0000
0010
0000
0100
0000
1000
0100
0000
0000
0000
,  // measure 20
2000
3020
0230
0302
,  // measure 21
1003
0000
0100
0000
1000
0000
0000
0100
0000
0010
0000
0001
0010
0000
0000
0000
,  // measure 22
0001
0100
0000
0001
0010
0000
0001
1000
0000
0001
0100
0000
0001
0010
0000
0000
,  // measure 23
0001
0000
0010
0000
0100
0000
0000
0010
0000
0001
0000
0100
0001
0000
0000
0000
,  // measure 24
0002
0203
0320
2030
,  // measure 25
3020
0100
0000
0100
0000
0100
0000
0130
,  // measure 26
0010
1000
0000
0010
0100
0000
0010
0001
0000
0010
0100
0000
0010
1000
0000
0000
,  // measure 27
0002
0000
0000
0103
0000
0000
0010
0000
2000
0000
0000
3100
0000
0000
0010
0000
,  // measure 28
1002
0103
2100
3010
,  // measure 29
0200
0000
0000
0310
0000
0000
1000
0000
0002
0000
0000
0013
0000
0000
0100
0000
,  // measure 30
1000
0100
0000
1000
0010
0000
1000
0001
0000
1000
0010
0000
1000
0100
0000
0000
,  // measure 31
0010
0001
0100
0010
1000
0000
1001
0000
,  // measure 32
0000
0000
0000
0000
,  // measure 33
0010
0001
0100
0000
0100
0001
0010
0000
,  // measure 34
0100
0000
1000
0000
0010
0000
0100
0000
0001
1000
0000
0001
0000
0000
0010
0000
,  // measure 35
0001
1000
0100
0000
0100
1000
0010
0000
,  // measure 36
1000
0000
0001
0000
0100
0000
0010
0000
1000
0001
0000
1000
0000
0000
0010
0000
,  // measure 37
1000
0100
0010
0001
0100
0001
0010
0100
,  // measure 38
1000
0010
0000
1000
0010
0000
1000
0100
0000
1000
0100
0000
1000
0001
0000
0000
,  // measure 39
0020
0000
0000
0130
0000
0000
1000
0000
0020
0000
0000
0130
0000
0000
0001
0000
,  // measure 40
1000
0100
0000
0010
0000
1001
0000
0000
,  // measure 41
0010
0000
0000
0001
0010
0000
0001
0000
0100
0000
0000
0001
0100
0000
0001
0000
,  // measure 42
1000
0000
0000
0001
1000
0000
0001
0000
0010
0000
0000
0100
0010
0000
0100
0000
,  // measure 43
2000
0000
3010
0000
0102
0000
0013
0200
,  // measure 44
0000
0310
0001
0100
0020
0000
1030
0100
,  // measure 45
2000
0000
3100
0000
0021
0000
0130
2000
,  // measure 46
0000
3100
0010
0100
2000
0000
3001
1000
,  // measure 47
0020
0130
1200
0310
,  // measure 48
1001
0000
0000
0000
,  // measure 49
0001
0010
0100
1000
0010
0100
0010
1000
,  // measure 50
0100
0010
0100
1000
0010
0100
0001
0010
,  // measure 51
0100
0010
0100
1000
0010
1000
0100
1000
,  // measure 52
0010
0100
0001
0010
0100
0010
0001
0000
,  // measure 53
0100
0001
1000
0010
0100
0001
0010
0100
,  // measure 54
1000
0001
1000
0010
0100
0001
1000
0100
,  // measure 55
0010
0001
0100
0010
0100
0001
1000
0010
,  // measure 56
1000
0100
0010
0001
1000
0000
1001
0000
,  // measure 57
0010
0000
1000
0000
0001
0000
0100
0000
0010
0000
1000
0100
0000
0100
1000
0000
,  // measure 58
0100
0000
0010
0000
0001
0000
1000
0000
0100
0000
0010
0001
0000
0001
0010
0000
,  // measure 59
0100
0000
0010
0000
0001
0000
0100
0000
0010
0000
0100
0001
0000
0001
0100
0000
,  // measure 60
0010
0000
1000
0000
0100
0000
0010
0000
0100
0000
1000
0100
1000
0000
0000
0000
,  // measure 61
0010
0100
0001
1000
0010
0100
0010
1000
,  // measure 62
0010
0100
0000
0010
1000
0000
0010
0100
0000
0010
0001
0000
0010
0100
0000
0000
,  // measure 63
0001
1000
0010
1000
0100
0010
0100
1000
,  // measure 64
2002
0000
0000
0000
,  // measure 65
3003
0000
0000
0000
,  // measure 66
0010
0000
1000
0000
0001
0000
0000
1000
0000
0010
0000
0100
0001
0000
0000
0000
,  // measure 67
0100
0000
0001
0000
1000
0000
0000
0001
0000
0100
0000
0010
1000
0000
0000
0000
,  // measure 68
0010
0000
0100
0000
0001
0000
0000
1000
0000
0100
0000
0010
0100
0000
0000
0000
,  // measure 69
0100
0000
0010
0000
1000
0000
0000
0001
0000
0010
0000
0100
0010
0000
0000
0000
,  // measure 70
0002
0000
0000
2003
0000
0000
3020
0000
0000
0230
0000
0000
0302
0000
0023
0000
,  // measure 71
0230
0000
0000
0320
0000
0000
0032
0000
0000
2003
0000
0000
3020
0000
0230
0000
,  // measure 72
0302
0000
0000
0023
0000
0000
0230
0000
0000
0320
0000
0000
0032
0000
2003
0000
,  // measure 73
3001
0000
0000
1000
0000
0000
0001
0000
0000
1000
0000
0000
0001
0000
0000
1001
;

//---------------dance-single - ----------------
#NOTEDATA:;
#CHARTNAME:;
#STEPSTYPE:dance-single;
#DESCRIPTION:;
#CHARTSTYLE:;
#DIFFICULTY:Beginner;
#METER:1;
#RADARVALUES:0.132576,0.200131,0.023201,0.193340,0.000000,120.000000,117.000000,3.000000,25.000000,0.000000,0.000000,0.000000,0.000000,0.000000,0.132576,0.200131,0.023201,0.193340,0.000000,120.000000,117.000000,3.000000,25.000000,0.000000,0.000000,0.000000,0.000000,0.000000;
#CREDIT:;
#DISPLAYBPM:140.000000;
#NOTES:
// measure 0
0000
0000
0000
0000
,  // measure 1
0000
0000
0000
0000
,  // measure 2
0000
0000
0000
0000
,  // measure 3
0000
0000
0000
0000
,  // measure 4
0000
0000
0000
0000
,  // measure 5
0001
0000
0000
0000
,  // measure 6
0001
0000
0000
0000
,  // measure 7
1000
0000
0000
0000
,  // measure 8
1000
0000
0000
0000
,  // measure 9
0020
0000
0000
0030
,  // measure 10
0010
0010
0010
0010
,  // measure 11
0000
0000
0000
0000
,  // measure 12
1000
0000
0000
0000
,  // measure 13
0001
0000
0000
0000
,  // measure 14
1000
0000
0000
0000
,  // measure 15
0001
0000
0000
0000
,  // measure 16
1000
0000
0000
0000
,  // measure 17
0020
0000
0000
0030
,  // measure 18
0010
0010
0010
0010
,  // measure 19
0000
0000
0000
0000
,  // measure 20
0002
0003
2000
3000
,  // measure 21
0000
0000
0000
0000
,  // measure 22
0010
0010
0010
0010
,  // measure 23
0000
0000
0000
0000
,  // measure 24
0002
0003
2000
3000
,  // measure 25
0020
0000
0000
0030
,  // measure 26
0010
0010
0010
0010
,  // measure 27
0000
0000
0000
0000
,  // measure 28
2000
3000
0002
0003
,  // measure 29
0000
0000
0000
0000
,  // measure 30
0010
0010
0010
0010
,  // measure 31
0000
0000
0000
1001
,  // measure 32
0000
0000
0000
0000
,  // measure 33
0001
0000
1000
0000
,  // measure 34
0001
0000
0000
0000
,  // measure 35
1000
0000
0001
0000
,  // measure 36
1000
0000
0000
0000
,  // measure 37
0001
0000
1000
0000
,  // measure 38
0001
0000
0000
0000
,  // measure 39
1000
0000
0001
0000
,  // measure 40
1000
0000
0000
0000
,  // measure 41
0001
0000
0001
0000
,  // measure 42
0001
0000
0000
0000
,  // measure 43
1000
0000
1000
0000
,  // measure 44
1000
0000
0000
0000
,  // measure 45
0001
0000
0001
0000
,  // measure 46
0001
0000
0000
0000
,  // measure 47
1000
0000
1000
0000
,  // measure 48
1000
0000
0000
0000
,  // measure 49
0001
0001
0001
0000
,  // measure 50
1000
1000
1000
0000
,  // measure 51
0001
0000
1000
0000
,  // measure 52
0001
1000
0001
0000
,  // measure 53
1000
1000
1000
0000
,  // measure 54
0001
0001
0001
0000
,  // measure 55
1000
0000
0001
0000
,  // measure 56
1000
0000
0000
1001
,  // measure 57
0000
0000
1000
0000
,  // measure 58
0010
0010
0010
0010
,  // measure 59
0000
0000
1000
0000
,  // measure 60
0001
0000
1000
0000
,  // measure 61
0000
0000
0001
0000
,  // measure 62
0010
0010
0010
0010
,  // measure 63
0000
0000
0001
0000
,  // measure 64
1000
0000
0001
0000
,  // measure 65
1001
0000
0000
0000
,  // measure 66
0002
0000
2000
0003
,  // measure 67
0002
3000
2000
0003
,  // measure 68
0002
3000
2000
0003
,  // measure 69
0002
3000
2000
3000
,  // measure 70
2000
0003
0002
3000
,  // measure 71
2000
0003
0002
3000
,  // measure 72
2000
0003
0002
3000
,  // measure 73
2000
0000
0000
0000
0003
0000
0000
0000
0002
0000
0000
0000
0000
0000
0000
3003
;

//---------------dance-single - ----------------
#NOTEDATA:;
#CHARTNAME:;
#STEPSTYPE:dance-single;
#DESCRIPTION:;
#CHARTSTYLE:;
#DIFFICULTY:Medium;
#METER:7;
#RADARVALUES:0.413195,0.514622,0.371212,0.301610,0.146938,374.000000,326.000000,48.000000,39.000000,0.000000,0.000000,0.000000,0.000000,0.000000,0.413195,0.514622,0.371212,0.301610,0.146938,374.000000,326.000000,48.000000,39.000000,0.000000,0.000000,0.000000,0.000000,0.000000;
#CREDIT:;
#DISPLAYBPM:140.000000;
#NOTES:
// measure 0
0000
0000
0000
0000
,  // measure 1
0000
0000
0000
0000
,  // measure 2
0000
0000
0000
0000
,  // measure 3
0000
0000
0000
0000
,  // measure 4
0000
0000
0000
0000
,  // measure 5
0010
0001
0100
0000
0010
0001
0100
0000
,  // measure 6
0010
1000
0100
0000
0010
1000
0100
0000
,  // measure 7
0100
1000
0010
0000
0100
1000
0010
0000
,  // measure 8
0100
0001
0010
0000
0100
0001
0010
0000
,  // measure 9
2002
0000
0000
3003
,  // measure 10
1001
0000
0000
1001
0000
0000
1001
0000
0000
1001
0000
0000
1001
0000
0000
0000
,  // measure 11
0010
1000
0010
1000
,  // measure 12
0001
0100
0001
0100
,  // measure 13
0001
1000
0001
1000
,  // measure 14
1001
0000
0000
1001
0000
0000
1001
0000
0000
1001
0000
0000
1001
0000
0000
0000
,  // measure 15
0010
0100
0001
1000
,  // measure 16
0001
1000
0100
0000
1000
0001
0100
0000
,  // measure 17
2002
0000
0000
3003
,  // measure 18
1001
0000
0000
1001
0000
0000
1001
0000
0000
1001
0000
0000
1001
0000
0000
0000
,  // measure 19
0010
0001
0010
0000
0100
1000
0100
0000
,  // measure 20
2000
3200
0320
0032
,  // measure 21
1003
0010
1000
0000
0001
0100
0001
0000
,  // measure 22
1001
0000
0000
1001
0000
0000
1001
0000
0000
1001
0000
0000
1001
0000
0000
0000
,  // measure 23
0001
0100
0001
0000
1000
0100
1000
0000
,  // measure 24
0002
0000
0023
0000
0230
0000
2300
3000
,  // measure 25
2002
0000
0000
3003
,  // measure 26
1001
0000
0000
1001
0000
0000
1001
0000
0000
1001
0000
0000
1001
0000
0000
0000
,  // measure 27
0020
0000
0000
1030
0000
0000
0000
0000
2000
0000
0000
3001
0000
0000
0000
0000
,  // measure 28
0002
0023
0230
2300
,  // measure 29
3200
0000
0000
1300
0000
0000
0000
0000
2000
0000
0000
3010
0000
0000
0000
0000
,  // measure 30
1001
0000
0000
1001
0000
0000
1001
0000
0000
1001
0000
0000
1001
0000
0000
0000
,  // measure 31
0020
0000
0000
0031
0000
0000
0000
0000
0002
0000
0000
0000
0103
0000
0000
0000
,  // measure 32
0000
0000
0000
0000
,  // measure 33
0100
1000
0100
0001
,  // measure 34
0100
1000
0100
0001
,  // measure 35
0010
1000
0010
0001
,  // measure 36
0010
1000
0010
0001
,  // measure 37
0100
1000
0010
0001
,  // measure 38
0100
1000
0010
0001
,  // measure 39
0010
1000
0100
0001
,  // measure 40
0010
1000
0000
0001
0000
1001
0000
0000
,  // measure 41
0001
1000
0100
0000
1000
0001
0100
0000
,  // measure 42
1001
0000
0000
1001
0000
0000
1001
0000
0000
1001
0000
0000
1001
0000
0000
0000
,  // measure 43
1000
0001
0010
0000
0001
1000
0010
0000
,  // measure 44
0100
1000
0010
0000
0100
0001
0010
0000
,  // measure 45
0001
0010
0100
0000
1000
0010
0100
0000
,  // measure 46
1001
0000
0000
1001
0000
0000
1001
0000
0000
1001
0000
0000
1001
0000
0000
0000
,  // measure 47
1000
0010
1000
0000
0001
0100
0001
0000
,  // measure 48
1001
0000
0000
0000
,  // measure 49
2000
0100
0100
3100
,  // measure 50
0002
0100
0100
0103
,  // measure 51
2000
0010
0010
3010
,  // measure 52
0002
0010
0010
0013
,  // measure 53
0200
0001
0001
0301
,  // measure 54
0020
1000
1000
1030
,  // measure 55
0200
0010
0010
0310
,  // measure 56
1000
0100
0010
0001
1000
0000
1001
0000
,  // measure 57
0001
0010
0001
0010
0001
0010
0001
0000
,  // measure 58
0100
1000
0100
1000
0100
1000
0100
0000
,  // measure 59
0010
1000
0010
1000
0010
1000
0010
0000
,  // measure 60
0100
0001
0100
0001
0100
0001
0100
0000
,  // measure 61
0001
0010
0100
1000
0001
0010
0100
0000
,  // measure 62
1000
0100
0010
0001
1000
0100
0010
0000
,  // measure 63
0001
0100
0010
1000
0001
0100
0010
0000
,  // measure 64
1000
0010
0100
0001
1000
0010
0100
0000
,  // measure 65
1001
0000
0000
0000
,  // measure 66
2000
0000
0000
0001
0000
0000
0001
0000
0000
0001
0000
0000
3001
0000
0000
0000
,  // measure 67
0002
0000
0000
1000
0000
0000
1000
0000
0000
1000
0000
0000
1003
0000
0000
0000
,  // measure 68
2000
0000
0000
0010
0000
0000
0010
0000
0000
0010
0000
0000
3010
0000
0000
0000
,  // measure 69
0002
0000
0000
0010
0000
0000
0010
0000
0000
0010
0000
0000
0013
0000
0000
0000
,  // measure 70
2000
0000
0000
0100
0000
0000
0100
0000
0000
0100
0000
0000
3100
0000
0000
0000
,  // measure 71
0002
0000
0000
0100
0000
0000
0100
0000
0000
0100
0000
0000
0103
0000
0000
0000
,  // measure 72
0020
0000
0000
0100
0000
0000
0100
0000
0000
0100
0000
0000
0130
0000
0000
0000
,  // measure 73
0200
0000
0000
0010
0000
0000
0010
0000
0000
0010
0000
0000
0310
0000
0000
1001
;

//---------------dance-single - ----------------
#NOTEDATA:;
#CHARTNAME:;
#STEPSTYPE:dance-single;
#DESCRIPTION:;
#CHARTSTYLE:;
#DIFFICULTY:Easy;
#METER:4;
#RADARVALUES:0.224274,0.257311,0.077336,0.131471,0.003867,203.000000,193.000000,10.000000,17.000000,0.000000,0.000000,0.000000,0.000000,0.000000,0.224274,0.257311,0.077336,0.131471,0.003867,203.000000,193.000000,10.000000,17.000000,0.000000,0.000000,0.000000,0.000000,0.000000;
#CREDIT:;
#DISPLAYBPM:140.000000;
#NOTES:
// measure 0
0000
0000
0000
0000
,  // measure 1
0000
0000
0000
0000
,  // measure 2
0000
0000
0000
0000
,  // measure 3
0000
0000
0000
0000
,  // measure 4
0000
0000
0000
0000
,  // measure 5
0001
1000
0001
0000
,  // measure 6
1000
0001
1000
0000
,  // measure 7
0001
1000
0001
0000
,  // measure 8
1000
0001
1000
0000
,  // measure 9
2002
0000
0000
3003
,  // measure 10
0010
0010
0010
0010
,  // measure 11
0000
0100
0000
0100
,  // measure 12
0000
0001
0000
1000
,  // measure 13
0000
0100
0000
0100
,  // measure 14
0010
0010
0010
0010
,  // measure 15
0000
0001
0000
1000
,  // measure 16
0000
0001
0000
1000
,  // measure 17
2002
0000
0000
3003
,  // measure 18
0100
0100
0100
0100
,  // measure 19
0010
0000
0100
0000
,  // measure 20
0002
2003
3002
2003
,  // measure 21
3001
0000
1000
0000
,  // measure 22
0010
0010
0010
0010
,  // measure 23
0001
0000
1000
0000
,  // measure 24
0020
0230
0320
0130
,  // measure 25
2002
0000
0000
3003
,  // measure 26
0100
0100
0100
0100
,  // measure 27
0010
0000
0010
0000
,  // measure 28
2000
3002
2003
3002
,  // measure 29
1003
0100
1000
0000
,  // measure 30
0001
0100
0001
0000
,  // measure 31
1000
0001
1000
1001
,  // measure 32
0000
0000
0000
0000
,  // measure 33
0001
0000
1000
0000
,  // measure 34
0001
0010
0100
1000
,  // measure 35
1000
0000
0001
0000
,  // measure 36
1000
0100
0010
0001
,  // measure 37
0001
0000
1000
0000
,  // measure 38
0001
0100
0010
1000
,  // measure 39
1000
0000
0001
0000
,  // measure 40
1000
0010
0100
0001
,  // measure 41
1000
0100
0010
0000
,  // measure 42
0010
0010
0010
0010
,  // measure 43
0001
0010
0100
0000
,  // measure 44
0100
0010
0001
0000
,  // measure 45
0001
0100
0010
0000
,  // measure 46
0100
0100
0100
0100
,  // measure 47
1000
0010
0100
0000
,  // measure 48
1001
0000
0000
0000
,  // measure 49
0010
0000
0010
0000
,  // measure 50
0001
0010
0100
1000
,  // measure 51
0100
0000
0100
0000
,  // measure 52
1000
0100
0010
0001
,  // measure 53
0100
0000
0100
0000
,  // measure 54
0001
0100
0010
1000
,  // measure 55
0010
0000
0010
0000
,  // measure 56
1000
0010
0100
0001
,  // measure 57
0100
0001
0100
0000
,  // measure 58
0100
0001
0100
0000
,  // measure 59
0010
1000
0010
0000
,  // measure 60
0010
1000
0010
0000
,  // measure 61
0010
0100
0001
0000
,  // measure 62
0010
0100
0001
0000
,  // measure 63
1000
0010
0100
0000
,  // measure 64
1000
0010
0100
0000
,  // measure 65
1001
0000
0000
0000
,  // measure 66
0100
0000
0100
0000
,  // measure 67
0100
0100
1001
0000
,  // measure 68
0100
0000
0100
0000
,  // measure 69
0100
0100
1001
0000
,  // measure 70
0010
0000
0010
0000
,  // measure 71
0010
0010
1001
0000
,  // measure 72
0010
0000
0010
0000
,  // measure 73
0010
0000
0000
0000
0010
0000
0000
0000
0010
0000
0000
0000
0000
0000
0000
1001
;
