#VERSION:0.83;
#TITLE:Take the Gamble;
#SUBTITLE:;
#ARTIST:dj VERTICAI;
#TITLETRANSLIT:;
#SUBTITLETRANSLIT:;
#ARTISTTRANSLIT:;
#GENRE:;
#ORIGIN:;
#CREDIT:;
#BANNER:[Round A] - Take the Gamble.png;
#BACKGROUND:[Round A] - Take the Gamble-bg.png;
#PREVIEWVID:;
#JACKET:[Round A] - Take the Gamble-jacket.png;
#CDIMAGE:;
#DISCIMAGE:;
#LYRICSPATH:;
#CDTITLE:;
#MUSIC:[Round A] - Take the Gamble.ogg;
#OFFSET:1.470000;
#SAMPLESTART:91.115189;
#SAMPLELENGTH:12.375000;
#SELECTABLE:YES;
#BPMS:0.000=160.000;
#STOPS:;
#DELAYS:172.000=0.187,
180.500=0.187,
188.250=0.187,
196.000=0.187,
204.500=0.094,
212.500=0.094,
220.500=0.094,
228.500=0.094,
236.250=0.374;
#WARPS:164.000=8.000,
172.000=8.500,
180.500=7.750,
188.250=7.750,
196.000=8.500,
204.500=8.000,
212.500=8.000,
220.500=8.000,
228.500=7.750,
236.250=7.750;
#TIMESIGNATURES:0.000=4=4;
#TICKCOUNTS:0.000=4;
#COMBOS:0.000=1;
#SPEEDS:0.000=1.000=0.000=0;
#SCROLLS:0.000=1.000;
#FAKES:;
#LABELS:0.000=Song Start,
36.000=Chart Start,
400.000=Chart End;
#BGCHANGES:;
#KEYSOUNDS:;
#ATTACKS:
;

//---------------dance-single - ----------------
#NOTEDATA:;
#CHARTNAME:;
#STEPSTYPE:dance-single;
#DESCRIPTION:;
#CHARTSTYLE:;
#DIFFICULTY:Hard;
#METER:15;
#RADARVALUES:0.663420,1.370751,0.431994,0.249227,0.544146,559.000000,507.000000,52.000000,30.000000,0.000000,0.000000,0.000000,0.000000,38.000000,0.663420,1.370751,0.431994,0.249227,0.544146,559.000000,507.000000,52.000000,30.000000,0.000000,0.000000,0.000000,0.000000,38.000000;
#CREDIT:rapidemboar;
#NOTES:
// measure 0
0000
0000
0000
0000
,  // measure 1
0000
0000
0000
0000
,  // measure 2
0000
0000
0000
0000
,  // measure 3
0000
0000
0000
0000
,  // measure 4
0000
0000
0000
0000
,  // measure 5
0000
0000
0000
0000
,  // measure 6
0000
0000
0000
0000
,  // measure 7
0000
0000
0000
0000
,  // measure 8
0000
0000
0000
0000
,  // measure 9
0001
0000
0000
0000
1000
0000
0000
0000
0011
0000
0000
0110
0000
0000
1100
0000
,  // measure 10
0000
0000
1000
0000
0010
0000
0000
0000
1100
0000
0000
1010
0000
0000
1100
0000
,  // measure 11
1000
0000
0000
0000
0001
0000
0000
0000
1100
0000
0000
0110
0000
0000
0011
0000
,  // measure 12
0000
0000
0001
0000
0100
0000
0000
0000
0011
0000
0000
0101
0000
0000
0011
0000
,  // measure 13
1001
0000
0000
0001
0100
0000
0001
0000
1000
0000
0000
0100
1000
0000
0010
0000
,  // measure 14
0100
0000
0000
0010
1000
0000
0001
0000
0010
0000
0000
0001
0010
0000
0100
0000
,  // measure 15
1000
0000
0010
0000
0100
0000
0001
0100
0001
0000
0010
0000
0100
0000
1000
0100
,  // measure 16
1000
0000
0001
0000
0010
0000
0100
0000
1000
0100
0000
0100
1000
0000
0010
0100
,  // measure 17
0001
0010
0100
1000
0001
0100
0010
1000
0100
0010
0001
1000
0010
0100
0001
1000
,  // measure 18
0001
0000
0100
0000
1000
0000
0100
0000
0001
0010
0000
0010
0001
0000
0011
0000
,  // measure 19
0000
0000
1000
0000
0010
0000
0100
0000
0010
1000
0000
1000
0010
0000
1010
0000
,  // measure 20
0001
0010
0100
1000
0001
0010
0100
1000
0001
0100
0010
1000
0001
0100
0010
1000
,  // measure 21
0100
0010
0001
1000
0100
0010
0001
1000
0010
0100
0001
1000
0010
0100
0001
1000
,  // measure 22
0200
0001
0000
1000
,  // measure 23
2300
0001
3002
0010
,  // measure 24
0023
0000
0000
0001
0000
0000
0000
0000
0100
0000
0030
0100
0010
0000
0000
0000
,  // measure 25
1000
0100
0010
0001
1000
0001
1001
0000
,  // measure 26
1000
0010
0001
0010
1000
0010
0001
0010
,  // measure 27
0100
0000
0001
0000
1000
0000
0010
0000
0100
0000
0001
0000
0010
0001
0010
0000
,  // measure 28
0001
0010
0100
1000
0001
0010
0100
1000
0001
0100
0010
1000
0001
0100
0010
1000
,  // measure 29
0100
0010
0001
1000
0100
0010
0001
1000
0020
0000
0230
0000
0302
0000
2003
0000
,  // measure 30
0100
0000
0000
0100
0000
0000
0020
0000
0000
0000
0000
0000
3000
0000
0000
0000
,  // measure 31
0000
0000
0130
0000
0001
0000
0100
0000
0010
0000
0000
0010
0000
0000
2000
0000
,  // measure 32
0001
0000
0001
0000
0001
3010
0000
0110
,  // measure 33
0000
0000
1000
0000
0001
0000
1001
0000
0000
0110
0000
0000
1001
0000
0000
0000
,  // measure 34
0001
0000
1000
0000
0010
0000
0100
0000
0001
0000
0000
0001
0010
0000
0000
0010
,  // measure 35
0100
0000
1000
0000
0001
0010
0100
0000
1100
0000
0000
0000
1010
0000
0000
0000
,  // measure 36
1000
0000
0001
0000
0100
0000
0010
0000
1000
0000
0000
1000
0010
0000
0000
0010
,  // measure 37
0100
0000
0001
0000
1000
0100
0010
0000
0001
0010
0001
0000
0101
0000
0000
0000
,  // measure 38
0010
0000
0000
0010
0001
0000
0000
0001
0100
0000
0000
0100
0010
0000
0000
0010
,  // measure 39
1000
0000
0000
1000
0100
0000
0000
0100
0010
0000
0000
0010
0001
0000
1000
0000
,  // measure 40
0001
0000
0100
0000
0010
0000
1000
0000
0100
1000
0100
0000
0010
0001
0010
0000
,  // measure 41
0000
1001
0000
0000
0000
0000
0000
0000
,  // measure 42
0000
0000
0000
0000
,  // measure 43
0000
FMMM
0000
0000
0000
0000
0000
0000
,  // measure 44
0000
0000
0000
0000
,  // measure 45
0000
MFMM
0000
0000
,  // measure 46
0000
0000
0000
0000
,  // measure 47
0000
0000
0000
MMFM
0000
0000
0000
0000
0000
0000
0000
0000
0000
0000
0000
0000
,  // measure 48
0000
0000
0000
0000
,  // measure 49
0000
MMMF
0000
0000
0000
0000
0000
0000
,  // measure 50
0000
0000
0000
0000
,  // measure 51
0000
FMMM
0000
0000
,  // measure 52
0000
0000
0000
0000
,  // measure 53
0000
FFMM
0000
0000
,  // measure 54
0000
0000
0000
0000
,  // measure 55
0000
FFFM
0000
0000
,  // measure 56
0000
0000
0000
0000
,  // measure 57
0000
FFFF
0000
0000
,  // measure 58
0000
0000
0000
0000
,  // measure 59
0000
0000
0000
FFFF
0000
0000
0000
0000
0000
0000
0000
0000
0000
0000
0000
0000
,  // measure 60
0000
0000
0000
0000
,  // measure 61
0000
0000
1001
0000
0010
1000
0000
0000
1100
0000
0000
1010
0000
0000
0011
0000
,  // measure 62
0000
0110
0000
0000
1100
0000
0000
1001
0000
0000
0110
0000
1001
0000
0000
0000
,  // measure 63
0001
0100
1000
1000
0100
0001
0001
0100
,  // measure 64
1000
1000
0100
0001
0001
0100
1000
1000
,  // measure 65
0200
0000
0000
0300
0002
0203
0320
2030
,  // measure 66
3100
0000
0010
0001
0000
0001
0010
0000
0101
0000
0000
0000
1001
0000
0000
0000
,  // measure 67
0010
0001
1000
0010
0100
0001
0010
0100
,  // measure 68
1000
0010
0100
0010
1000
0001
1001
0000
,  // measure 69
0200
0000
0010
0000
0010
0000
0000
0000
1000
0000
0000
0010
0000
0000
0001
0000
,  // measure 70
0000
0010
0000
0000
1000
0000
0000
0010
0000
0000
0301
0000
0110
0000
0000
0000
,  // measure 71
1000
0010
1000
0100
0000
0010
0001
0100
0001
0010
0000
0001
,  // measure 72
0100
1000
0000
0100
0000
0001
0010
1000
0000
0010
0000
0001
,  // measure 73
0100
0001
0100
0001
0000
0000
0001
0010
0100
1000
0100
1000
0000
0000
1000
0100
,  // measure 74
0010
0001
0010
0001
0000
0000
0001
0010
0001
0000
0100
0000
0010
0000
1000
0000
,  // measure 75
0100
0000
0010
0001
0010
0000
0100
0000
0010
0001
1000
0100
1000
0001
1000
0002
,  // measure 76
2000
0000
0000
3003
,  // measure 77
0000
0000
0000
0000
,  // measure 78
0000
0000
0000
0000
,  // measure 79
0000
0000
0000
0000
,  // measure 80
0010
0001
0000
0010
1000
0000
0100
0001
0000
0100
1000
0000
0000
0000
0000
0000
,  // measure 81
0010
0100
0001
1000
0000
0020
0000
0000
,  // measure 82
1030
0100
0010
0002
0000
0103
0001
0010
,  // measure 83
0001
1000
0000
1000
0100
0000
0020
0000
0000
0000
0001
0000
0001
0000
0000
0000
,  // measure 84
0000
1000
1000
0000
0000
0001
0031
0000
,  // measure 85
1000
0001
0100
0020
0000
0000
0030
1000
,  // measure 86
1000
0010
0100
0002
0000
0103
0010
1000
,  // measure 87
1010
1100
0011
0101
0000
0101
1100
0101
,  // measure 88
0000
0000
1010
0000
0011
0000
1010
0000
1000
0001
0000
0001
1000
0000
0000
0000
,  // measure 89
0001
0010
1000
0010
0000
0200
0000
0000
,  // measure 90
0301
0100
1000
0100
0000
0020
0000
0000
,  // measure 91
0031
0100
0001
0020
0000
0000
0130
2000
,  // measure 92
0000
3020
0000
0000
1000
0000
0001
0000
,  // measure 93
0130
0000
0001
0000
0010
0000
0100
0010
0001
0000
1000
0000
0100
0000
0010
0100
,  // measure 94
1000
0000
0010
0000
0100
0000
0010
1000
0100
0000
0010
0000
0001
0100
0010
1000
,  // measure 95
0001
0010
0000
0100
1000
0000
0001
0100
0000
0010
1000
0000
1001
0000
0001
1000
,  // measure 96
0001
0000
0100
0000
1000
0000
0100
0010
0000
1000
0001
0000
0010
0100
0010
0000
,  // measure 97
0010
1010
0000
0101
0000
0011
0000
1010
,  // measure 98
0000
0001
1000
2002
0000
0000
0000
0000
,  // measure 99
0000
0000
0000
0000
,  // measure 100
3003
0000
0000
0000
;

//---------------dance-single - ----------------
#NOTEDATA:;
#CHARTNAME:;
#STEPSTYPE:dance-single;
#DESCRIPTION:;
#CHARTSTYLE:;
#DIFFICULTY:Medium;
#METER:10;
#RADARVALUES:0.390456,0.706144,0.224305,0.249227,0.112152,329.000000,302.000000,27.000000,30.000000,0.000000,0.000000,0.000000,0.000000,38.000000,0.390456,0.706144,0.224305,0.249227,0.112152,329.000000,302.000000,27.000000,30.000000,0.000000,0.000000,0.000000,0.000000,38.000000;
#CREDIT:;
#NOTES:
// measure 0
0000
0000
0000
0000
,  // measure 1
0000
0000
0000
0000
,  // measure 2
0000
0000
0000
0000
,  // measure 3
0000
0000
0000
0000
,  // measure 4
0000
0000
0000
0000
,  // measure 5
0000
0000
0000
0000
,  // measure 6
0000
0000
0000
0000
,  // measure 7
0000
0000
0000
0000
,  // measure 8
0000
0000
0000
0000
,  // measure 9
0001
0000
0001
0000
0001
1000
0001
0000
,  // measure 10
1000
0000
1000
0000
1000
0001
1000
0000
,  // measure 11
0010
1000
0010
0100
,  // measure 12
0001
0000
0010
0000
0100
0010
0100
0000
,  // measure 13
0011
1100
0011
1100
,  // measure 14
0101
1010
0101
1010
,  // measure 15
0001
0100
0001
0000
0001
0010
0001
0000
,  // measure 16
1000
0100
1000
0000
1000
0010
1000
0000
,  // measure 17
2002
0000
0000
0000
0000
0000
0000
3003
,  // measure 18
0010
0000
0000
0000
1000
0000
0000
0000
0010
0000
0000
0100
0000
0000
0001
0000
,  // measure 19
0000
0000
1000
0000
0100
0000
0000
0000
0010
0000
0000
0100
0000
0000
1000
0000
,  // measure 20
0010
0000
0000
0001
0000
0000
0001
0000
0100
0000
0000
0010
0000
0000
0010
0000
,  // measure 21
1000
0000
0000
0100
0000
0000
0100
0000
1000
0000
0100
0000
0010
0000
0001
0000
,  // measure 22
0200
0000
0000
0000
,  // measure 23
0320
0000
2030
0000
,  // measure 24
3002
0000
0000
0103
,  // measure 25
0010
0000
0000
1000
0000
0000
0001
0000
0100
0000
0000
0000
1001
0000
0000
0000
,  // measure 26
0010
1001
0100
1001
,  // measure 27
0100
0011
0100
1010
,  // measure 28
0001
0000
0000
0001
0000
0000
0100
0000
1000
0000
0000
1000
0000
0000
0100
0000
,  // measure 29
0001
0000
0000
0010
0000
0000
0100
0000
1000
0000
0100
0000
0010
0000
0001
0000
,  // measure 30
0100
0000
0000
0100
0000
0000
0020
0000
0000
0000
0000
0000
0000
0000
0000
0000
,  // measure 31
0030
0000
1000
0000
0100
0000
1000
0000
0001
0000
0000
0001
0000
0000
0020
0000
,  // measure 32
0000
0000
0000
0000
0000
1030
0000
2002
,  // measure 33
3003
0010
0002
2000
0000
0000
3003
0000
,  // measure 34
0010
0001
0100
0000
0100
0001
1000
0000
,  // measure 35
0010
0001
0100
0010
0100
0001
1000
0000
,  // measure 36
0100
1000
0010
0000
0010
1000
0001
0000
,  // measure 37
0100
1000
0010
0100
0010
0000
1001
0000
,  // measure 38
0001
0010
0001
0000
0001
0100
0001
0000
,  // measure 39
1000
0010
1000
0000
1000
0100
1000
0000
,  // measure 40
0001
0010
0100
1000
0010
1000
0001
0100
,  // measure 41
0000
0001
1000
0000
0000
0000
0000
0000
,  // measure 42
0000
0000
0000
0000
,  // measure 43
0000
FMMM
0000
0000
0000
0000
0000
0000
,  // measure 44
0000
0000
0000
0000
,  // measure 45
0000
MFMM
0000
0000
,  // measure 46
0000
0000
0000
0000
,  // measure 47
0000
0000
0000
MMFM
0000
0000
0000
0000
0000
0000
0000
0000
0000
0000
0000
0000
,  // measure 48
0000
0000
0000
0000
,  // measure 49
0000
MMMF
0000
0000
0000
0000
0000
0000
,  // measure 50
0000
0000
0000
0000
,  // measure 51
0000
FMMM
0000
0000
,  // measure 52
0000
0000
0000
0000
,  // measure 53
0000
FFMM
0000
0000
,  // measure 54
0000
0000
0000
0000
,  // measure 55
0000
FFFM
0000
0000
,  // measure 56
0000
0000
0000
0000
,  // measure 57
0000
FFFF
0000
0000
,  // measure 58
0000
0000
0000
0000
,  // measure 59
0000
0000
0000
FFFF
0000
0000
0000
0000
0000
0000
0000
0000
0000
0000
0000
0000
,  // measure 60
0000
0000
0000
0000
,  // measure 61
0000
0000
0001
0000
1000
0000
0000
0000
0002
0000
0000
0103
0000
0000
2000
0000
,  // measure 62
0000
3100
0000
0000
0002
0000
0000
0103
0000
0000
2000
0000
3100
0000
0000
0000
,  // measure 63
0010
0000
0001
0000
0000
0001
0000
0000
0010
0000
1000
0000
0000
1000
0000
0000
,  // measure 64
0010
0000
0001
0000
0000
0001
0000
0000
0010
0000
1000
0000
0000
1000
0000
0000
,  // measure 65
0020
0000
0002
0003
,  // measure 66
2000
3000
0100
0030
,  // measure 67
0001
0010
0100
1000
0001
0100
0001
0000
,  // measure 68
1000
0100
0010
0001
1000
0010
1000
0000
,  // measure 69
0020
0000
0000
0000
,  // measure 70
0000
0000
0000
0030
,  // measure 71
0010
0000
0000
0100
0000
0000
0001
0000
1000
0001
0000
0000
,  // measure 72
0100
0000
0000
0001
0000
0000
0010
0000
0001
1000
0000
0000
,  // measure 73
0010
0001
0100
0000
0100
0001
1000
0000
,  // measure 74
0010
1000
0100
0000
0100
1000
0001
0000
,  // measure 75
0001
1000
0001
1000
0001
1000
0001
1000
,  // measure 76
2002
0000
0000
0000
,  // measure 77
3003
0000
0000
0000
,  // measure 78
0000
0000
0000
0000
,  // measure 79
0000
0000
0000
0000
,  // measure 80
1001
0000
0000
1001
0000
0000
1001
0000
0000
1001
0000
0000
0000
0000
0000
0000
,  // measure 81
0002
0000
0000
0000
0000
1003
0000
0000
,  // measure 82
0010
0100
0001
1000
0000
0000
0000
0000
,  // measure 83
0001
0000
0000
0001
0000
0000
2000
0000
0000
0000
0000
0000
0000
0000
0000
0000
,  // measure 84
0000
0000
0000
3000
,  // measure 85
0020
0000
0030
0200
0000
0300
0000
0000
,  // measure 86
0001
1000
0010
0100
0000
0000
0000
0000
,  // measure 87
0001
0010
0100
1000
0000
0010
1000
0010
,  // measure 88
0000
0100
0001
0100
0000
0000
0000
0000
,  // measure 89
0100
0011
0100
0011
,  // measure 90
0010
1010
0010
0011
,  // measure 91
0001
0100
0010
1000
0000
0000
0100
0010
,  // measure 92
0000
0220
0000
0000
0000
0000
0330
0000
,  // measure 93
0100
1000
0100
0000
0010
0001
0010
0000
,  // measure 94
0100
0001
0100
0000
1000
0010
1000
0000
,  // measure 95
0001
0000
0000
1000
0000
0000
0010
0000
0000
0100
0000
0000
0001
0000
0000
0000
,  // measure 96
1000
0001
0100
0010
1000
0001
0010
0100
,  // measure 97
1000
0100
0000
0100
0000
0100
0000
0100
,  // measure 98
0000
1000
0001
2002
0000
0000
0000
0000
,  // measure 99
0000
0000
0000
0000
,  // measure 100
3003
0000
0000
0000
;

//---------------dance-single - ----------------
#NOTEDATA:;
#CHARTNAME:;
#STEPSTYPE:dance-single;
#DESCRIPTION:;
#CHARTSTYLE:;
#DIFFICULTY:Beginner;
#METER:2;
#RADARVALUES:0.137668,0.332303,0.058153,0.199382,0.008308,116.000000,109.000000,7.000000,24.000000,0.000000,0.000000,0.000000,0.000000,42.000000,0.137668,0.332303,0.058153,0.199382,0.008308,116.000000,109.000000,7.000000,24.000000,0.000000,0.000000,0.000000,0.000000,42.000000;
#CREDIT:;
#NOTES:
0000
0000
0000
0000
,
0000
0000
0000
0000
,
0000
0000
0000
0000
,
0000
0000
0000
0000
,
0000
0000
0000
0000
,
0000
0000
0000
0000
,
0000
0000
0000
0000
,
0000
0000
0000
0000
,
0000
0000
0000
0000
,
0001
0000
0000
0000
,
0001
0000
0000
0000
,
1000
0000
0000
0000
,
1000
0000
0000
0000
,
0001
0000
0001
0000
,
1000
0000
1000
0000
,
0001
0000
0001
0000
,
1000
0000
1000
0000
,
0020
0000
0000
0000
,
0030
0000
0010
0000
,
0000
0000
0010
0000
,
2000
0000
0000
0000
,
3002
0000
0000
0000
,
0023
0000
0000
0000
,
0032
0000
2003
0000
,
3002
0000
0000
0000
,
2003
0000
0000
3000
,
0010
0000
0000
0000
,
0010
0000
0000
0000
,
0001
0000
1000
0000
,
0001
0000
1000
0000
,
0001
0001
0001
0000
,
1000
1000
1000
0000
,
0001
0001
0001
0000
,
0010
0000
1001
0000
,
0010
0000
0000
0000
,
0010
0000
0000
0000
,
0010
0000
0000
0000
,
0010
0000
0010
0000
,
0010
0000
0000
0000
,
0010
0000
0000
0000
,
0010
0000
0000
0000
,
F00F
MMMM
0000
0000
0000
0000
0000
0000
,
0000
0000
0000
0000
,
1001
FMMM
0000
0000
0000
0000
0000
0000
,
0000
0000
0000
0000
,
0000
MFMM
0000
0000
,
0000
0000
0000
0000
,
0000
0000
0000
MMFM
0000
0000
0000
0000
0000
0000
0000
0000
0000
0000
0000
0000
,
0000
0000
0000
0000
,
0000
MMMF
0000
0000
0000
0000
0000
0000
,
0000
0000
0000
0000
,
0000
FMMM
0000
0000
,
0000
0000
0000
0000
,
0000
FFMM
0000
0000
,
0000
0000
0000
0000
,
0000
FFFM
0000
0000
,
0000
0000
0000
0000
,
0000
FFFF
0000
0000
,
0000
0000
0000
0000
,
0000
0000
0000
FFFF
0000
0000
0000
0000
0000
0000
0000
0000
0000
0000
0000
0000
,
0000
0000
0000
0000
,
0000
0000
0010
0000
,
0000
0000
0010
0000
,
0001
0000
1000
0000
,
0001
0000
1000
0000
,
0020
0000
0000
0000
,
0000
0000
0030
0000
,
0001
1000
0001
0000
,
1000
0001
1000
0000
,
0020
0000
0000
0000
,
0000
0000
0000
0030
,
0001
0001
1000
0000
,
1000
1000
0001
0000
,
0001
0001
0001
0000
,
1000
1000
1000
0000
,
0001
0000
1000
0000
,
2002
0000
0000
0000
,
3003
0000
0000
0000
,
0000
0000
0000
0000
,
0000
0000
0000
0000
,
1001
1001
1001
0000
,
0002
0000
0000
0000
,
2003
0000
0000
0000
,
3020
0000
0000
0000
,
2030
0000
0000
0000
,
3002
0000
0000
0000
,
0023
0000
0000
0000
,
0031
0000
1000
0000
,
0001
0000
1000
0000
,
0020
0000
0000
0000
,
2030
0000
0000
0000
,
3002
0000
0000
0000
,
0023
0000
0000
0000
,
0031
0000
1000
0000
,
0001
0000
1000
0000
,
0001
1000
0001
1000
,
0001
1000
0001
1000
,
0000
0010
0000
0010
,
0000
0000
0000
2002
0000
0000
0000
0000
,
0000
0000
0000
0000
,
3003
0000
0000
0000
;

//---------------dance-single - ----------------
#NOTEDATA:;
#CHARTNAME:;
#STEPSTYPE:dance-single;
#DESCRIPTION:;
#CHARTSTYLE:;
#DIFFICULTY:Easy;
#METER:6;
#RADARVALUES:0.231425,0.373841,0.066461,0.174459,0.016615,195.000000,187.000000,8.000000,21.000000,0.000000,0.000000,0.000000,0.000000,38.000000,0.231425,0.373841,0.066461,0.174459,0.016615,195.000000,187.000000,8.000000,21.000000,0.000000,0.000000,0.000000,0.000000,38.000000;
#CREDIT:;
#NOTES:
// measure 0
0000
0000
0000
0000
,  // measure 1
0000
0000
0000
0000
,  // measure 2
0000
0000
0000
0000
,  // measure 3
0000
0000
0000
0000
,  // measure 4
0000
0000
0000
0000
,  // measure 5
0000
0000
0000
0000
,  // measure 6
0000
0000
0000
0000
,  // measure 7
0000
0000
0000
0000
,  // measure 8
0000
0000
0000
0000
,  // measure 9
0001
0001
0001
0000
,  // measure 10
1000
1000
1000
0000
,  // measure 11
0001
0001
0001
0000
,  // measure 12
1000
1000
1000
0000
,  // measure 13
0001
0000
1000
0000
,  // measure 14
0001
0000
1000
0000
,  // measure 15
0001
0000
1000
0000
,  // measure 16
0001
0000
1000
0000
,  // measure 17
2002
0000
0000
3003
,  // measure 18
0000
0001
1000
0001
,  // measure 19
0000
1000
0001
1000
,  // measure 20
0010
0100
0010
0100
,  // measure 21
0010
0100
0010
0100
,  // measure 22
0002
0000
0000
0000
,  // measure 23
2003
0000
3020
0000
,  // measure 24
0230
0000
0000
0302
,  // measure 25
2003
0000
0002
3003
,  // measure 26
1001
0000
1001
0000
,  // measure 27
1001
0000
1001
0000
,  // measure 28
0001
1000
0001
0000
,  // measure 29
1000
0001
1000
0001
,  // measure 30
0010
0010
0010
0000
,  // measure 31
0010
0010
0010
0000
,  // measure 32
0100
0100
0100
0000
,  // measure 33
1001
0000
1001
0000
,  // measure 34
0010
0010
1000
0001
,  // measure 35
0010
0010
0001
0000
,  // measure 36
0010
0010
0001
1000
,  // measure 37
0010
0010
0010
0010
,  // measure 38
0010
1000
0010
1000
,  // measure 39
0010
1000
0010
0100
,  // measure 40
0100
0100
0100
0100
,  // measure 41
0000
1001
0000
0000
0000
0000
0000
0000
,  // measure 42
0000
0000
0000
0000
,  // measure 43
0000
FMMM
0000
0000
0000
0000
0000
0000
,  // measure 44
0000
0000
0000
0000
,  // measure 45
0000
MFMM
0000
0000
,  // measure 46
0000
0000
0000
0000
,  // measure 47
0000
0000
0000
MMFM
0000
0000
0000
0000
0000
0000
0000
0000
0000
0000
0000
0000
,  // measure 48
0000
0000
0000
0000
,  // measure 49
0000
MMMF
0000
0000
0000
0000
0000
0000
,  // measure 50
0000
0000
0000
0000
,  // measure 51
0000
FMMM
0000
0000
,  // measure 52
0000
0000
0000
0000
,  // measure 53
0000
FFMM
0000
0000
,  // measure 54
0000
0000
0000
0000
,  // measure 55
0000
FFFM
0000
0000
,  // measure 56
0000
0000
0000
0000
,  // measure 57
0000
FFFF
0000
0000
,  // measure 58
0000
0000
0000
0000
,  // measure 59
0000
0000
0000
FFFF
0000
0000
0000
0000
0000
0000
0000
0000
0000
0000
0000
0000
,  // measure 60
0000
0000
0000
0000
,  // measure 61
0000
1001
0000
0000
1000
0000
0000
0001
,  // measure 62
0000
0000
1000
0000
0000
0001
0000
0000
,  // measure 63
0001
0010
0100
1000
,  // measure 64
0001
0010
0100
1000
,  // measure 65
0200
0000
0000
0000
,  // measure 66
0000
0000
0300
0000
,  // measure 67
0010
0001
0010
0000
,  // measure 68
0100
1000
0100
0000
,  // measure 69
0020
0000
0000
0000
,  // measure 70
0000
0000
0000
0030
,  // measure 71
0001
1000
0001
0001
,  // measure 72
1000
0001
1000
1000
,  // measure 73
0010
1000
0010
0000
,  // measure 74
0100
0001
0100
0000
,  // measure 75
0001
0000
1000
0000
0001
0000
1000
0002
,  // measure 76
2000
0000
0000
0000
,  // measure 77
3003
0000
0000
0000
,  // measure 78
0000
0000
0000
0000
,  // measure 79
0000
0000
0000
0000
,  // measure 80
0010
0000
0000
0010
0000
0000
0010
0000
0000
0010
0000
0000
0000
0000
0000
0000
,  // measure 81
0002
0000
0000
0000
0000
2003
0000
0000
,  // measure 82
3020
0000
0000
0000
,  // measure 83
0130
0100
0100
0000
,  // measure 84
0010
0010
0010
0000
,  // measure 85
2000
0000
0000
3001
0000
0000
0000
0000
,  // measure 86
0002
0000
0000
1003
0000
0000
0000
0000
,  // measure 87
0010
1000
0010
1000
,  // measure 88
0001
0100
0001
0100
,  // measure 89
0010
0010
0000
0010
,  // measure 90
1000
1000
0000
1000
,  // measure 91
0001
0001
0000
0001
,  // measure 92
0100
0100
0000
0100
,  // measure 93
0020
0000
0000
0000
0000
1030
0000
0000
,  // measure 94
0001
0000
0000
0100
0000
0000
0000
0000
,  // measure 95
0001
0010
0100
0000
,  // measure 96
1000
0100
0010
0000
,  // measure 97
0001
1000
0000
0010
0000
1000
0000
0100
,  // measure 98
0000
1000
0002
2000
0000
0000
0000
0000
,  // measure 99
0000
0000
0000
0000
,  // measure 100
3003
0000
0000
0000
;
