#TITLE:Super Massive Black Hole;
#SUBTITLE:~~MODS PLAY 1.5x~~;
#ARTIST:Dubscribe;
#CREDIT:;
#MUSIC:Super Massive Black Hole.ogg;
#SELECTABLE:YES;
#BACKGROUND:bg.png;
#BANNER:bn.png;
#CDTITLE:cdtitle.png;
#OFFSET:0;
#SAMPLESTART:94.800;
#SAMPLELENGTH:25.600;
#BPMS:0=150;
#STOPS:;
#ATTACKS: TIME=0.4:LEN=6.0:MODS=*1 100% Stealth: TIME=0.4:LEN=6.0:MODS=*1 100% Dark: TIME=3.2:LEN=14.8:MODS=*1000 200% Drunk: TIME=6.4:LEN=0.02:MODS=*1000 No Stealth: TIME=17.2:LEN=2.6:MODS=*1000 100% Sudden: TIME=18.0:LEN=1.2:MODS=*1000 100% Dark, *1000 100% Stealth,, *1000 No Drunk: TIME=19.2:LEN=0.4:MODS=*1000 No Dark, *1000 No Stealth, *1000 100% Brake, *1000 -500% Mini, *1000 25% Flip: TIME=19.6:LEN=6.4:MODS=*0.9 0% Mini, *0.04 0% Flip, *0.75 0% Brake: TIME=30.0:LEN=2.6:MODS=*1000 100% Sudden: TIME=30.8:LEN=1.2:MODS=*1000 100% Dark, *1000 100% Stealth: TIME=32.0:LEN=0.4:MODS=*1000 No Dark, *1000 No Stealth, *1000 100% Brake, *1000 -500% Mini, *1000 25% Flip: TIME=32.4:LEN=6.4:MODS=*2 0% Mini, *0.07 0% Flip, *1.3 0% Brake: TIME=32.4:LEN=1.6:MODS=*0.5 100% Centered: TIME=34.0:LEN=1.6:MODS=*0.6 100% Flip, *0.6 31.25% Split, *0.6 -31.25% Alternate, *0.6 37.5% Reverse, *1000 No Centered: TIME=35.6:LEN=4.8:MODS=*1 100% Flip, *1 31.25% Split, *1 -31.25% Alternate, *1 37.5% Reverse, *1000 No Centered: TIME=38.8:LEN=1.6:MODS=*0.6 100% Invert, *0.6 -18.75% Split, *0.6 -43.75% Alternate, *0.6 68.75% Reverse, *1000 No Flip: TIME=40.4:LEN=1.6:MODS=*0.8 25% Flip, *0.8 -25% Invert, *0.8 -25% Split, 0.8 25% Alternate, *0.8 50% Reverse: TIME=42:LEN=0.0249999999999999:MODS=*1000 25% Flip, *1000 -25% Invert, *1000 -25% Split, *1000 25% Alternate, *1000 50% Reverse:: TIME=42.025:LEN=0.0249999999999999:MODS=*1000 -100% Flip, *1000 100% Invert, *1000 106.25% Alternate, *1000 -6.25% Reverse, *1000 No Split: TIME=42.05:LEN=0.0249999999999999:MODS=*1000 25% Flip, *1000 -25% Invert, *1000 -25% Split, *1000 25% Alternate, *1000 50% Reverse:: TIME=42.075:LEN=0.0249999999999999:MODS=*1000 -100% Flip, *1000 100% Invert, *1000 106.25% Alternate, *1000 -6.25% Reverse, *1000 No Split: TIME=42.1:LEN=0.0249999999999999:MODS=*1000 25% Flip, *1000 -25% Invert, *1000 -25% Split, *1000 25% Alternate, *1000 50% Reverse:: TIME=42.125:LEN=0.0249999999999999:MODS=*1000 -100% Flip, *1000 100% Invert, *1000 106.25% Alternate, *1000 -6.25% Reverse, *1000 No Split: TIME=42.15:LEN=0.0249999999999999:MODS=*1000 25% Flip, *1000 -25% Invert, *1000 -25% Split, *1000 25% Alternate, *1000 50% Reverse:: TIME=42.175:LEN=0.0249999999999999:MODS=*1000 -100% Flip, *1000 100% Invert, *1000 106.25% Alternate, *1000 -6.25% Reverse, *1000 No Split: TIME=42.2:LEN=0.0249999999999999:MODS=*1000 25% Flip, *1000 -25% Invert, *1000 -25% Split, *1000 25% Alternate, *1000 50% Reverse:: TIME=42.225:LEN=0.0249999999999999:MODS=*1000 -100% Flip, *1000 100% Invert, *1000 106.25% Alternate, *1000 -6.25% Reverse, *1000 No Split: TIME=42.25:LEN=0.0249999999999999:MODS=*1000 25% Flip, *1000 -25% Invert, *1000 -25% Split, *1000 25% Alternate, *1000 50% Reverse:: TIME=42.275:LEN=0.0249999999999999:MODS=*1000 -100% Flip, *1000 100% Invert, *1000 106.25% Alternate, *1000 -6.25% Reverse, *1000 No Split: TIME=42.3:LEN=0.0249999999999999:MODS=*1000 25% Flip, *1000 -25% Invert, *1000 -25% Split, *1000 25% Alternate, *1000 50% Reverse:: TIME=42.325:LEN=0.0249999999999999:MODS=*1000 -100% Flip, *1000 100% Invert, *1000 106.25% Alternate, *1000 -6.25% Reverse, *1000 No Split: TIME=42.35:LEN=0.0249999999999999:MODS=*1000 25% Flip, *1000 -25% Invert, *1000 -25% Split, *1000 25% Alternate, *1000 50% Reverse:: TIME=42.375:LEN=0.0249999999999999:MODS=*1000 -100% Flip, *1000 100% Invert, *1000 106.25% Alternate, *1000 -6.25% Reverse, *1000 No Split: TIME=42.4:LEN=0.0249999999999999:MODS=*1000 25% Flip, *1000 -25% Invert, *1000 -25% Split, *1000 25% Alternate, *1000 50% Reverse:: TIME=42.425:LEN=0.0249999999999999:MODS=*1000 -100% Flip, *1000 100% Invert, *1000 106.25% Alternate, *1000 -6.25% Reverse, *1000 No Split: TIME=42.45:LEN=0.0249999999999999:MODS=*1000 25% Flip, *1000 -25% Invert, *1000 -25% Split, *1000 25% Alternate, *1000 50% Reverse:: TIME=42.475:LEN=0.0249999999999999:MODS=*1000 -100% Flip, *1000 100% Invert, *1000 106.25% Alternate, *1000 -6.25% Reverse, *1000 No Split: TIME=42.5:LEN=0.0249999999999999:MODS=*1000 25% Flip, *1000 -25% Invert, *1000 -25% Split, *1000 25% Alternate, *1000 50% Reverse:: TIME=42.525:LEN=0.0249999999999999:MODS=*1000 -100% Flip, *1000 100% Invert, *1000 106.25% Alternate, *1000 -6.25% Reverse, *1000 No Split: TIME=42.55:LEN=0.0249999999999999:MODS=*1000 25% Flip, *1000 -25% Invert, *1000 -25% Split, *1000 25% Alternate, *1000 50% Reverse:: TIME=42.575:LEN=0.0249999999999999:MODS=*1000 -100% Flip, *1000 100% Invert, *1000 106.25% Alternate, *1000 -6.25% Reverse, *1000 No Split: TIME=42.6:LEN=0.0249999999999999:MODS=*1000 25% Flip, *1000 -25% Invert, *1000 -25% Split, *1000 25% Alternate, *1000 50% Reverse:: TIME=42.625:LEN=0.0249999999999999:MODS=*1000 -100% Flip, *1000 100% Invert, *1000 106.25% Alternate, *1000 -6.25% Reverse, *1000 No Split: TIME=42.65:LEN=0.0249999999999999:MODS=*1000 25% Flip, *1000 -25% Invert, *1000 -25% Split, *1000 25% Alternate, *1000 50% Reverse:: TIME=42.675:LEN=0.0249999999999999:MODS=*1000 -100% Flip, *1000 100% Invert, *1000 106.25% Alternate, *1000 -6.25% Reverse, *1000 No Split: TIME=42.7:LEN=0.0249999999999999:MODS=*1000 25% Flip, *1000 -25% Invert, *1000 -25% Split, *1000 25% Alternate, *1000 50% Reverse:: TIME=42.725:LEN=0.0249999999999999:MODS=*1000 -100% Flip, *1000 100% Invert, *1000 106.25% Alternate, *1000 -6.25% Reverse, *1000 No Split: TIME=42.75:LEN=0.0249999999999999:MODS=*1000 25% Flip, *1000 -25% Invert, *1000 -25% Split, *1000 25% Alternate, *1000 50% Reverse:: TIME=42.775:LEN=0.0249999999999999:MODS=*1000 -100% Flip, *1000 100% Invert, *1000 106.25% Alternate, *1000 -6.25% Reverse, *1000 No Split: TIME=42.8:LEN=0.0249999999999999:MODS=*1000 25% Flip, *1000 -25% Invert, *1000 -25% Split, *1000 25% Alternate, *1000 50% Reverse:: TIME=42.825:LEN=0.0249999999999999:MODS=*1000 -100% Flip, *1000 100% Invert, *1000 106.25% Alternate, *1000 -6.25% Reverse, *1000 No Split: TIME=42.85:LEN=0.0249999999999999:MODS=*1000 25% Flip, *1000 -25% Invert, *1000 -25% Split, *1000 25% Alternate, *1000 50% Reverse:: TIME=42.875:LEN=0.0249999999999999:MODS=*1000 -100% Flip, *1000 100% Invert, *1000 106.25% Alternate, *1000 -6.25% Reverse, *1000 No Split: TIME=42.8999999999999:LEN=0.0249999999999999:MODS=*1000 25% Flip, *1000 -25% Invert, *1000 -25% Split, *1000 25% Alternate, *1000 50% Reverse:: TIME=42.9249999999999:LEN=0.0249999999999999:MODS=*1000 -100% Flip, *1000 100% Invert, *1000 106.25% Alternate, *1000 -6.25% Reverse, *1000 No Split: TIME=42.9499999999999:LEN=0.0249999999999999:MODS=*1000 25% Flip, *1000 -25% Invert, *1000 -25% Split, *1000 25% Alternate, *1000 50% Reverse:: TIME=42.9749999999999:LEN=0.0249999999999999:MODS=*1000 -100% Flip, *1000 100% Invert, *1000 106.25% Alternate, *1000 -6.25% Reverse, *1000 No Split: TIME=42.9999999999999:LEN=0.0249999999999999:MODS=*1000 25% Flip, *1000 -25% Invert, *1000 -25% Split, *1000 25% Alternate, *1000 50% Reverse:: TIME=43.0249999999999:LEN=0.0249999999999999:MODS=*1000 -100% Flip, *1000 100% Invert, *1000 106.25% Alternate, *1000 -6.25% Reverse, *1000 No Split: TIME=43.0499999999999:LEN=0.0249999999999999:MODS=*1000 25% Flip, *1000 -25% Invert, *1000 -25% Split, *1000 25% Alternate, *1000 50% Reverse:: TIME=43.0749999999999:LEN=0.0249999999999999:MODS=*1000 -100% Flip, *1000 100% Invert, *1000 106.25% Alternate, *1000 -6.25% Reverse, *1000 No Split: TIME=43.0999999999999:LEN=0.0249999999999999:MODS=*1000 25% Flip, *1000 -25% Invert, *1000 -25% Split, *1000 25% Alternate, *1000 50% Reverse:: TIME=43.1249999999999:LEN=0.0249999999999999:MODS=*1000 -100% Flip, *1000 100% Invert, *1000 106.25% Alternate, *1000 -6.25% Reverse, *1000 No Split: TIME=43.1499999999999:LEN=0.0249999999999999:MODS=*1000 25% Flip, *1000 -25% Invert, *1000 -25% Split, *1000 25% Alternate, *1000 50% Reverse:: TIME=43.1749999999999:LEN=0.0249999999999999:MODS=*1000 -100% Flip, *1000 100% Invert, *1000 106.25% Alternate, *1000 -6.25% Reverse, *1000 No Split: TIME=43.1999999999999:LEN=0.0249999999999999:MODS=*1000 25% Flip, *1000 -25% Invert, *1000 -25% Split, *1000 25% Alternate, *1000 50% Reverse:: TIME=43.2249999999999:LEN=0.0249999999999999:MODS=*1000 -100% Flip, *1000 100% Invert, *1000 106.25% Alternate, *1000 -6.25% Reverse, *1000 No Split: TIME=43.2499999999999:LEN=0.0249999999999999:MODS=*1000 25% Flip, *1000 -25% Invert, *1000 -25% Split, *1000 25% Alternate, *1000 50% Reverse:: TIME=43.2749999999999:LEN=0.0249999999999999:MODS=*1000 -100% Flip, *1000 100% Invert, *1000 106.25% Alternate, *1000 -6.25% Reverse, *1000 No Split: TIME=43.2999999999999:LEN=0.0249999999999999:MODS=*1000 25% Flip, *1000 -25% Invert, *1000 -25% Split, *1000 25% Alternate, *1000 50% Reverse:: TIME=43.3249999999999:LEN=0.0249999999999999:MODS=*1000 -100% Flip, *1000 100% Invert, *1000 106.25% Alternate, *1000 -6.25% Reverse, *1000 No Split: TIME=43.3499999999999:LEN=0.0249999999999999:MODS=*1000 25% Flip, *1000 -25% Invert, *1000 -25% Split, *1000 25% Alternate, *1000 50% Reverse:: TIME=43.3749999999999:LEN=0.0249999999999999:MODS=*1000 -100% Flip, *1000 100% Invert, *1000 106.25% Alternate, *1000 -6.25% Reverse, *1000 No Split: TIME=43.3999999999999:LEN=0.0249999999999999:MODS=*1000 25% Flip, *1000 -25% Invert, *1000 -25% Split, *1000 25% Alternate, *1000 50% Reverse:: TIME=43.4249999999999:LEN=0.0249999999999999:MODS=*1000 -100% Flip, *1000 100% Invert, *1000 106.25% Alternate, *1000 -6.25% Reverse, *1000 No Split: TIME=43.4499999999999:LEN=0.0249999999999999:MODS=*1000 25% Flip, *1000 -25% Invert, *1000 -25% Split, *1000 25% Alternate, *1000 50% Reverse:: TIME=43.4749999999999:LEN=0.0249999999999999:MODS=*1000 -100% Flip, *1000 100% Invert, *1000 106.25% Alternate, *1000 -6.25% Reverse, *1000 No Split: TIME=43.4999999999999:LEN=0.0249999999999999:MODS=*1000 25% Flip, *1000 -25% Invert, *1000 -25% Split, *1000 25% Alternate, *1000 50% Reverse:: TIME=43.5249999999999:LEN=0.0249999999999999:MODS=*1000 -100% Flip, *1000 100% Invert, *1000 106.25% Alternate, *1000 -6.25% Reverse, *1000 No Split: TIME=43.5499999999999:LEN=0.0249999999999999:MODS=*1000 25% Flip, *1000 -25% Invert, *1000 -25% Split, *1000 25% Alternate, *1000 50% Reverse:: TIME=43.5749999999999:LEN=0.0249999999999999:MODS=*1000 -100% Flip, *1000 100% Invert, *1000 106.25% Alternate, *1000 -6.25% Reverse, *1000 No Split: TIME=43.5999999999999:LEN=0.0249999999999999:MODS=*1000 25% Flip, *1000 -25% Invert, *1000 -25% Split, *1000 25% Alternate, *1000 50% Reverse:: TIME=43.6249999999999:LEN=0.0249999999999999:MODS=*1000 -100% Flip, *1000 100% Invert, *1000 106.25% Alternate, *1000 -6.25% Reverse, *1000 No Split: TIME=43.6499999999999:LEN=0.0249999999999999:MODS=*1000 25% Flip, *1000 -25% Invert, *1000 -25% Split, *1000 25% Alternate, *1000 50% Reverse:: TIME=43.6749999999999:LEN=0.0249999999999999:MODS=*1000 -100% Flip, *1000 100% Invert, *1000 106.25% Alternate, *1000 -6.25% Reverse, *1000 No Split: TIME=43.6999999999999:LEN=0.0249999999999999:MODS=*1000 25% Flip, *1000 -25% Invert, *1000 -25% Split, *1000 25% Alternate, *1000 50% Reverse:: TIME=43.7249999999999:LEN=0.0249999999999999:MODS=*1000 -100% Flip, *1000 100% Invert, *1000 106.25% Alternate, *1000 -6.25% Reverse, *1000 No Split: TIME=43.7499999999999:LEN=0.0249999999999999:MODS=*1000 25% Flip, *1000 -25% Invert, *1000 -25% Split, *1000 25% Alternate, *1000 50% Reverse:: TIME=43.7749999999999:LEN=0.0249999999999999:MODS=*1000 -100% Flip, *1000 100% Invert, *1000 106.25% Alternate, *1000 -6.25% Reverse, *1000 No Split: TIME=43.7999999999999:LEN=0.0249999999999999:MODS=*1000 25% Flip, *1000 -25% Invert, *1000 -25% Split, *1000 25% Alternate, *1000 50% Reverse:: TIME=43.8249999999999:LEN=0.0249999999999999:MODS=*1000 -100% Flip, *1000 100% Invert, *1000 106.25% Alternate, *1000 -6.25% Reverse, *1000 No Split: TIME=43.8499999999999:LEN=0.0249999999999999:MODS=*1000 25% Flip, *1000 -25% Invert, *1000 -25% Split, *1000 25% Alternate, *1000 50% Reverse:: TIME=43.8749999999999:LEN=0.0249999999999999:MODS=*1000 -100% Flip, *1000 100% Invert, *1000 106.25% Alternate, *1000 -6.25% Reverse, *1000 No Split: TIME=43.8999999999999:LEN=0.0249999999999999:MODS=*1000 25% Flip, *1000 -25% Invert, *1000 -25% Split, *1000 25% Alternate, *1000 50% Reverse:: TIME=43.9249999999999:LEN=0.0249999999999999:MODS=*1000 -100% Flip, *1000 100% Invert, *1000 106.25% Alternate, *1000 -6.25% Reverse, *1000 No Split: TIME=43.9499999999999:LEN=0.0249999999999999:MODS=*1000 25% Flip, *1000 -25% Invert, *1000 -25% Split, *1000 25% Alternate, *1000 50% Reverse:: TIME=43.9749999999999:LEN=0.0249999999999999:MODS=*1000 -100% Flip, *1000 100% Invert, *1000 106.25% Alternate, *1000 -6.25% Reverse, *1000 No Split: TIME=43.9999999999999:LEN=0.0249999999999999:MODS=*1000 25% Flip, *1000 -25% Invert, *1000 -25% Split, *1000 25% Alternate, *1000 50% Reverse:: TIME=44.0249999999999:LEN=0.0249999999999999:MODS=*1000 -100% Flip, *1000 100% Invert, *1000 106.25% Alternate, *1000 -6.25% Reverse, *1000 No Split: TIME=44.0499999999999:LEN=0.0249999999999999:MODS=*1000 25% Flip, *1000 -25% Invert, *1000 -25% Split, *1000 25% Alternate, *1000 50% Reverse:: TIME=44.0749999999999:LEN=0.0249999999999999:MODS=*1000 -100% Flip, *1000 100% Invert, *1000 106.25% Alternate, *1000 -6.25% Reverse, *1000 No Split: TIME=44.0999999999999:LEN=0.0249999999999999:MODS=*1000 25% Flip, *1000 -25% Invert, *1000 -25% Split, *1000 25% Alternate, *1000 50% Reverse:: TIME=44.1249999999999:LEN=0.0249999999999999:MODS=*1000 -100% Flip, *1000 100% Invert, *1000 106.25% Alternate, *1000 -6.25% Reverse, *1000 No Split: TIME=44.1499999999999:LEN=0.0249999999999999:MODS=*1000 25% Flip, *1000 -25% Invert, *1000 -25% Split, *1000 25% Alternate, *1000 50% Reverse:: TIME=44.1749999999999:LEN=0.0249999999999999:MODS=*1000 -100% Flip, *1000 100% Invert, *1000 106.25% Alternate, *1000 -6.25% Reverse, *1000 No Split: TIME=44.1999999999999:LEN=0.0249999999999999:MODS=*1000 25% Flip, *1000 -25% Invert, *1000 -25% Split, *1000 25% Alternate, *1000 50% Reverse:: TIME=44.2249999999999:LEN=0.0249999999999999:MODS=*1000 -100% Flip, *1000 100% Invert, *1000 106.25% Alternate, *1000 -6.25% Reverse, *1000 No Split: TIME=44.2499999999999:LEN=0.0249999999999999:MODS=*1000 25% Flip, *1000 -25% Invert, *1000 -25% Split, *1000 25% Alternate, *1000 50% Reverse:: TIME=44.2749999999999:LEN=0.0249999999999999:MODS=*1000 -100% Flip, *1000 100% Invert, *1000 106.25% Alternate, *1000 -6.25% Reverse, *1000 No Split: TIME=44.2999999999999:LEN=0.0249999999999999:MODS=*1000 25% Flip, *1000 -25% Invert, *1000 -25% Split, *1000 25% Alternate, *1000 50% Reverse:: TIME=44.3249999999999:LEN=0.0249999999999999:MODS=*1000 -100% Flip, *1000 100% Invert, *1000 106.25% Alternate, *1000 -6.25% Reverse, *1000 No Split: TIME=44.3499999999999:LEN=0.0249999999999999:MODS=*1000 25% Flip, *1000 -25% Invert, *1000 -25% Split, *1000 25% Alternate, *1000 50% Reverse:: TIME=44.3749999999999:LEN=0.0249999999999999:MODS=*1000 -100% Flip, *1000 100% Invert, *1000 106.25% Alternate, *1000 -6.25% Reverse, *1000 No Split: TIME=44.3999999999999:LEN=0.0249999999999999:MODS=*1000 25% Flip, *1000 -25% Invert, *1000 -25% Split, *1000 25% Alternate, *1000 50% Reverse:: TIME=44.4:LEN=1.1:MODS=*1 100% Stealth, *1000 100% Dark, *1 50% Reverse: TIME=45.4:LEN=1.4:MODS=*1000 100% Reverse: TIME=46.8:LEN=1.6:MODS=*0.5 -25% Flip, *0.5 75% Invert, *0.5 -25% Alternate, *0.5 100% Reverse: TIME=48.4:LEN=3.2:MODS=*0.5 -25% Flip, *0.5 75% Invert, *0.5 -25% Alternate, *0.5 100% Reverse: TIME=51.6:LEN=1.6:MODS=*1.5 50% Flip, *1.5 -150% Invert, *1.5 25% Split, *1.5 75% Reverse: TIME=53.2:LEN=1.6:MODS=*0.5 125% Flip, *0.5 -75% Invert, *0.5 75% Reverse, *0.5 25% Alternate: TIME=54.8:LEN=1.6:MODS=*1.5 -37.5% Flip, *1.5 87.5% Invert, *1.5 25% Alternate, *1.5 75% Reverse, *1000 No Split: TIME=55.4:LEN:2.6:MODS=*1000 100% Sudden: TIME=56.0:LEN=1.6:MODS=*1000 100% Dark, *1000 100% Stealth, 100% Sudden: TIME=55.6:LEN=3.2:MODS=*1000 100% Reverse, *1000 100% Brake: TIME=56.4:LEN=2.4:MODS=*1000 -500% Mini, *1000 25% Flip: TIME=58.0:LEN=6.4:MODS=*1 100% Dark, *1 100% Stealth: TIME=64.4:LEN=6:MODS=*1000 100% Dark, *1000 100% Stealth: TIME=64.4:LEN=8.8:MODS=*1000 100% Dark: TIME=67.2:LEN=14.8:MODS=*1000 200% Drunk: TIME=70.4:LEN=0.02:MODS=*1000 No Stealth: TIME=81.0:LEN=2.6:MODS=*1000 100% Sudden: TIME=82.0:LEN=1.2:MODS=*1000 100% Dark, *1000 100% Stealth, *1000 No Drunk: TIME=83.0:LEN=0.6:MODS=*1000 No Dark, *1000 No Stealth, *1000 100% Brake, *1000 -500% Mini, *1000 25% Flip: TIME=83.6:LEN=6.4:MODS=*0.9 0% Mini, *0.04 0% Flip, *0.75 0% Brake: TIME=94.0:LEN=2.6:MODS=*1000 100% Sudden: TIME=94.8:LEN=1.2:MODS=*1000 100% Dark, *1000 100% Stealth: TIME=96.0:LEN=0.4:MODS=*1000 No Dark, *1000 No Stealth, *1000 100% Brake, *1000 -500% Mini, *1000 25% Flip: TIME=96.4:LEN=6.4:MODS=*2 0% Mini, *0.07 0% Flip, *1.3 0% Brake: TIME=96.4:LEN=1.6:MODS=*0.5 100% Centered: TIME=98.0:LEN=1.6:MODS=*0.6 50% Flip, *0.6 100% Invert, *0.6 -100% Cross, *0.6 100% Reverse: TIME=99.6:LEN=3.2:MODS=*0.5 50% Flip, *0.5 100% Invert, *0.5 -100% Cross, *0.5 100% Reverse: TIME=102.8:LEN=1.6:MODS=*0.3 25% Flip, *0.3 25% Alternate, *0.3 25% Invert, *0.5 25% Reverse: TIME=104.4:LEN=1.6:MODS=*0.2 50% Flip, *0.2 50% Invert, *0.2 25% Split, *0.2 50% Reverse: TIME=106:LEN=0.0249999999999999:MODS=*1000 50% Flip, *1000 50% Invert, *1000 25% Split, *1000 25% Reverse, *1000 No Alternate: TIME=106.025:LEN=0.0249999999999999:MODS=*1000 -75% Flip, *1000 100% Invert, *1000 No Split, *1000 100% Alternate, *1000 -6.25% Reverse: TIME=106.05:LEN=0.0249999999999999:MODS=*1000 50% Flip, *1000 50% Invert, *1000 25% Split, *1000 25% Reverse, *1000 No Alternate: TIME=106.075:LEN=0.0249999999999999:MODS=*1000 -75% Flip, *1000 100% Invert, *1000 No Split, *1000 100% Alternate, *1000 -6.25% Reverse: TIME=106.1:LEN=0.0249999999999999:MODS=*1000 50% Flip, *1000 50% Invert, *1000 25% Split, *1000 25% Reverse, *1000 No Alternate: TIME=106.125:LEN=0.0249999999999999:MODS=*1000 -75% Flip, *1000 100% Invert, *1000 No Split, *1000 100% Alternate, *1000 -6.25% Reverse: TIME=106.15:LEN=0.0249999999999999:MODS=*1000 50% Flip, *1000 50% Invert, *1000 25% Split, *1000 25% Reverse, *1000 No Alternate: TIME=106.175:LEN=0.0249999999999999:MODS=*1000 -75% Flip, *1000 100% Invert, *1000 No Split, *1000 100% Alternate, *1000 -6.25% Reverse: TIME=106.2:LEN=0.0249999999999999:MODS=*1000 50% Flip, *1000 50% Invert, *1000 25% Split, *1000 25% Reverse, *1000 No Alternate: TIME=106.225:LEN=0.0249999999999999:MODS=*1000 -75% Flip, *1000 100% Invert, *1000 No Split, *1000 100% Alternate, *1000 -6.25% Reverse: TIME=106.25:LEN=0.0249999999999999:MODS=*1000 50% Flip, *1000 50% Invert, *1000 25% Split, *1000 25% Reverse, *1000 No Alternate: TIME=106.275:LEN=0.0249999999999999:MODS=*1000 -75% Flip, *1000 100% Invert, *1000 No Split, *1000 100% Alternate, *1000 -6.25% Reverse: TIME=106.3:LEN=0.0249999999999999:MODS=*1000 50% Flip, *1000 50% Invert, *1000 25% Split, *1000 25% Reverse, *1000 No Alternate: TIME=106.325:LEN=0.0249999999999999:MODS=*1000 -75% Flip, *1000 100% Invert, *1000 No Split, *1000 100% Alternate, *1000 -6.25% Reverse: TIME=106.35:LEN=0.0249999999999999:MODS=*1000 50% Flip, *1000 50% Invert, *1000 25% Split, *1000 25% Reverse, *1000 No Alternate: TIME=106.375:LEN=0.0249999999999999:MODS=*1000 -75% Flip, *1000 100% Invert, *1000 No Split, *1000 100% Alternate, *1000 -6.25% Reverse: TIME=106.4:LEN=0.0249999999999999:MODS=*1000 50% Flip, *1000 50% Invert, *1000 25% Split, *1000 25% Reverse, *1000 No Alternate: TIME=106.425:LEN=0.0249999999999999:MODS=*1000 -75% Flip, *1000 100% Invert, *1000 No Split, *1000 100% Alternate, *1000 -6.25% Reverse: TIME=106.45:LEN=0.0249999999999999:MODS=*1000 50% Flip, *1000 50% Invert, *1000 25% Split, *1000 25% Reverse, *1000 No Alternate: TIME=106.475:LEN=0.0249999999999999:MODS=*1000 -75% Flip, *1000 100% Invert, *1000 No Split, *1000 100% Alternate, *1000 -6.25% Reverse: TIME=106.5:LEN=0.0249999999999999:MODS=*1000 50% Flip, *1000 50% Invert, *1000 25% Split, *1000 25% Reverse, *1000 No Alternate: TIME=106.525:LEN=0.0249999999999999:MODS=*1000 -75% Flip, *1000 100% Invert, *1000 No Split, *1000 100% Alternate, *1000 -6.25% Reverse: TIME=106.55:LEN=0.0249999999999999:MODS=*1000 50% Flip, *1000 50% Invert, *1000 25% Split, *1000 25% Reverse, *1000 No Alternate: TIME=106.575:LEN=0.0249999999999999:MODS=*1000 -75% Flip, *1000 100% Invert, *1000 No Split, *1000 100% Alternate, *1000 -6.25% Reverse: TIME=106.6:LEN=0.0249999999999999:MODS=*1000 50% Flip, *1000 50% Invert, *1000 25% Split, *1000 25% Reverse, *1000 No Alternate: TIME=106.625:LEN=0.0249999999999999:MODS=*1000 -75% Flip, *1000 100% Invert, *1000 No Split, *1000 100% Alternate, *1000 -6.25% Reverse: TIME=106.65:LEN=0.0249999999999999:MODS=*1000 50% Flip, *1000 50% Invert, *1000 25% Split, *1000 25% Reverse, *1000 No Alternate: TIME=106.675:LEN=0.0249999999999999:MODS=*1000 -75% Flip, *1000 100% Invert, *1000 No Split, *1000 100% Alternate, *1000 -6.25% Reverse: TIME=106.7:LEN=0.0249999999999999:MODS=*1000 50% Flip, *1000 50% Invert, *1000 25% Split, *1000 25% Reverse, *1000 No Alternate: TIME=106.725:LEN=0.0249999999999999:MODS=*1000 -75% Flip, *1000 100% Invert, *1000 No Split, *1000 100% Alternate, *1000 -6.25% Reverse: TIME=106.75:LEN=0.0249999999999999:MODS=*1000 50% Flip, *1000 50% Invert, *1000 25% Split, *1000 25% Reverse, *1000 No Alternate: TIME=106.775:LEN=0.0249999999999999:MODS=*1000 -75% Flip, *1000 100% Invert, *1000 No Split, *1000 100% Alternate, *1000 -6.25% Reverse: TIME=106.8:LEN=0.0249999999999999:MODS=*1000 50% Flip, *1000 50% Invert, *1000 25% Split, *1000 25% Reverse, *1000 No Alternate: TIME=106.825:LEN=0.0249999999999999:MODS=*1000 -75% Flip, *1000 100% Invert, *1000 No Split, *1000 100% Alternate, *1000 -6.25% Reverse: TIME=106.85:LEN=0.0249999999999999:MODS=*1000 50% Flip, *1000 50% Invert, *1000 25% Split, *1000 25% Reverse, *1000 No Alternate: TIME=106.875:LEN=0.0249999999999999:MODS=*1000 -75% Flip, *1000 100% Invert, *1000 No Split, *1000 100% Alternate, *1000 -6.25% Reverse: TIME=106.9:LEN=0.0249999999999999:MODS=*1000 50% Flip, *1000 50% Invert, *1000 25% Split, *1000 25% Reverse, *1000 No Alternate: TIME=106.925:LEN=0.0249999999999999:MODS=*1000 -75% Flip, *1000 100% Invert, *1000 No Split, *1000 100% Alternate, *1000 -6.25% Reverse: TIME=106.95:LEN=0.0249999999999999:MODS=*1000 50% Flip, *1000 50% Invert, *1000 25% Split, *1000 25% Reverse, *1000 No Alternate: TIME=106.975:LEN=0.0249999999999999:MODS=*1000 -75% Flip, *1000 100% Invert, *1000 No Split, *1000 100% Alternate, *1000 -6.25% Reverse: TIME=107:LEN=0.0249999999999999:MODS=*1000 50% Flip, *1000 50% Invert, *1000 25% Split, *1000 25% Reverse, *1000 No Alternate: TIME=107.025:LEN=0.0249999999999999:MODS=*1000 -75% Flip, *1000 100% Invert, *1000 No Split, *1000 100% Alternate, *1000 -6.25% Reverse: TIME=107.05:LEN=0.0249999999999999:MODS=*1000 50% Flip, *1000 50% Invert, *1000 25% Split, *1000 25% Reverse, *1000 No Alternate: TIME=107.075:LEN=0.0249999999999999:MODS=*1000 -75% Flip, *1000 100% Invert, *1000 No Split, *1000 100% Alternate, *1000 -6.25% Reverse: TIME=107.1:LEN=0.0249999999999999:MODS=*1000 50% Flip, *1000 50% Invert, *1000 25% Split, *1000 25% Reverse, *1000 No Alternate: TIME=107.125:LEN=0.0249999999999999:MODS=*1000 -75% Flip, *1000 100% Invert, *1000 No Split, *1000 100% Alternate, *1000 -6.25% Reverse: TIME=107.15:LEN=0.0249999999999999:MODS=*1000 50% Flip, *1000 50% Invert, *1000 25% Split, *1000 25% Reverse, *1000 No Alternate: TIME=107.175:LEN=0.0249999999999999:MODS=*1000 -75% Flip, *1000 100% Invert, *1000 No Split, *1000 100% Alternate, *1000 -6.25% Reverse: TIME=107.2:LEN=0.0249999999999999:MODS=*1000 50% Flip, *1000 50% Invert, *1000 25% Split, *1000 25% Reverse, *1000 No Alternate: TIME=107.225:LEN=0.0249999999999999:MODS=*1000 -75% Flip, *1000 100% Invert, *1000 No Split, *1000 100% Alternate, *1000 -6.25% Reverse: TIME=107.25:LEN=0.0249999999999999:MODS=*1000 50% Flip, *1000 50% Invert, *1000 25% Split, *1000 25% Reverse, *1000 No Alternate: TIME=107.275:LEN=0.0249999999999999:MODS=*1000 -75% Flip, *1000 100% Invert, *1000 No Split, *1000 100% Alternate, *1000 -6.25% Reverse: TIME=107.3:LEN=0.0249999999999999:MODS=*1000 50% Flip, *1000 50% Invert, *1000 25% Split, *1000 25% Reverse, *1000 No Alternate: TIME=107.325:LEN=0.0249999999999999:MODS=*1000 -75% Flip, *1000 100% Invert, *1000 No Split, *1000 100% Alternate, *1000 -6.25% Reverse: TIME=107.35:LEN=0.0249999999999999:MODS=*1000 50% Flip, *1000 50% Invert, *1000 25% Split, *1000 25% Reverse, *1000 No Alternate: TIME=107.375:LEN=0.0249999999999999:MODS=*1000 -75% Flip, *1000 100% Invert, *1000 No Split, *1000 100% Alternate, *1000 -6.25% Reverse: TIME=107.4:LEN=0.0249999999999999:MODS=*1000 50% Flip, *1000 50% Invert, *1000 25% Split, *1000 25% Reverse, *1000 No Alternate: TIME=107.425:LEN=0.0249999999999999:MODS=*1000 -75% Flip, *1000 100% Invert, *1000 No Split, *1000 100% Alternate, *1000 -6.25% Reverse: TIME=107.45:LEN=0.0249999999999999:MODS=*1000 50% Flip, *1000 50% Invert, *1000 25% Split, *1000 25% Reverse, *1000 No Alternate: TIME=107.475:LEN=0.0249999999999999:MODS=*1000 -75% Flip, *1000 100% Invert, *1000 No Split, *1000 100% Alternate, *1000 -6.25% Reverse: TIME=107.5:LEN=0.0249999999999999:MODS=*1000 50% Flip, *1000 50% Invert, *1000 25% Split, *1000 25% Reverse, *1000 No Alternate: TIME=107.525:LEN=0.0249999999999999:MODS=*1000 -75% Flip, *1000 100% Invert, *1000 No Split, *1000 100% Alternate, *1000 -6.25% Reverse: TIME=107.55:LEN=0.0249999999999999:MODS=*1000 50% Flip, *1000 50% Invert, *1000 25% Split, *1000 25% Reverse, *1000 No Alternate: TIME=107.575:LEN=0.0249999999999999:MODS=*1000 -75% Flip, *1000 100% Invert, *1000 No Split, *1000 100% Alternate, *1000 -6.25% Reverse: TIME=107.6:LEN=0.0249999999999999:MODS=*1000 50% Flip, *1000 50% Invert, *1000 25% Split, *1000 25% Reverse, *1000 No Alternate: TIME=107.625:LEN=0.0249999999999999:MODS=*1000 -75% Flip, *1000 100% Invert, *1000 No Split, *1000 100% Alternate, *1000 -6.25% Reverse: TIME=107.65:LEN=0.0249999999999999:MODS=*1000 50% Flip, *1000 50% Invert, *1000 25% Split, *1000 25% Reverse, *1000 No Alternate: TIME=107.675:LEN=0.0249999999999999:MODS=*1000 -75% Flip, *1000 100% Invert, *1000 No Split, *1000 100% Alternate, *1000 -6.25% Reverse: TIME=107.7:LEN=0.0249999999999999:MODS=*1000 50% Flip, *1000 50% Invert, *1000 25% Split, *1000 25% Reverse, *1000 No Alternate: TIME=107.725:LEN=0.0249999999999999:MODS=*1000 -75% Flip, *1000 100% Invert, *1000 No Split, *1000 100% Alternate, *1000 -6.25% Reverse: TIME=107.75:LEN=0.0249999999999999:MODS=*1000 50% Flip, *1000 50% Invert, *1000 25% Split, *1000 25% Reverse, *1000 No Alternate: TIME=107.775:LEN=0.0249999999999999:MODS=*1000 -75% Flip, *1000 100% Invert, *1000 No Split, *1000 100% Alternate, *1000 -6.25% Reverse: TIME=107.8:LEN=0.0249999999999999:MODS=*1000 50% Flip, *1000 50% Invert, *1000 25% Split, *1000 25% Reverse, *1000 No Alternate: TIME=107.825:LEN=0.0249999999999999:MODS=*1000 -75% Flip, *1000 100% Invert, *1000 No Split, *1000 100% Alternate, *1000 -6.25% Reverse: TIME=107.85:LEN=0.0249999999999999:MODS=*1000 50% Flip, *1000 50% Invert, *1000 25% Split, *1000 25% Reverse, *1000 No Alternate: TIME=107.875:LEN=0.0249999999999999:MODS=*1000 -75% Flip, *1000 100% Invert, *1000 No Split, *1000 100% Alternate, *1000 -6.25% Reverse: TIME=107.9:LEN=0.0249999999999999:MODS=*1000 50% Flip, *1000 50% Invert, *1000 25% Split, *1000 25% Reverse, *1000 No Alternate: TIME=107.925:LEN=0.0249999999999999:MODS=*1000 -75% Flip, *1000 100% Invert, *1000 No Split, *1000 100% Alternate, *1000 -6.25% Reverse: TIME=107.95:LEN=0.0249999999999999:MODS=*1000 50% Flip, *1000 50% Invert, *1000 25% Split, *1000 25% Reverse, *1000 No Alternate: TIME=107.975:LEN=0.0249999999999999:MODS=*1000 -75% Flip, *1000 100% Invert, *1000 No Split, *1000 100% Alternate, *1000 -6.25% Reverse: TIME=108:LEN=0.0249999999999999:MODS=*1000 50% Flip, *1000 50% Invert, *1000 25% Split, *1000 25% Reverse, *1000 No Alternate: TIME=108.025:LEN=0.0249999999999999:MODS=*1000 -75% Flip, *1000 100% Invert, *1000 No Split, *1000 100% Alternate, *1000 -6.25% Reverse: TIME=108.05:LEN=0.0249999999999999:MODS=*1000 50% Flip, *1000 50% Invert, *1000 25% Split, *1000 25% Reverse, *1000 No Alternate: TIME=108.075:LEN=0.0249999999999999:MODS=*1000 -75% Flip, *1000 100% Invert, *1000 No Split, *1000 100% Alternate, *1000 -6.25% Reverse: TIME=108.1:LEN=0.0249999999999999:MODS=*1000 50% Flip, *1000 50% Invert, *1000 25% Split, *1000 25% Reverse, *1000 No Alternate: TIME=108.125:LEN=0.0249999999999999:MODS=*1000 -75% Flip, *1000 100% Invert, *1000 No Split, *1000 100% Alternate, *1000 -6.25% Reverse: TIME=108.15:LEN=0.0249999999999999:MODS=*1000 50% Flip, *1000 50% Invert, *1000 25% Split, *1000 25% Reverse, *1000 No Alternate: TIME=108.175:LEN=0.0249999999999999:MODS=*1000 -75% Flip, *1000 100% Invert, *1000 No Split, *1000 100% Alternate, *1000 -6.25% Reverse: TIME=108.200000000001:LEN=0.0249999999999999:MODS=*1000 50% Flip, *1000 50% Invert, *1000 25% Split, *1000 25% Reverse, *1000 No Alternate: TIME=108.225000000001:LEN=0.0249999999999999:MODS=*1000 -75% Flip, *1000 100% Invert, *1000 No Split, *1000 100% Alternate, *1000 -6.25% Reverse: TIME=108.250000000001:LEN=0.0249999999999999:MODS=*1000 50% Flip, *1000 50% Invert, *1000 25% Split, *1000 25% Reverse, *1000 No Alternate: TIME=108.275000000001:LEN=0.0249999999999999:MODS=*1000 -75% Flip, *1000 100% Invert, *1000 No Split, *1000 100% Alternate, *1000 -6.25% Reverse: TIME=108.300000000001:LEN=0.0249999999999999:MODS=*1000 50% Flip, *1000 50% Invert, *1000 25% Split, *1000 25% Reverse, *1000 No Alternate: TIME=108.325000000001:LEN=0.0249999999999999:MODS=*1000 -75% Flip, *1000 100% Invert, *1000 No Split, *1000 100% Alternate, *1000 -6.25% Reverse: TIME=108.350000000001:LEN=0.0249999999999999:MODS=*1000 50% Flip, *1000 50% Invert, *1000 25% Split, *1000 25% Reverse, *1000 No Alternate: TIME=108.375000000001:LEN=0.0249999999999999:MODS=*1000 -75% Flip, *1000 100% Invert, *1000 No Split, *1000 100% Alternate, *1000 -6.25% Reverse: TIME=108.4:LEN=1.1:MODS=*1 100% Stealth, *1000 100% Dark, *1 50% Reverse: TIME=109.4:LEN=1.4:MODS=*1000 No Reverse, *1 0% Stealth, *1 0% Dark: TIME=110.8:LEN=1.6:MODS=*0.7 100% Invert, *0.7 18.75% Alternate: TIME=112.4:LEN=3.2:MODS=*0.3 100% Invert, *0.3 18.75% Alternate: TIME=115.6:LEN=1.6:MODS=*1.75 100% Flip, *1.75 -100% Invert, *2 18.75% Alternate: TIME=117.2:LEN=1.6:MODS=*1.75 75% Flip, *1.75 75% Invert, *2 18.75% Alternate: TIME=118.8:LEN=1.6:MODS=*1.5 -37.5% Flip, *1.5 87.5% Invert, *1.5 25% Alternate, *1000 No Split: TIME=119.4:LEN:2.6:MODS=*1000 100% Sudden: TIME=120.0:LEN=1.6:MODS=*1000 100% Dark, *1000 100% Stealth, 100% Sudden: TIME=119.6:LEN=3.2:MODS=*1000 100% Brake: TIME=120.4:LEN=2.4:MODS=*1000 -500% Mini, *1000 25% Flip: TIME=122.0:LEN=6.4:MODS=*1 100% Dark, *1 100% Stealth: TIME=128.4:LEN=200:MODS=*0.15 0% Dark, *0.15 0% Stealth:;

//---------------dance-single - ----------------
#NOTES:
     dance-single:
     :
     Hard:
     3:
     0.000,0.000,0.000,0.000,0.000:
0000
0000
0000
0000
,
0000
0000
0000
0000
,
0000
0000
0000
0000
,
0000
0000
0000
0000
,
0000
2000
0000
0000
,
0000
0000
0000
0000
,
0000
0000
0000
0000
,
0000
0000
0000
0000
,
0000
0000
0000
0000
,
0000
0000
0000
0000
,
0000
0000
0000
0000
,
0000
3000
0000
0000
,
0000
0110
1000
0001
,
0100
0010
0100
0001
,
0010
0100
1000
0010
,
1000
0100
0010
0001
,
0000
1000
0001
0010
,
0001
0100
0010
1000
,
0001
0000
1000
0100
1000
0001
0010
0001
,
1000
0100
1000
0000
0000
0000
0000
0000
,
0000
0210
0000
0000
,
0000
0302
0000
0000
,
0000
1003
0001
1000
,
0001
1000
0001
1000
,
0001
0200
0000
0010
,
0000
0302
0000
0100
,
0000
0203
0000
0010
,
0000
0010
0000
0320
,
0000
0130
0000
0000
,
0000
1002
0000
0000
,
0000
1003
0100
0010
,
0001
0010
0100
1000
,
0010
2000
0000
0010
,
0000
3200
0000
0010
,
0000
2300
0000
0010
,
0000
3001
0000
0000
,
0000
0220
0000
0000
,
0000
0000
0000
0000
,
0000
0000
0000
0000
,
0000
0000
0000
0000
,
0000
0330
0000
0000
,
0000
0000
0000
0000
,
0000
0000
0000
0000
,
0000
0000
0000
0000
,
0000
0002
0000
0000
,
0000
0000
0000
0000
,
0000
0000
0000
0000
,
0000
0000
0000
0000
,
0000
0000
0000
0000
,
0000
0000
0000
0000
,
0000
0000
0000
0000
,
0000
0003
0000
0000
,
0000
0110
1000
0001
,
0010
0001
0100
0010
,
1000
0001
0010
0100
,
1000
0100
0010
0001
,
1000
0100
1000
0010
,
0100
0001
0010
0001
,
1000
0000
0001
0010
0001
1000
0100
0010
,
0001
1000
0001
0000
0000
0000
0000
0000
,
0000
0210
0000
0000
,
0000
0302
0000
0000
,
0000
0103
0000
0100
,
0000
0010
0000
0010
,
0000
2000
0000
0001
,
0000
3020
0000
0100
,
0000
2030
0000
0001
,
0000
0010
0000
3200
,
0000
0320
0000
0000
,
0000
0032
0000
0000
,
0000
0103
0000
0001
,
0000
1000
0000
0010
,
0000
2000
0000
0100
,
0000
3002
0000
0010
,
0000
0203
0000
0320
,
0000
1030
0000
0000
,
0000
0220
0000
0000
,
0000
0000
0000
0000
,
0000
0000
0000
0000
,
0000
0000
0000
0000
,
0000
0000
0330
0000
,
0000
0000
0000
0000
,
0000
0000
0000
0000
,
0000
0000
0000
0000
,
0000
0000
0000
0000
,
0000
0000
0000
0000
;
