#TITLE:Shockwave;
#SUBTITLE:;
#ARTIST:Marshmello;
#CREDIT:;
#MUSIC:Shockwave.ogg;
#SELECTABLE:YES;
#BACKGROUND:bg.png;
#BANNER:bn.png;
#CDTITLE:cdtitle.png;
#OFFSET:0;
#SAMPLESTART:40.976;
#SAMPLELENGTH:23.415;
#BPMS:0=82.0007,3=81.9982,4=82.0007,6=81.9982,7=82.0007,10=81.9982,11=82.0007,13=81.9982,14=82.0007,16=81.9982,17=82.0007,20=81.9982,21=82.0007,24=164.001,25=163.991,26=164.001,33=163.991,34=164.001,40=163.991,41=164.001,48=163.991,49=164.001,56=163.991,57=164.001,64=163.991,65=164.001,72=163.991,73=164.001,80=163.991,81=164.001,88=163.991,89=164.001,96=163.991,97=164.001,104=163.991,105=164.001,108=163.991,109=164.001,112=163.991,113=164.001,116=163.991,117=164.001,120=163.991,121=164.001,124=163.991,125=164.001,128=163.991,129=164.001,132=163.991,133=164.001,136=163.991,137=164.001,140=163.991,141=164.001,144=163.991,145=164.001,148=163.991,149=164.001,152=81.9982,153=82.0007,154=81.9982,155=82.0007,156=81.9982,157=82.0007,158=81.9982,159=82.0007,160=81.9982,161=82.0007,162=81.9982,163=82.0007,164=81.9982,165=82.0007,166=81.9982,167=82.0007,168=81.9982,169=82.0007,170=81.9982,171=82.0007,172=81.9982,173=82.0007,174=81.9982,175=82.0007,176=81.9982,177=82.0007,178=81.9982,179=82.0007,180=81.9982,181=82.0007,182=81.9982,183=82.0007,184=163.991,185=164.001,188=163.991,189=164.001,192=163.991,193=164.001,196=163.991,197=164.001,200=163.991,201=164.001,216=163.991,217=164.001,236=163.991,237=164.001,257=163.991,258=164.001,277=163.991,278=164.001,298=163.991,299=164.001,312=82.0007,314=81.9982,315=82.0007,317=81.9982,318=82.0007,321=81.9982,322=82.0007,324=81.9982,325=82.0007,328=81.9982,329=82.0007,331=81.9982;
#STOPS:;

//---------------dance-single - ----------------
#NOTES:
     dance-single:
     :
     Challenge:
     8:
     0.000,0.000,0.000,0.000,0.000:
0000
0000
0000
0000
,
0000
0000
0000
0000
,
1001
0000
0001
0000
1000
0001
0010
0001
1000
0000
0100
0000
1000
0010
0100
0001
,
0010
0000
0001
1000
0001
0000
0100
0000
0010
0000
0000
0000
0000
0000
0000
0000
,
1010
0000
0010
0000
1000
0001
1000
0100
1000
0000
0001
0000
1000
0010
0100
0001
,
0100
0001
0010
0100
1000
0000
0000
0000
,
1001
0000
0000
0101
0000
0000
1001
0000
,
0000
0000
0110
0000
0000
1010
0000
0000
,
0110
0000
0000
0101
0000
0000
1001
0000
,
0000
0000
1000
1000
1000
1000
0001
0000
,
1001
0000
0000
1100
0000
0000
1001
0000
,
0000
0000
0011
0000
0000
1010
0000
0000
,
0011
0000
0000
1100
0000
0000
1001
0000
,
0000
0000
0001
0001
0001
0001
1000
0000
,
1002
0013
1200
0310
,
2001
3100
0201
0310
,
1002
0013
2100
3001
,
0101
0000
0100
0100
0100
0100
0010
0000
,
1000
0100
1000
0001
0100
0010
0100
0001
,
0010
0100
1000
0001
0100
0010
1000
0001
,
1000
0100
0010
0001
1000
0100
0010
0001
1000
0001
0100
0010
1000
0001
0100
0010
,
1000
0000
0000
0000
,
0002
2003
3400
0340
,
0230
2300
3040
0430
,
0302
0203
0340
0430
,
0302
4003
3004
0043
,
1032
2003
3400
0340
,
0032
0203
0340
0430
,
0302
2003
3400
0340
,
0230
4300
3040
0430
,
1302
2003
3004
0043
,
2030
3020
0034
0403
,
0320
0032
0043
0430
,
0320
4030
3004
0043
,
2031
3020
0430
0340
,
0230
2300
3400
0304
,
0023
2030
3040
0430
,
2300
3004
0403
0340
,
1031
0000
0000
0000
,
1000
0100
0010
0001
1000
0000
0000
0000
,
0000
0000
0000
0000
,
0001
0100
0010
1000
0001
0000
0000
0000
,
1001
0000
1000
0000
0001
0010
0100
0010
0001
0000
1000
0000
0100
1000
0001
1000
,
0010
0000
1000
0001
0100
0000
0010
0000
1000
0000
0000
0000
0000
0000
0000
0000
,
1001
0000
1000
0000
0001
0010
0100
1000
0010
0000
0100
0000
0001
0100
0001
1000
,
0100
1000
0100
0010
0001
0000
0000
0000
,
1001
0000
1000
0000
0001
0100
0010
1000
,
0010
0000
0110
0000
0100
0001
1000
0001
,
0011
0000
0010
0100
1000
0000
1001
0000
,
1000
0000
0010
0010
0010
0010
0100
0000
,
0110
0000
0010
0000
1000
0100
0010
0001
,
1000
0000
1010
0000
0010
0100
0001
0100
,
0110
0010
1000
1001
,
0001
0000
0100
0100
0100
0100
0001
0000
,
0011
1010
1100
0101
,
0011
1001
1100
0110
,
0011
1010
0110
0101
,
1001
1010
0101
1001
,
0011
0001
0100
0010
0100
0001
1000
0010
,
1000
0001
0010
0100
1000
0010
0100
0001
,
1000
0001
0010
0100
1000
0001
0010
0100
1000
0001
0100
0010
1000
0001
0100
0010
,
1000
0000
0000
0000
,
4000
0000
3040
0000
0130
0001
1000
0100
,
4000
0000
3004
0000
0103
0010
1000
0001
,
0040
0000
0430
0000
1300
0010
1000
0001
,
0400
0000
0340
0000
1030
0100
1000
0001
,
4001
0000
3400
0000
0310
0001
1000
0010
,
0400
0000
0304
0000
0013
0100
1000
0001
,
4000
0000
3400
0000
0310
0100
1000
0010
,
0400
0000
0340
0000
1030
0001
0100
0001
,
1004
0000
4003
0000
3010
0100
1000
0100
,
0004
0000
0403
0000
0301
0010
1000
0010
,
0004
0000
0403
0000
0310
0100
1000
0100
,
0004
0000
0403
0000
0310
1000
0010
0100
,
4001
0000
3004
0000
0013
0100
0001
0100
,
4000
0000
3040
0000
0130
0010
0001
0010
,
4000
0000
3400
0000
0310
0100
0001
0100
,
4000
0000
3040
0000
0130
0001
1000
0010
,
1000
0001
0010
0001
1000
0001
0010
0100
,
1000
0010
1000
0000
0010
0100
0001
0000
,
1000
0100
0010
0001
0100
0010
1000
0100
,
1000
0001
0010
0000
0100
1000
0010
0000
,
0000
0000
0000
0000
,
0000
0000
0000
0000
;
