#TITLE:good 4 u;
#SUBTITLE:;
#ARTIST:Olivia Rodrigo;
#TITLETRANSLIT:;
#SUBTITLETRANSLIT:;
#ARTISTTRANSLIT:;
#GENRE:Pop Rock;
#CREDIT:;
#BANNER:bn.png;
#BACKGROUND:bg.png;
#LYRICSPATH:;
#CDTITLE:;
#MUSIC:good 4 u.ogg;
#OFFSET:1.242485;
#SAMPLESTART:28.709000;
#SAMPLELENGTH:11.578000;
#LASTBEATHINT:0.593287;
#SELECTABLE:YES;
#BPMS:0.000000=165.966003
,6.000000=165.955994
,13.000000=165.966003
,18.000000=168.653000
,19.000000=168.664001
,20.000000=167.968002
,21.000000=169.354996
,22.000000=169.018997
,23.000000=168.998001
,24.000000=169.018997
,25.000000=168.998001
,26.000000=168.664001
,27.000000=168.653000
,28.000000=168.664001
,29.000000=168.653000
,30.000000=169.018997
,31.000000=168.998001
,32.000000=169.018997
,33.000000=168.998001
,34.000000=168.664001
,35.000000=168.653000
,36.000000=168.664001
,37.000000=168.653000
,38.000000=169.009003
,39.000000=168.998001
,42.000000=168.664001
,43.000000=168.653000
,44.000000=168.664001
,45.000000=168.653000
,46.000000=168.858002
,47.000000=168.867996
,48.000000=168.858002
,49.000000=168.847000
,50.000000=169.009003
,51.000000=168.998001
,54.000000=169.009003
,55.000000=168.998001
,56.000000=169.009003
,57.000000=168.998001
,58.000000=168.664001
,59.000000=168.653000
,60.000000=168.664001
,61.000000=168.653000
,62.000000=169.009003
,63.000000=168.998001
,64.000000=169.009003
,65.000000=168.998001
,66.000000=168.330994
,67.000000=168.309998
,70.000000=169.009003
,71.000000=168.998001
,72.000000=169.009003
,73.000000=168.998001
,74.000000=171.462006
,75.000000=164.951996
,76.000000=168.427994
,77.000000=168.417007
,81.000000=172.343994
,82.000000=169.182007
,83.000000=168.824997
,84.000000=165.955994
,86.000000=165.945007
,87.000000=165.623001
,88.000000=165.613007
,89.000000=165.768997
,90.000000=165.757996
,91.000000=165.852005
,92.000000=165.841003
,93.000000=165.852005
,94.000000=165.841003
,95.000000=165.675003
,96.000000=165.664993
,97.000000=167.988998
,98.000000=164.205002
,99.000000=164.951996
,100.000000=164.942001
,101.000000=167.151001
,103.000000=166.656006
,105.000000=165.945007
,106.000000=165.955994
,107.000000=164.307007
,108.000000=164.296997
,109.000000=165.873001
,110.000000=165.862000
,111.000000=165.955994
,112.000000=165.945007
,113.000000=165.996994
,114.000000=165.987000
,115.000000=165.582001
,116.000000=165.572006
,117.000000=165.996994
,118.000000=165.987000
,119.000000=165.664993
,120.000000=165.654999
,121.000000=165.955994
,122.000000=165.945007
,123.000000=165.623001
,124.000000=165.613007
,125.000000=166.039001
,126.000000=166.029007
,127.000000=165.705994
,128.000000=165.695999
,129.000000=166.080994
,130.000000=166.070007
,131.000000=165.686005
,132.000000=165.675003
,133.000000=165.873001
,134.000000=165.862000
,135.000000=165.768997
,136.000000=165.757996
,137.000000=165.768997
,138.000000=165.757996
,139.000000=165.893005
,140.000000=165.882996
,141.000000=165.955994
,142.000000=165.945007
,143.000000=165.789001
,144.000000=165.779007
,145.000000=165.830994
,146.000000=165.820999
,147.000000=168.395996
,148.000000=165.955994
,149.000000=168.246002
,153.000000=168.255997
,154.000000=165.955994
,155.000000=165.945007
,156.000000=163.880005
,159.000000=163.889999
,160.000000=163.880005
,163.000000=167.490005
,165.000000=168.804001
,166.000000=168.792999
,167.000000=168.804001
,169.000000=168.792999
,170.000000=168.804001
,171.000000=168.792999
,172.000000=168.804001
,174.000000=168.792999
,175.000000=168.804001
,177.000000=168.792999
,178.000000=168.804001
,180.000000=168.792999
,181.000000=168.804001
,183.000000=168.792999
,184.000000=168.804001
,185.000000=168.792999
,186.000000=168.804001
,188.000000=168.792999
,189.000000=168.804001
,191.000000=168.792999
,192.000000=168.804001
,194.000000=168.792999
,195.000000=168.804001
,197.000000=168.792999
,198.000000=168.804001
,199.000000=168.792999
,200.000000=168.804001
,202.000000=168.792999
,203.000000=168.804001
,205.000000=168.792999
,206.000000=168.804001
,208.000000=168.792999
,209.000000=168.804001
,211.000000=168.792999
,212.000000=168.804001
,216.000000=168.792999
,217.000000=168.804001
,219.000000=168.792999
,220.000000=168.804001
,222.000000=168.792999
,223.000000=165.945007
,224.000000=165.955994
,225.000000=172.884995
,226.000000=172.783005
,227.000000=166.520004
,228.000000=166.625000
,229.000000=165.955994
,230.000000=165.945007
,231.000000=165.955994
,232.000000=165.945007
,233.000000=165.955994
,234.000000=165.945007
,235.000000=165.955994
,236.000000=165.945007
,237.000000=165.955994
,238.000000=165.945007
,239.000000=165.955994
,240.000000=165.945007
,241.000000=165.955994
,242.000000=165.945007
,243.000000=165.955994
,244.000000=165.945007
,245.000000=165.955994
,246.000000=165.945007
,247.000000=165.955994
,248.000000=165.945007
,249.000000=164.552002
,250.000000=164.542007
,251.000000=165.955994
,252.000000=165.945007
,253.000000=165.789001
,254.000000=165.779007
,255.000000=166.123001
,256.000000=166.112000
,257.000000=165.541000
,258.000000=165.529999
,259.000000=165.873001
,260.000000=165.862000
,261.000000=166.541000
,262.000000=166.529999
,263.000000=165.789001
,264.000000=165.779007
,265.000000=165.955994
,266.000000=165.945007
,267.000000=165.873001
,268.000000=165.862000
,269.000000=165.705994
,270.000000=165.695999
,271.000000=165.955994
,272.000000=165.945007
,273.000000=165.955994
,274.000000=165.945007
,275.000000=165.623001
,276.000000=165.613007
,277.000000=165.830994
,278.000000=165.820999
,279.000000=165.686005
,280.000000=165.675003
,281.000000=166.227005
,282.000000=166.216003
,283.000000=165.623001
,284.000000=165.613007
,285.000000=165.623001
,286.000000=165.613007
,287.000000=166.039001
,288.000000=166.029007
,289.000000=167.003006
,290.000000=166.992996
,291.000000=165.945007
,292.000000=165.955994
,293.000000=165.945007
,294.000000=165.955994
,295.000000=165.945007
,296.000000=165.955994
,297.000000=165.945007
,298.000000=165.955994
,299.000000=172.164993
,300.000000=164.134003
,302.000000=164.123993
,303.000000=164.134003
,306.000000=164.123993
,307.000000=170.072998
,308.000000=168.878998
,309.000000=165.945007
,310.000000=165.955994
,311.000000=165.945007
,312.000000=165.955994
,313.000000=165.945007
,314.000000=165.955994
,315.000000=165.945007
,316.000000=165.955994
,317.000000=165.945007
,318.000000=165.955994
,319.000000=165.945007
,320.000000=165.955994
,321.000000=165.945007
,322.000000=165.955994
;
#STOPS:
;
#BGCHANGES:3.438=good 4 u.mp4=1.000=1=0=0=StretchNoLoop==CrossFade==,
314.000=bg.png=1.000=1=0=1===CrossFade==,
99999=-nosongbg-=1.000=0=0=0 // don't automatically add -songbackground-
;
#KEYSOUNDS:;
#ATTACKS:;

//---------------dance-single - ----------------
#NOTES:
     dance-single:
     :
     Beginner:
     3:
     0.156246,0.243883,0.026461,0.035281,0.000000,124.000000,121.000000,3.000000,4.000000,0.000000,0.000000,0.156246,0.243883,0.026461,0.035281,0.000000,124.000000,121.000000,3.000000,4.000000,0.000000,0.000000:
0000
0000
0000
0000
,
0000
0000
0000
0000
,
0000
0000
0000
0000
,
0000
0000
0000
0000
,
0000
0000
0000
0000
,
1000
0000
1000
0000
,
1000
0000
0000
0000
,
0001
0000
0001
0000
,
0001
0000
0000
0000
,
1000
0000
1000
0000
,
1000
0000
0000
0000
,
0001
0000
0001
0000
,
0001
0000
0000
0000
,
0100
0000
0100
0000
,
0100
0000
0000
0000
,
0010
0000
0010
0000
,
0010
0000
0000
0000
,
0100
0000
0100
0000
,
0100
0000
0000
0000
,
0002
0000
0003
0000
,
0000
0000
1000
0000
,
0001
0001
0000
1000
,
0000
1000
0000
0001
,
0000
0001
0000
0100
,
0000
0100
0000
0010
,
0000
0010
0000
1000
,
0000
1000
0000
0001
,
0000
0001
0000
0100
,
0000
0100
0000
0001
,
0001
0001
0000
1000
,
0000
1000
0000
0010
,
0000
0010
0000
0100
,
0000
0100
0000
0001
,
0000
0001
0000
1000
,
0000
1000
0000
0001
,
0000
0001
0000
0100
,
0000
0100
0000
0001
,
0000
0000
0000
0000
,
0000
0000
0000
0000
,
2000
0000
0000
0000
,
3000
0000
0000
0000
,
0001
0000
0000
0000
,
0000
0000
0000
0000
,
0001
0000
0001
0000
,
0001
0000
0000
0000
,
1000
0000
1000
0000
,
1000
0000
0000
0000
,
1001
0000
1001
0000
,
1001
0000
0000
0000
,
0100
0000
0100
0000
,
0100
0000
0000
0000
,
0010
0000
0010
0000
,
0010
0000
0000
0000
,
0100
0000
0100
0000
,
0100
0000
0001
0000
,
1000
0000
0001
0000
,
1000
0000
0002
0003
,
1000
1000
0000
0001
,
0000
0001
0000
1000
,
0000
1000
0000
0010
,
0000
0010
0000
0100
,
0000
0100
0000
0001
,
0000
0001
0000
1000
,
0000
1000
0000
0010
,
0000
0010
0000
1000
,
1000
1000
0000
0001
,
0000
0001
0000
0100
,
0000
0100
0000
0010
,
0000
0010
0000
1000
,
0000
1000
0000
0001
,
0000
0001
0000
1000
,
0000
1000
0000
0010
,
0000
0010
0000
1000
,
0000
0000
0000
0000
,
0000
0000
0000
0000
,
0002
0000
0000
0000
,
0003
0000
0000
0000
,
1000
0000
0000
0000
,
0001
0000
0001
0000
,
0001
0000
0000
0000
;

//---------------dance-single - ----------------
#NOTES:
     dance-single:
     :
     Easy:
     6:
     0.233110,0.314556,0.044102,0.079383,0.000000,185.000000,180.000000,5.000000,9.000000,0.000000,0.000000,0.233110,0.314556,0.044102,0.079383,0.000000,185.000000,180.000000,5.000000,9.000000,0.000000,0.000000:
0000
0000
0000
0000
,
0000
0000
0000
0000
,
0000
0000
0000
0000
,
0000
0000
0000
0000
,
0000
0000
0000
0001
,
1000
1000
0000
0000
,
0001
0000
0000
0100
,
0010
0010
0000
0000
,
0100
0000
0000
0001
,
1000
1000
0000
0000
,
0001
0000
0000
0010
,
0100
0100
0000
0000
,
0010
0000
0000
0001
,
1000
0001
1000
0000
,
0001
0000
0000
0100
,
0010
0100
0010
0000
,
0100
0000
0000
0001
,
1000
0001
1000
0000
,
0001
0000
0100
0000
,
2002
0000
0000
0000
,
3003
0000
1000
1000
,
1001
0001
0000
1000
,
0100
1000
0000
0001
,
0100
0001
0000
1000
,
0010
1000
0000
0001
,
0010
0001
0000
1000
,
0001
1000
0000
0010
,
0100
0010
0000
0100
,
0010
0100
0000
0001
,
1000
0100
0000
1000
,
0001
0100
0000
0010
,
1000
0100
0000
0010
,
0001
0100
0000
0001
,
0100
0001
0000
1000
,
0100
1000
0000
0001
,
0100
0010
0000
1000
,
0100
0010
0000
0001
,
0001
0000
0000
0000
,
0000
0000
0000
0000
,
2000
0000
0000
0000
,
0000
0000
0000
0000
,
3001
0001
0000
0000
,
1000
0000
0000
0100
,
1000
0100
0010
0000
,
0100
0000
0000
0010
,
0001
0010
0100
0000
,
0010
0000
0001
1000
,
1001
0000
0110
0000
,
1001
0000
0000
0001
,
1000
0001
1000
0000
,
0001
0000
0000
0100
,
0010
0100
0010
0000
,
0100
0000
0000
0001
,
1000
0001
1000
0000
,
0001
0000
0100
0000
,
0010
0010
1000
1000
,
0001
0001
2000
0000
,
3001
0001
0000
1000
,
0100
1000
0000
0001
,
0100
0001
0000
1000
,
0010
1000
0000
0001
,
0010
0001
0000
1000
,
0001
1000
0000
0010
,
0100
0010
0000
0100
,
0010
0100
0000
0001
,
1000
0100
0000
1000
,
0001
0100
0000
0010
,
1000
0100
0000
0010
,
0001
0100
0000
0001
,
0100
0001
0000
1000
,
0100
1000
0000
0001
,
0100
0010
0000
1000
,
0100
0010
0000
0001
,
0001
0000
0000
0000
,
0000
0000
0000
0000
,
2000
0000
0000
0000
,
0000
0000
0000
0000
,
3002
0003
0000
0000
,
0200
0300
0000
0000
0020
0030
0000
0000
,
2000
3000
0000
0000
;

//---------------dance-single - ----------------
#NOTES:
     dance-single:
     :
     Medium:
     9:
     0.369195,0.453642,0.052922,0.114665,0.017641,293.000000,287.000000,6.000000,13.000000,24.000000,0.000000,0.369195,0.453642,0.052922,0.114665,0.017641,293.000000,287.000000,6.000000,13.000000,24.000000,0.000000:
0000
0000
0000
0000
,
0000
0000
0000
0000
,
0000
0000
0000
0000
,
0000
0000
0000
0000
,
0000
0000
0000
2000
,
3001
0000
0001
0000
0100
0001
0000
0000
,
0001
0000
0100
0002
,
1003
0000
1000
0000
0100
1000
0000
0000
,
1000
0000
0100
2000
,
3001
0000
0001
0000
0010
0001
0000
0000
,
0001
0000
0010
0002
,
1003
0000
1000
0000
0010
1000
0000
0000
,
1000
0000
0010
0200
,
0301
1000
0001
0000
0100
0001
0000
0000
,
0001
0000
0100
0020
,
1030
0001
1000
0000
0100
1000
0000
0000
,
1000
0000
0100
0020
,
0031
1000
0001
0000
0010
0001
0000
0000
,
0001
0000
0010
0000
,
0004
4000
0000
0000
0000
0000
0000
0000
0000
0000
0000
0000
0000
0000
0000
0000
,
3003
0000
0000
0000
1001
0001
0001
0000
,
1001
0000
1000
0000
0001
0100
0001
0100
,
0000
0000
0001
0000
0000
0010
0100
0010
,
0100
0000
1000
0000
0010
1000
0010
1000
,
0000
0000
0001
0000
0000
1000
0010
1000
,
1000
0000
0001
0000
1000
0100
1000
0100
,
0000
0000
1000
0000
0000
0010
0100
0010
,
0100
0000
0001
0000
0010
0001
0010
0001
,
0000
0000
1000
0000
0000
0001
0100
0001
,
0001
0000
1000
0000
0001
0100
0010
0100
,
0000
0000
0001
0000
0000
0010
0100
0010
,
0100
0000
1000
0000
0010
1000
0010
0100
,
0000
0000
0001
0000
0000
1000
0010
1000
,
1000
0000
0001
0000
1000
0100
0010
0100
,
0000
0000
1000
0000
0000
0010
0100
0010
,
0100
0000
0001
0000
0010
0001
0010
0100
,
0000
0000
1000
0000
0000
0001
0100
0001
,
M001
0000
M000
0000
M000
M000
M000
M000
,
0000
M000
M000
M000
0000
M000
M000
M000
,
0004
4000
0000
0000
0000
0000
0000
0000
0000
0000
0000
0000
0000
0000
0000
0000
,
0000
0000
0000
0000
0000
0000
0000
3003
,
0010
0000
0010
0000
0000
0010
0000
0000
,
0010
0000
1000
0002
,
1003
0000
1000
0000
0100
1000
0000
0000
,
1000
0000
0100
2000
,
3001
0000
0001
0000
0100
0001
0000
0000
,
0001
0000
0000
0000
0100
0000
0002
0003
,
1010
0000
0101
0000
,
0110
0000
0000
0200
,
0301
1000
0001
0000
0100
0001
0000
0000
,
0001
0000
0100
0020
,
1030
0001
1000
0000
0100
1000
0000
0000
,
1000
0000
0100
0020
,
0031
1000
0001
0000
0010
0001
0000
0000
,
0001
0000
0010
0000
,
0001
1000
0001
1000
0010
0100
0010
0100
,
0001
0000
0000
0000
0000
0000
0000
0000
4000
0004
0000
0000
0000
0000
3003
0000
,
0110
0000
1000
0000
0001
0100
0001
0100
,
0000
0000
0001
0000
0000
0010
0100
0010
,
0100
0000
1000
0000
0010
1000
0010
1000
,
0000
0000
0001
0000
0000
1000
0010
1000
,
1000
0000
0001
0000
1000
0100
1000
0100
,
0000
0000
1000
0000
0000
0010
0100
0010
,
0100
0000
0001
0000
0010
0001
0010
0001
,
0000
0000
1000
0000
0000
0001
0100
0001
,
0001
0000
1000
0000
0001
0100
0010
0100
,
0000
0000
0001
0000
0000
0010
0100
0010
,
0100
0000
1000
0000
0010
1000
0010
0100
,
0000
0000
0001
0000
0000
1000
0010
1000
,
1000
0000
0001
0000
1000
0100
0010
0100
,
0000
0000
1000
0000
0000
0010
0100
0010
,
0100
0000
0001
0000
0010
0001
0010
0100
,
0000
0000
1000
0000
0000
0001
0100
0001
,
M001
0000
M000
0000
M000
M000
M000
M000
,
0000
M000
M000
M000
0000
M000
M000
M000
,
0004
4000
0000
0000
0000
0000
0000
0000
0000
0000
0000
0000
0000
0000
0000
0000
,
0000
0000
0000
0000
0000
0000
0000
3003
,
0010
0010
0000
0000
0000
0000
0000
0000
,
1000
0000
0001
0000
,
0100
0100
0000
0000
0000
0000
0000
0000
;

//---------------dance-single - ----------------
#NOTES:
     dance-single:
     :
     Hard:
     12:
     0.468739,0.558550,0.044102,0.052922,0.057332,372.000000,367.000000,5.000000,6.000000,0.000000,0.000000,0.468739,0.558550,0.044102,0.052922,0.057332,372.000000,367.000000,5.000000,6.000000,0.000000,0.000000:
0000
0000
0000
0000
,
0000
0000
0000
0000
,
0000
0000
0000
0000
,
0000
0000
0000
0000
,
0000
0000
0000
0000
,
0000
0000
0001
0100
0001
1000
0100
0010
,
0100
1000
0010
0100
0001
0010
0100
0000
,
0000
0000
1000
0100
1000
0001
0010
0100
,
0010
0001
0100
0010
1000
0100
0010
0000
,
0000
0010
0001
0010
0100
1000
0010
0100
,
0001
0000
1000
0000
0001
0000
0100
0000
0010
0000
0000
1000
0000
0000
0001
0000
,
2000
0000
0000
0000
,
0000
0002
3003
2000
,
3000
0000
0001
0100
0001
1000
0010
0100
,
0010
1000
0010
0100
0001
0010
0100
0000
,
0000
0100
1000
0100
1000
0010
0100
0001
,
0010
0001
0100
0010
1000
0100
0010
0000
,
0000
0010
0001
0010
0100
1000
0010
1000
,
0100
0000
0010
0001
0100
0000
0010
0000
,
4000
0004
0000
0000
0000
0000
0000
0000
0000
0000
0000
0000
0000
0000
0000
0000
,
3003
0000
0000
0000
1001
1000
1000
0000
,
0101
0000
1000
0001
0100
0001
0010
0100
,
0000
0010
0001
0100
0000
0010
1000
0100
,
0000
1000
0001
0100
,
0010
1000
0100
0010
0001
0000
0100
0001
,
1000
0000
0001
0000
1000
0100
1000
0001
,
0000
0100
0001
0010
0001
1000
0010
0100
,
0001
1000
0001
0100
,
0010
0100
0001
1000
0100
0010
0001
1000
,
0001
1000
0100
0001
,
0010
0000
1000
0000
0001
0000
0010
0001
,
0000
0000
0100
0000
0010
0000
1000
0001
,
0100
0000
0010
0100
0000
0010
1000
0000
,
0010
0000
1000
0001
0010
0100
1000
0001
,
0000
0100
0001
0010
0000
0100
1000
0000
,
0001
0100
1000
0010
,
0001
1000
0002
0000
,
1003
0000
0000
0000
,
0000
0000
0000
0000
,
0004
4000
0000
0000
0000
0000
0000
0000
0000
0000
0000
0000
0000
0000
0000
0000
,
0000
0000
0000
0000
,
3003
0000
0001
0100
0001
1000
0100
0010
,
0100
1000
0010
0100
0001
1000
0100
0000
,
0000
0100
0010
0100
1000
0001
0010
0100
,
0010
0001
0100
0010
1000
0100
0010
0000
,
0000
0010
0001
0010
0100
1000
0010
0100
,
0001
1000
0001
0100
0010
0000
1000
0000
,
1001
0000
0000
0001
0101
0000
0000
1000
,
1100
0000
0200
0000
,
0300
0010
0001
0100
0001
1000
0010
0100
,
0010
1000
0010
0100
0001
0000
0010
0000
,
0000
0001
1000
0100
1000
0010
0100
0001
,
1000
0001
0100
0010
1000
0000
0001
0000
,
1000
0000
0000
0000
0001
0000
1000
0000
0001
0000
0000
0000
0010
0000
0000
0000
0100
0000
0000
0000
0000
0000
0000
1000
0000
0000
0000
0001
0000
0000
0000
0000
,
0010
0000
0000
0001
0000
0000
0000
0010
0000
0001
0000
0000
1000
0000
0000
0000
,
0010
1000
0001
1000
0100
0010
0001
0100
,
0010
0000
1000
0000
0001
0000
0100
0000
0004
4000
0000
0000
0000
0000
0000
0000
,
3003
0000
1000
0001
0100
0001
0010
0100
,
0000
0010
0001
0100
0000
0010
1000
0100
,
0000
1000
0001
0100
,
0010
1000
0100
0010
0001
0000
0100
0001
,
1000
0000
0001
0000
1000
0100
1000
0001
,
0000
0100
0001
0010
0001
1000
0010
0100
,
0001
1000
0001
0100
,
0010
0100
0001
1000
0100
0010
0001
1000
,
0001
1000
0100
0001
,
0010
0000
1000
0000
0001
0000
0010
0001
,
0000
0000
0100
0000
0010
0000
1000
0001
,
0100
0000
0010
0100
0000
0010
1000
0000
,
0010
0000
1000
0001
0010
0100
1000
0001
,
0000
0100
0001
0010
0000
0100
1000
0000
,
0001
0100
1000
0010
,
0001
1000
0002
0000
,
1003
0000
0000
0000
,
0000
0000
0000
0000
,
0004
4000
0000
0000
0000
0000
0000
0000
0000
0000
0000
0000
0000
0000
0000
0000
,
0000
0000
0000
0000
0000
0000
0000
3003
,
0010
0000
0000
0000
0000
0010
0000
0000
0000
0000
0000
0000
0000
0000
0000
0000
0000
0000
0000
0000
0000
0000
0000
0000
0000
0000
0000
0000
0000
0000
0000
0000
,
1000
0000
0001
0000
,
0010
0000
0000
0000
0000
0010
0000
0000
0000
0000
0000
0000
0000
0000
0000
0000
0000
0000
0000
0000
0000
0000
0000
0000
0000
0000
0000
0000
0000
0000
0000
0000
;

//---------------dance-single - ----------------
#NOTES:
     dance-single:
     :
     Challenge:
     15:
     0.685468,1.152009,0.308713,0.052922,0.291072,544.000000,509.000000,35.000000,6.000000,2.000000,0.000000,0.685468,1.152009,0.308713,0.052922,0.291072,544.000000,509.000000,35.000000,6.000000,2.000000,0.000000:
// measure 0
0000
0000
0000
0000
,  // measure 1
0000
0000
0000
0000
,  // measure 2
0000
0000
0000
0000
,  // measure 3
0000
0000
0000
0000
,  // measure 4
0000
0000
0000
0000
,  // measure 5
0000
1000
0010
0100
0010
1000
0001
0010
,  // measure 6
0100
0010
0001
1000
0100
0010
1000
0000
,  // measure 7
0000
0010
0001
1000
0010
0100
0001
0010
,  // measure 8
0100
1000
0010
0100
0001
0010
1000
0000
,  // measure 9
0000
0010
0001
1000
0010
0100
0010
1000
,  // measure 10
0001
0000
0010
0000
0001
0000
1000
0000
0100
0000
0000
0010
0000
0000
0001
0000
,  // measure 11
2000
0000
0000
0000
0200
0000
0000
0300
,  // measure 12
0020
0000
0000
0030
3002
0000
0000
0003
,  // measure 13
0000
0001
0010
0001
1000
0010
0100
0010
,  // measure 14
1000
0001
0010
0100
1000
0010
0001
0000
,  // measure 15
0000
0010
0100
0001
1000
0100
1000
0010
,  // measure 16
0100
0001
0010
0001
1000
0100
0001
0000
,  // measure 17
0000
0100
0010
0001
1000
0010
1000
0001
,  // measure 18
0010
0000
0001
1000
0001
0000
0100
0000
,  // measure 19
0010
0100
0010
0100
0010
0100
0010
0100
0010
0100
0010
0100
0010
0100
0010
0100
,  // measure 20
0010
0000
0000
0000
1010
0100
0100
0000
,  // measure 21
0011
0000
1001
0010
0001
0001
1000
0010
,  // measure 22
0000
0010
1000
0100
1000
0001
0010
0100
,  // measure 23
0100
0000
0110
0000
0010
0010
1001
0010
,  // measure 24
1000
0000
0100
0000
1000
0000
0001
0000
0010
0000
0100
0000
1000
0000
0001
1000
,  // measure 25
0001
0000
1001
0000
0100
0100
0001
1000
,  // measure 26
0000
0000
1000
0000
0001
0000
0010
0000
0100
0000
1000
0000
0001
0000
0100
0010
,  // measure 27
0100
0000
0110
0000
0001
0001
0110
1000
,  // measure 28
0100
0000
0010
0000
0001
0000
0100
0000
0001
0000
1000
0000
1000
0000
0001
0010
,  // measure 29
0001
0000
0101
0000
0010
0010
1001
0100
,  // measure 30
1000
0000
0011
0000
0001
1000
0001
0100
,  // measure 31
0100
0000
0110
0000
0010
0010
1001
0100
,  // measure 32
1000
0000
0000
0000
0011
0000
1000
0000
0000
0000
0001
0000
0100
0000
0010
1000
,  // measure 33
0010
0000
1001
0100
1000
1000
0010
0100
,  // measure 34
0000
0000
0001
0000
1000
0000
0100
0000
0000
0000
1000
0000
0001
0000
0100
0010
,  // measure 35
0100
0000
1001
0010
0001
0001
1100
0010
,  // measure 36
0001
0000
0000
0000
1001
0000
0000
0000
1000
0000
0010
0000
0100
0000
0001
1000
,  // measure 37
0001
0000
0000
0000
,  // measure 38
0000
0000
0000
0000
,  // measure 39
1000
0001
1000
0001
1000
0001
1000
0001
1000
0001
1000
0001
1000
0001
1000
0001
,  // measure 40
1000
0001
1000
0001
1000
0001
1000
0001
1000
0001
1000
0001
1000
0001
1000
0001
,  // measure 41
1000
0001
1000
0100
1000
0001
0100
0001
,  // measure 42
0010
0100
1000
0001
1000
0010
0001
0000
,  // measure 43
0000
0010
1000
0001
0100
0010
0100
0001
,  // measure 44
1000
0100
1000
0001
0010
0100
0001
0000
,  // measure 45
0000
0100
1000
0001
1000
0100
0010
0001
,  // measure 46
0100
0010
1000
0001
1000
0000
0001
0010
,  // measure 47
0001
0000
000M
0100
1000
0000
M000
0010
,  // measure 48
0001
0000
0000
0000
2002
0000
0000
3003
,  // measure 49
0000
0001
0010
0100
0010
0001
0100
0010
,  // measure 50
0100
0001
1000
0100
0010
0000
1000
0000
,  // measure 51
0000
0010
0001
0100
0010
1000
0010
0100
,  // measure 52
0001
0010
0100
1000
0010
0000
0001
0000
,  // measure 53
0010
0000
0000
0000
1000
0000
0010
0000
0100
0000
0000
0000
0010
0000
0000
0000
1000
0000
0000
0000
0000
0000
0000
0001
0000
0000
0000
1000
0000
0000
0000
0000
,  // measure 54
0001
0000
0000
0010
0000
0000
0000
0100
0000
1000
0000
0000
0001
0000
0000
0000
,  // measure 55
1000
0100
1000
0001
0100
0010
1000
0001
,  // measure 56
0010
0000
0100
0000
1000
0000
0001
0000
0100
0010
0100
0010
0100
0010
0100
0010
,  // measure 57
0100
0000
1001
0100
1000
1000
0001
0100
,  // measure 58
0000
0100
0001
0010
0001
1000
0100
0010
,  // measure 59
0010
0000
0110
0000
0100
0100
1001
0100
,  // measure 60
0001
0000
0010
0000
0001
0000
1000
0000
0100
0000
0010
0000
0001
0000
1000
0001
,  // measure 61
1000
0000
1001
0000
0010
0010
1000
0001
,  // measure 62
0000
0000
0001
0000
1000
0000
0100
0000
0010
0000
0001
0000
1000
0000
0010
0100
,  // measure 63
0010
0000
0110
0000
1000
1000
0110
0001
,  // measure 64
0010
0000
0100
0000
1000
0000
0010
0000
1000
0000
0001
0000
0001
0000
1000
0100
,  // measure 65
1000
0000
1010
0000
0100
0100
1001
0010
,  // measure 66
0001
0000
1100
0000
1000
0001
1000
0010
,  // measure 67
0010
0000
0110
0000
0100
0100
1001
0010
,  // measure 68
0001
0000
0000
0000
1100
0000
0001
0000
0000
0000
1000
0000
0010
0000
0100
0001
,  // measure 69
0100
0000
1001
0010
0001
0001
0100
0010
,  // measure 70
0000
0000
1000
0000
0001
0000
0010
0000
0000
0000
0001
0000
1000
0000
0010
0100
,  // measure 71
0010
0000
1001
0100
1000
1000
0011
0100
,  // measure 72
1000
0000
0000
0000
1001
0000
0000
0000
0001
0000
0100
0000
0001
1000
0001
1000
,  // measure 73
0001
0000
0000
0000
,  // measure 74
0000
0000
0000
0000
,  // measure 75
1000
0001
1000
0001
1000
0001
1000
0001
1000
0001
1000
0001
1000
0001
1000
0001
,  // measure 76
1000
0001
1000
0001
1000
0001
1000
0001
1000
0001
1000
0001
1000
0001
1000
0001
,  // measure 77
0010
0000
0000
0000
0000
0010
0000
0000
0000
0000
0000
0000
0000
0000
0000
0000
0000
0000
0000
0000
0000
0000
0000
0000
0000
0000
0000
0000
0000
0000
0000
0000
,  // measure 78
0001
0000
1000
0000
,  // measure 79
0010
0000
0000
0000
0000
0010
0000
0000
0000
0000
0000
0000
0000
0000
0000
0000
0000
0000
0000
0000
0000
0000
0000
0000
0000
0000
0000
0000
0000
0000
0000
0000
;
