#TITLE:bury a friend;
#SUBTITLE:;
#ARTIST:Billie Eilish;
#TITLETRANSLIT:;
#SUBTITLETRANSLIT:;
#ARTISTTRANSLIT:;
#GENRE:Pop;
#CREDIT:;
#BANNER:bn.png;
#BACKGROUND:bg.png;
#LYRICSPATH:;
#CDTITLE:;
#MUSIC:bury a friend.ogg;
#OFFSET:-0.360000;
#SAMPLESTART:41.187996;
#SAMPLELENGTH:13.672000;
#SELECTABLE:YES;
#BPMS:0.000000=120.000000
,80.000000=60.000000
,81.000000=120.000000
,87.000000=60.000000
,88.000000=120.000000
,250.000000=60.000000
,251.000000=120.000000
,257.000000=60.000000
,258.000000=120.000000
;
#STOPS:15.000000=0.500000,
43.500000=2.000000,
49.500000=1.000000,
100.000000=1.500000,
105.000000=1.500000,
110.000000=1.500000,
118.000000=0.250000,
154.000000=1.750000,
160.000000=1.000000,
190.333328=1.000000,
204.333328=1.000000,
243.000000=0.500000,
270.000000=1.500000,
275.000000=1.500000,
280.000000=1.500000,
288.000000=0.250000,
294.500000=0.750000,
317.000000=3.000000
;
#BGCHANGES:0.000=bury a friend.mp4=1.000=1=0=0=StretchNoLoop==CrossFade==,
317.021=bg.png=1.000=1=0=1===CrossFade==,
99999=-nosongbg-=1.000=0=0=0 // don't automatically add -songbackground-
;
#KEYSOUNDS:;
#ATTACKS:TIME=0.000000:LEN=185.000000:MODS=*1000 No Flip, *1000 No Mini:TIME=0.000000:LEN=185.000000:MODS=*6 No Tipsy, *6 No Drunk, *0.5 30% Brake, *3 No Invert:TIME=0.000000:LEN=185.000000:MODS=*1 Blind, *1 2.5x, *1 No Stealth:TIME=0.000000:LEN=7.870000:MODS=*1000 50% Flip, *1000 Tipsy, *1000 Drunk, *1000 Stealth:TIME=7.870000:LEN=2.000000:MODS=*1 No Flip, *2 No Tipsy, *2 No Drunk:TIME=27.620001:LEN=0.500000:MODS=*8 520% Dizzy:TIME=28.120001:LEN=0.500000:MODS=*8 No Dizzy:TIME=79.389999:LEN=0.500000:MODS=*8 No Hidden, *8 No Sudden:TIME=179.869995:LEN=6.000000:MODS=*0.08 25% Alternate, *0.08 25% Invert, *0.08 25% Flip, *0.16 50% Reverse, *0.1 No Tipsy:TIME=116.139999:LEN=0.730000:MODS=*4 -300% Mini, *0.25 25% Flip, *1 50% Stealth, *3 Dark:TIME=40.869999:LEN=14.000000:MODS=*4 No Brake:TIME=7.920000:LEN=14.700000:MODS=*1 30% Tipsy:TIME=24.870001:LEN=16.000000:MODS=*1 30% Drunk:TIME=64.620003:LEN=6.750000:MODS=*1 30% Tipsy:TIME=68.370003:LEN=3.000000:MODS=*1 30% Drunk:TIME=68.370003:LEN=18.250000:MODS=*2 Dark:TIME=71.870003:LEN=7.500000:MODS=*1000 Hidden, *1000 Sudden:TIME=79.370003:LEN=6.000000:MODS=*1 40% Drunk, *1 40% Tipsy:TIME=91.370003:LEN=13.500000:MODS=*2 Dark:TIME=97.209999:LEN=7.670000:MODS=*0.1 Tipsy:TIME=120.870003:LEN=15.000000:MODS=*0.13 0.25x, *0.065 99% Stealth:TIME=168.869995:LEN=11.000000:MODS=*1 60% Tipsy:TIME=106.870003:LEN=0.330000:MODS=*1000 33% Reverse:TIME=107.209999:LEN=0.330000:MODS=*1000 66% Reverse:TIME=107.540001:LEN=3.330000:MODS=*1000 Reverse:TIME=110.870003:LEN=0.330000:MODS=*1000 66% Reverse:TIME=111.209999:LEN=0.330000:MODS=*1000 33% Reverse:TIME=111.540001:LEN=0.020000:MODS=*1000 No Reverse:TIME=114.870003:LEN=0.330000:MODS=*1000 33% Reverse:TIME=115.209999:LEN=0.330000:MODS=*1000 66% Reverse:TIME=115.540001:LEN=3.330000:MODS=*1000 Reverse:TIME=118.870003:LEN=0.330000:MODS=*1000 66% Reverse:TIME=119.209999:LEN=0.330000:MODS=*1000 33% Reverse:TIME=119.540001:LEN=0.020000:MODS=*1000 No Reverse:TIME=24.870001:LEN=0.020000:MODS=*1000 200% Tipsy, *1000 200% Drunk:TIME=32.869999:LEN=0.020000:MODS=*1000 200% Tipsy, *1000 200% Drunk:TIME=40.869999:LEN=0.020000:MODS=*1000 200% Tipsy, *1000 200% Drunk:TIME=88.870003:LEN=0.020000:MODS=*1000 200% Tipsy, *1000 200% Drunk:TIME=96.870003:LEN=0.020000:MODS=*1000 200% Tipsy, *1000 200% Drunk:TIME=104.870003:LEN=0.020000:MODS=*1000 200% Tipsy, *1000 200% Drunk:TIME=108.870003:LEN=0.020000:MODS=*1000 200% Tipsy, *1000 200% Drunk:TIME=112.870003:LEN=0.020000:MODS=*1000 200% Tipsy, *1000 200% Drunk:TIME=116.870003:LEN=0.020000:MODS=*1000 200% Tipsy, *1000 200% Drunk:TIME=136.869995:LEN=0.020000:MODS=*1000 200% Tipsy, *1000 200% Drunk:TIME=14.870000:LEN=0.020000:MODS=*1000 -200% Drunk, *1000 500% Dizzy:TIME=15.370000:LEN=0.020000:MODS=*1000 1x, *1000 No Dizzy, *1000 50% Stealth:TIME=79.370003:LEN=0.020000:MODS=*1000 1x, *1000 50% Stealth:TIME=174.869995:LEN=0.020000:MODS=*1000 -200% Drunk, *1000 500% Dizzy:TIME=175.369995:LEN=0.020000:MODS=*1000 0.5x, *1000 50% Stealth, *1000 No Dizzy:TIME=42.119999:LEN=0.750000:MODS=*1000 No Stealth, *1000 No Alternate, *1000 No Cross:TIME=42.369999:LEN=0.020000:MODS=*1000 50% Stealth, *1000 20% Alternate:TIME=42.410000:LEN=0.020000:MODS=*1000 50% Stealth, *1000 20% Cross:TIME=42.450001:LEN=0.020000:MODS=*1000 50% Stealth, *1000 20% Alternate:TIME=42.490002:LEN=0.020000:MODS=*1000 50% Stealth, *1000 20% Cross:TIME=42.549999:LEN=0.020000:MODS=*1000 50% Stealth, *1000 20% Alternate:TIME=42.630001:LEN=0.020000:MODS=*1000 50% Stealth, *1000 20% Cross:TIME=138.119995:LEN=0.750000:MODS=*1000 No Stealth, *1000 No Alternate, *1000 No Cross:TIME=138.369995:LEN=0.020000:MODS=*1000 50% Stealth, *1000 20% Alternate:TIME=138.410004:LEN=0.020000:MODS=*1000 50% Stealth, *1000 20% Cross:TIME=138.449997:LEN=0.020000:MODS=*1000 50% Stealth, *1000 20% Alternate:TIME=138.490005:LEN=0.020000:MODS=*1000 50% Stealth, *1000 20% Cross:TIME=138.550003:LEN=0.020000:MODS=*1000 50% Stealth, *1000 20% Alternate:TIME=138.630005:LEN=0.020000:MODS=*1000 50% Stealth, *1000 20% Cross:TIME=43.369999:LEN=0.020000:MODS=*1000 50% Invert:TIME=139.369995:LEN=0.020000:MODS=*1000 50% Invert:TIME=22.620001:LEN=1.500000:MODS=*2 Stealth, *2 Dark, *2 -300% Flip:TIME=86.620003:LEN=1.500000:MODS=*2 Stealth, *2 Dark, *2 -300% Flip:TIME=135.869995:LEN=0.400000:MODS=*6 Stealth, *6 Dark:TIME=182.470001:LEN=3.000000:MODS=*2 Dark:TIME=0.000000:LEN=0.000000:MODS=:TIME=40.799999:LEN=13.820000:MODS=*3 2.5x, *6 No Dark, *8 No Dizzy, *8 50% Beat:TIME=43.869999:LEN=0.500000:MODS=*3 0.5x, *6 Dark, *8 400% Dizzy:TIME=47.869999:LEN=0.500000:MODS=*3 4.5x, *6 Dark, *8 400% Dizzy:TIME=51.869999:LEN=0.500000:MODS=*3 0.5x, *6 Dark, *8 400% Dizzy:TIME=136.869995:LEN=13.830000:MODS=*3 2.5x, *6 No Dark, *8 No Dizzy, *8 50% Beat:TIME=139.869995:LEN=0.500000:MODS=*3 0.5x, *6 Dark, *8 400% Dizzy:TIME=143.869995:LEN=0.500000:MODS=*3 4.5x, *6 Dark, *8 400% Dizzy:TIME=147.869995:LEN=0.500000:MODS=*3 0.5x, *6 Dark, *8 400% Dizzy:TIME=45.869999:LEN=0.500000:MODS=*4 75% Flip, *4 75% Invert:TIME=46.369999:LEN=0.500000:MODS=*4 No Flip, *4 No Invert:TIME=141.869995:LEN=0.500000:MODS=*4 75% Flip, *4 75% Invert:TIME=142.369995:LEN=0.500000:MODS=*4 No Flip, *4 No Invert:TIME=0.000000:LEN=0.000000:MODS=:TIME=54.619999:LEN=0.020000:MODS=*1000 20% Flip:TIME=54.660000:LEN=0.020000:MODS=*1000 20% Flip:TIME=54.700001:LEN=0.020000:MODS=*1000 20% Flip:TIME=54.740002:LEN=0.020000:MODS=*1000 20% Flip:TIME=54.779999:LEN=0.020000:MODS=*1000 20% Flip:TIME=54.820000:LEN=0.020000:MODS=*1000 20% Flip:TIME=54.860001:LEN=0.020000:MODS=*1000 20% Flip:TIME=150.619995:LEN=0.020000:MODS=*1000 20% Flip:TIME=150.660004:LEN=0.020000:MODS=*1000 20% Flip:TIME=150.699997:LEN=0.020000:MODS=*1000 20% Flip:TIME=150.740005:LEN=0.020000:MODS=*1000 20% Flip:TIME=150.779999:LEN=0.020000:MODS=*1000 20% Flip:TIME=150.820007:LEN=0.020000:MODS=*1000 20% Flip:TIME=150.860001:LEN=0.020000:MODS=*1000 20% Flip:TIME=176.369995:LEN=4.500000:MODS=*8 No Stealth:TIME=176.869995:LEN=0.020000:MODS=*1000 50% Stealth:TIME=177.039993:LEN=0.020000:MODS=*1000 50% Stealth:TIME=177.210007:LEN=0.020000:MODS=*1000 50% Stealth:TIME=177.369995:LEN=0.020000:MODS=*1000 50% Stealth:TIME=177.539993:LEN=0.020000:MODS=*1000 50% Stealth:TIME=177.710007:LEN=0.020000:MODS=*1000 50% Stealth:TIME=177.869995:LEN=0.020000:MODS=*1000 50% Stealth:TIME=178.039993:LEN=0.020000:MODS=*1000 50% Stealth:TIME=178.210007:LEN=0.020000:MODS=*1000 50% Stealth:TIME=178.369995:LEN=0.020000:MODS=*1000 50% Stealth:TIME=178.539993:LEN=0.020000:MODS=*1000 50% Stealth:TIME=178.710007:LEN=0.020000:MODS=*1000 50% Stealth:TIME=178.869995:LEN=0.020000:MODS=*1000 50% Stealth:TIME=178.039993:LEN=0.020000:MODS=*1000 50% Stealth:TIME=179.039993:LEN=0.020000:MODS=*1000 50% Stealth:TIME=179.210007:LEN=0.020000:MODS=*1000 50% Stealth:TIME=179.369995:LEN=0.020000:MODS=*1000 50% Stealth:TIME=179.539993:LEN=0.020000:MODS=*1000 50% Stealth:TIME=179.710007:LEN=0.020000:MODS=*1000 50% Stealth:TIME=179.869995:LEN=0.020000:MODS=*1000 50% Stealth:TIME=54.869999:LEN=9.500000:MODS=*2 Dark, *0.5 95% Stealth, *1000 No Brake:TIME=55.770000:LEN=1.100000:MODS=*0.8 50% Flip:TIME=56.869999:LEN=0.020000:MODS=*1000 Flip, *1000 50% Drunk:TIME=56.910000:LEN=0.020000:MODS=*1000 Flip, *1000 50% Drunk:TIME=56.950001:LEN=0.020000:MODS=*1000 Flip, *1000 50% Drunk:TIME=56.990002:LEN=0.020000:MODS=*1000 Flip, *1000 50% Drunk:TIME=57.029999:LEN=0.020000:MODS=*1000 Flip, *1000 50% Drunk:TIME=57.070000:LEN=0.020000:MODS=*1000 Flip, *1000 50% Drunk:TIME=57.110001:LEN=0.020000:MODS=*1000 Flip, *1000 50% Drunk:TIME=57.150002:LEN=0.020000:MODS=*1000 Flip, *1000 50% Drunk:TIME=57.189999:LEN=0.020000:MODS=*1000 Flip, *1000 50% Drunk:TIME=57.230000:LEN=0.020000:MODS=*1000 Flip, *1000 50% Drunk:TIME=57.270000:LEN=0.020000:MODS=*1000 Flip, *1000 50% Drunk:TIME=57.310001:LEN=0.020000:MODS=*1000 Flip, *1000 50% Drunk:TIME=57.349998:LEN=0.020000:MODS=*1000 Flip, *1000 50% Drunk:TIME=57.389999:LEN=0.020000:MODS=*1000 Flip, *1000 50% Drunk:TIME=57.430000:LEN=0.020000:MODS=*1000 Flip, *1000 50% Drunk:TIME=57.470001:LEN=0.020000:MODS=*1000 Flip, *1000 50% Drunk:TIME=57.509998:LEN=0.020000:MODS=*1000 Flip, *1000 50% Drunk:TIME=57.549999:LEN=0.020000:MODS=*1000 Flip, *1000 50% Drunk:TIME=57.590000:LEN=0.020000:MODS=*1000 Flip, *1000 50% Drunk:TIME=57.630001:LEN=0.020000:MODS=*1000 Flip, *1000 50% Drunk:TIME=57.669998:LEN=0.020000:MODS=*1000 Flip, *1000 50% Drunk:TIME=57.709999:LEN=0.020000:MODS=*1000 Flip, *1000 50% Drunk:TIME=57.750000:LEN=0.020000:MODS=*1000 Flip, *1000 50% Drunk:TIME=57.790001:LEN=0.020000:MODS=*1000 Flip, *1000 50% Drunk:TIME=57.830002:LEN=0.020000:MODS=*1000 Flip, *1000 50% Drunk:TIME=57.869999:LEN=0.020000:MODS=*1000 Flip, *1000 50% Drunk:TIME=57.910000:LEN=0.020000:MODS=*1000 Flip, *1000 50% Drunk:TIME=57.950001:LEN=0.020000:MODS=*1000 Flip, *1000 50% Drunk:TIME=57.990002:LEN=0.020000:MODS=*1000 Flip, *1000 50% Drunk:TIME=58.029999:LEN=0.020000:MODS=*1000 Flip, *1000 50% Drunk:TIME=58.070000:LEN=0.020000:MODS=*1000 Flip, *1000 50% Drunk:TIME=58.110001:LEN=0.020000:MODS=*1000 Flip, *1000 50% Drunk:TIME=58.150002:LEN=0.020000:MODS=*1000 Flip, *1000 50% Drunk:TIME=58.189999:LEN=0.020000:MODS=*1000 Flip, *1000 50% Drunk:TIME=58.230000:LEN=0.020000:MODS=*1000 Flip, *1000 50% Drunk:TIME=58.270000:LEN=0.020000:MODS=*1000 Flip, *1000 50% Drunk:TIME=58.310001:LEN=0.020000:MODS=*1000 Flip, *1000 50% Drunk:TIME=58.349998:LEN=0.020000:MODS=*1000 Flip, *1000 50% Drunk:TIME=58.389999:LEN=0.020000:MODS=*1000 Flip, *1000 50% Drunk:TIME=58.430000:LEN=0.020000:MODS=*1000 Flip, *1000 50% Drunk:TIME=58.470001:LEN=0.020000:MODS=*1000 Flip, *1000 50% Drunk:TIME=58.509998:LEN=0.020000:MODS=*1000 Flip, *1000 50% Drunk:TIME=58.549999:LEN=0.020000:MODS=*1000 Flip, *1000 50% Drunk:TIME=58.590000:LEN=0.020000:MODS=*1000 Flip, *1000 50% Drunk:TIME=58.630001:LEN=0.020000:MODS=*1000 Flip, *1000 50% Drunk:TIME=58.669998:LEN=0.020000:MODS=*1000 Flip, *1000 50% Drunk:TIME=58.709999:LEN=0.020000:MODS=*1000 Flip, *1000 50% Drunk:TIME=58.750000:LEN=0.020000:MODS=*1000 Flip, *1000 50% Drunk:TIME=58.790001:LEN=0.020000:MODS=*1000 Flip, *1000 50% Drunk:TIME=58.830002:LEN=0.020000:MODS=*1000 Flip, *1000 50% Drunk:TIME=58.869999:LEN=2.000000:MODS=*1000 50% Flip:TIME=60.869999:LEN=0.020000:MODS=*1000 Flip, *1000 50% Drunk:TIME=60.910000:LEN=0.020000:MODS=*1000 Flip, *1000 50% Drunk:TIME=60.950001:LEN=0.020000:MODS=*1000 Flip, *1000 50% Drunk:TIME=60.990002:LEN=0.020000:MODS=*1000 Flip, *1000 50% Drunk:TIME=61.029999:LEN=0.020000:MODS=*1000 Flip, *1000 50% Drunk:TIME=61.070000:LEN=0.020000:MODS=*1000 Flip, *1000 50% Drunk:TIME=61.110001:LEN=0.020000:MODS=*1000 Flip, *1000 50% Drunk:TIME=61.150002:LEN=0.020000:MODS=*1000 Flip, *1000 50% Drunk:TIME=61.189999:LEN=0.020000:MODS=*1000 Flip, *1000 50% Drunk:TIME=61.230000:LEN=0.020000:MODS=*1000 Flip, *1000 50% Drunk:TIME=61.270000:LEN=0.020000:MODS=*1000 Flip, *1000 50% Drunk:TIME=61.310001:LEN=0.020000:MODS=*1000 Flip, *1000 50% Drunk:TIME=61.349998:LEN=0.020000:MODS=*1000 Flip, *1000 50% Drunk:TIME=61.389999:LEN=0.020000:MODS=*1000 Flip, *1000 50% Drunk:TIME=61.430000:LEN=0.020000:MODS=*1000 Flip, *1000 50% Drunk:TIME=61.470001:LEN=0.020000:MODS=*1000 Flip, *1000 50% Drunk:TIME=61.509998:LEN=0.020000:MODS=*1000 Flip, *1000 50% Drunk:TIME=61.549999:LEN=0.020000:MODS=*1000 Flip, *1000 50% Drunk:TIME=61.590000:LEN=0.020000:MODS=*1000 Flip, *1000 50% Drunk:TIME=61.630001:LEN=0.020000:MODS=*1000 Flip, *1000 50% Drunk:TIME=61.669998:LEN=0.020000:MODS=*1000 Flip, *1000 50% Drunk:TIME=61.709999:LEN=0.020000:MODS=*1000 Flip, *1000 50% Drunk:TIME=61.750000:LEN=0.020000:MODS=*1000 Flip, *1000 50% Drunk:TIME=61.790001:LEN=0.020000:MODS=*1000 Flip, *1000 50% Drunk:TIME=61.830002:LEN=0.020000:MODS=*1000 Flip, *1000 50% Drunk:TIME=61.869999:LEN=0.020000:MODS=*1000 Flip, *1000 50% Drunk:TIME=61.910000:LEN=0.020000:MODS=*1000 Flip, *1000 50% Drunk:TIME=61.950001:LEN=0.020000:MODS=*1000 Flip, *1000 50% Drunk:TIME=61.990002:LEN=0.020000:MODS=*1000 Flip, *1000 50% Drunk:TIME=62.029999:LEN=0.020000:MODS=*1000 Flip, *1000 50% Drunk:TIME=62.070000:LEN=0.020000:MODS=*1000 Flip, *1000 50% Drunk:TIME=62.110001:LEN=0.020000:MODS=*1000 Flip, *1000 50% Drunk:TIME=62.150002:LEN=0.020000:MODS=*1000 Flip, *1000 50% Drunk:TIME=62.189999:LEN=0.020000:MODS=*1000 Flip, *1000 50% Drunk:TIME=62.230000:LEN=0.020000:MODS=*1000 Flip, *1000 50% Drunk:TIME=62.270000:LEN=0.020000:MODS=*1000 Flip, *1000 50% Drunk:TIME=62.310001:LEN=0.020000:MODS=*1000 Flip, *1000 50% Drunk:TIME=62.349998:LEN=0.020000:MODS=*1000 Flip, *1000 50% Drunk:TIME=62.389999:LEN=0.020000:MODS=*1000 Flip, *1000 50% Drunk:TIME=62.430000:LEN=0.020000:MODS=*1000 Flip, *1000 50% Drunk:TIME=62.470001:LEN=0.020000:MODS=*1000 Flip, *1000 50% Drunk:TIME=62.509998:LEN=0.020000:MODS=*1000 Flip, *1000 50% Drunk:TIME=62.549999:LEN=0.020000:MODS=*1000 Flip, *1000 50% Drunk:TIME=62.590000:LEN=0.020000:MODS=*1000 Flip, *1000 50% Drunk:TIME=62.630001:LEN=0.020000:MODS=*1000 Flip, *1000 50% Drunk:TIME=62.669998:LEN=0.020000:MODS=*1000 Flip, *1000 50% Drunk:TIME=62.709999:LEN=0.020000:MODS=*1000 Flip, *1000 50% Drunk:TIME=62.750000:LEN=0.020000:MODS=*1000 Flip, *1000 50% Drunk:TIME=62.790001:LEN=0.020000:MODS=*1000 Flip, *1000 50% Drunk:TIME=62.830002:LEN=0.020000:MODS=*1000 Flip, *1000 50% Drunk:TIME=62.869999:LEN=1.000000:MODS=*1000 50% Flip:TIME=63.869999:LEN=1.000000:MODS=*0.6 No Flip, *1 No Stealth:TIME=64.769997:LEN=6.000000:MODS=*1000 No Stealth:TIME=64.870003:LEN=0.020000:MODS=*1000 Flip, *1000 50% Drunk, *1000 90% Stealth:TIME=64.910004:LEN=0.020000:MODS=*1000 Flip, *1000 50% Drunk, *1000 90% Stealth:TIME=64.949997:LEN=0.020000:MODS=*1000 Flip, *1000 50% Drunk, *1000 90% Stealth:TIME=64.989998:LEN=0.020000:MODS=*1000 Flip, *1000 50% Drunk, *1000 90% Stealth:TIME=65.029999:LEN=0.020000:MODS=*1000 Flip, *1000 50% Drunk, *1000 90% Stealth:TIME=65.070000:LEN=0.020000:MODS=*1000 Flip, *1000 50% Drunk, *1000 90% Stealth:TIME=65.110001:LEN=0.020000:MODS=*1000 Flip, *1000 50% Drunk, *1000 90% Stealth:TIME=65.150002:LEN=0.020000:MODS=*1000 Flip, *1000 50% Drunk, *1000 90% Stealth:TIME=65.190002:LEN=0.020000:MODS=*1000 Flip, *1000 50% Drunk, *1000 90% Stealth:TIME=65.230003:LEN=0.020000:MODS=*1000 Flip, *1000 50% Drunk, *1000 90% Stealth:TIME=65.269997:LEN=0.020000:MODS=*1000 Flip, *1000 50% Drunk, *1000 90% Stealth:TIME=65.309998:LEN=0.020000:MODS=*1000 Flip, *1000 50% Drunk, *1000 90% Stealth:TIME=65.349998:LEN=0.020000:MODS=*1000 Flip, *1000 50% Drunk, *1000 90% Stealth:TIME=65.389999:LEN=0.020000:MODS=*1000 Flip, *1000 50% Drunk, *1000 90% Stealth:TIME=65.430000:LEN=0.020000:MODS=*1000 Flip, *1000 50% Drunk, *1000 90% Stealth:TIME=65.470001:LEN=0.020000:MODS=*1000 Flip, *1000 50% Drunk, *1000 90% Stealth:TIME=65.510002:LEN=0.020000:MODS=*1000 Flip, *1000 50% Drunk, *1000 90% Stealth:TIME=65.550003:LEN=0.020000:MODS=*1000 Flip, *1000 50% Drunk, *1000 90% Stealth:TIME=65.589996:LEN=0.020000:MODS=*1000 Flip, *1000 50% Drunk, *1000 90% Stealth:TIME=65.629997:LEN=0.020000:MODS=*1000 Flip, *1000 50% Drunk, *1000 90% Stealth:TIME=65.669998:LEN=0.020000:MODS=*1000 Flip, *1000 50% Drunk, *1000 90% Stealth:TIME=65.709999:LEN=0.020000:MODS=*1000 Flip, *1000 50% Drunk, *1000 90% Stealth:TIME=65.750000:LEN=0.020000:MODS=*1000 Flip, *1000 50% Drunk, *1000 90% Stealth:TIME=65.790001:LEN=0.020000:MODS=*1000 Flip, *1000 50% Drunk, *1000 90% Stealth:TIME=65.830002:LEN=0.020000:MODS=*1000 Flip, *1000 50% Drunk, *1000 90% Stealth:TIME=65.870003:LEN=0.020000:MODS=*1000 Flip, *1000 50% Drunk, *1000 90% Stealth:TIME=65.910004:LEN=0.020000:MODS=*1000 Flip, *1000 50% Drunk, *1000 90% Stealth:TIME=65.949997:LEN=0.020000:MODS=*1000 Flip, *1000 50% Drunk, *1000 90% Stealth:TIME=65.989998:LEN=0.020000:MODS=*1000 Flip, *1000 50% Drunk, *1000 90% Stealth:TIME=66.029999:LEN=0.020000:MODS=*1000 Flip, *1000 50% Drunk, *1000 90% Stealth:TIME=66.070000:LEN=0.020000:MODS=*1000 Flip, *1000 50% Drunk, *1000 90% Stealth:TIME=66.110001:LEN=0.020000:MODS=*1000 Flip, *1000 50% Drunk, *1000 90% Stealth:TIME=66.150002:LEN=0.020000:MODS=*1000 Flip, *1000 50% Drunk, *1000 90% Stealth:TIME=66.190002:LEN=0.020000:MODS=*1000 Flip, *1000 50% Drunk, *1000 90% Stealth:TIME=66.230003:LEN=0.020000:MODS=*1000 Flip, *1000 50% Drunk, *1000 90% Stealth:TIME=66.269997:LEN=0.020000:MODS=*1000 Flip, *1000 50% Drunk, *1000 90% Stealth:TIME=66.309998:LEN=0.020000:MODS=*1000 Flip, *1000 50% Drunk, *1000 90% Stealth:TIME=66.349998:LEN=0.020000:MODS=*1000 Flip, *1000 50% Drunk, *1000 90% Stealth:TIME=66.389999:LEN=0.020000:MODS=*1000 Flip, *1000 50% Drunk, *1000 90% Stealth:TIME=66.430000:LEN=0.020000:MODS=*1000 Flip, *1000 50% Drunk, *1000 90% Stealth:TIME=66.470001:LEN=0.020000:MODS=*1000 Flip, *1000 50% Drunk, *1000 90% Stealth:TIME=66.510002:LEN=0.020000:MODS=*1000 Flip, *1000 50% Drunk, *1000 90% Stealth:TIME=66.550003:LEN=0.020000:MODS=*1000 Flip, *1000 50% Drunk, *1000 90% Stealth:TIME=66.589996:LEN=0.020000:MODS=*1000 Flip, *1000 50% Drunk, *1000 90% Stealth:TIME=66.629997:LEN=0.020000:MODS=*1000 Flip, *1000 50% Drunk, *1000 90% Stealth:TIME=66.669998:LEN=0.020000:MODS=*1000 Flip, *1000 50% Drunk, *1000 90% Stealth:TIME=66.709999:LEN=0.020000:MODS=*1000 Flip, *1000 50% Drunk, *1000 90% Stealth:TIME=66.750000:LEN=0.020000:MODS=*1000 Flip, *1000 50% Drunk, *1000 90% Stealth:TIME=66.790001:LEN=0.020000:MODS=*1000 Flip, *1000 50% Drunk, *1000 90% Stealth:TIME=66.830002:LEN=0.020000:MODS=*1000 Flip, *1000 50% Drunk, *1000 90% Stealth:TIME=68.870003:LEN=0.020000:MODS=*1000 Flip, *1000 50% Drunk, *1000 90% Stealth:TIME=68.910004:LEN=0.020000:MODS=*1000 Flip, *1000 50% Drunk, *1000 90% Stealth:TIME=68.949997:LEN=0.020000:MODS=*1000 Flip, *1000 50% Drunk, *1000 90% Stealth:TIME=68.989998:LEN=0.020000:MODS=*1000 Flip, *1000 50% Drunk, *1000 90% Stealth:TIME=69.029999:LEN=0.020000:MODS=*1000 Flip, *1000 50% Drunk, *1000 90% Stealth:TIME=69.070000:LEN=0.020000:MODS=*1000 Flip, *1000 50% Drunk, *1000 90% Stealth:TIME=69.110001:LEN=0.020000:MODS=*1000 Flip, *1000 50% Drunk, *1000 90% Stealth:TIME=69.150002:LEN=0.020000:MODS=*1000 Flip, *1000 50% Drunk, *1000 90% Stealth:TIME=69.190002:LEN=0.020000:MODS=*1000 Flip, *1000 50% Drunk, *1000 90% Stealth:TIME=69.230003:LEN=0.020000:MODS=*1000 Flip, *1000 50% Drunk, *1000 90% Stealth:TIME=69.269997:LEN=0.020000:MODS=*1000 Flip, *1000 50% Drunk, *1000 90% Stealth:TIME=69.309998:LEN=0.020000:MODS=*1000 Flip, *1000 50% Drunk, *1000 90% Stealth:TIME=69.349998:LEN=0.020000:MODS=*1000 Flip, *1000 50% Drunk, *1000 90% Stealth:TIME=69.389999:LEN=0.020000:MODS=*1000 Flip, *1000 50% Drunk, *1000 90% Stealth:TIME=69.430000:LEN=0.020000:MODS=*1000 Flip, *1000 50% Drunk, *1000 90% Stealth:TIME=69.470001:LEN=0.020000:MODS=*1000 Flip, *1000 50% Drunk, *1000 90% Stealth:TIME=69.510002:LEN=0.020000:MODS=*1000 Flip, *1000 50% Drunk, *1000 90% Stealth:TIME=69.550003:LEN=0.020000:MODS=*1000 Flip, *1000 50% Drunk, *1000 90% Stealth:TIME=69.589996:LEN=0.020000:MODS=*1000 Flip, *1000 50% Drunk, *1000 90% Stealth:TIME=69.629997:LEN=0.020000:MODS=*1000 Flip, *1000 50% Drunk, *1000 90% Stealth:TIME=69.669998:LEN=0.020000:MODS=*1000 Flip, *1000 50% Drunk, *1000 90% Stealth:TIME=69.709999:LEN=0.020000:MODS=*1000 Flip, *1000 50% Drunk, *1000 90% Stealth:TIME=69.750000:LEN=0.020000:MODS=*1000 Flip, *1000 50% Drunk, *1000 90% Stealth:TIME=69.790001:LEN=0.020000:MODS=*1000 Flip, *1000 50% Drunk, *1000 90% Stealth:TIME=69.830002:LEN=0.020000:MODS=*1000 Flip, *1000 50% Drunk, *1000 90% Stealth:TIME=69.870003:LEN=0.020000:MODS=*1000 Flip, *1000 50% Drunk, *1000 90% Stealth:TIME=69.910004:LEN=0.020000:MODS=*1000 Flip, *1000 50% Drunk, *1000 90% Stealth:TIME=69.949997:LEN=0.020000:MODS=*1000 Flip, *1000 50% Drunk, *1000 90% Stealth:TIME=69.989998:LEN=0.020000:MODS=*1000 Flip, *1000 50% Drunk, *1000 90% Stealth:TIME=70.029999:LEN=0.020000:MODS=*1000 Flip, *1000 50% Drunk, *1000 90% Stealth:TIME=70.070000:LEN=0.020000:MODS=*1000 Flip, *1000 50% Drunk, *1000 90% Stealth:TIME=70.110001:LEN=0.020000:MODS=*1000 Flip, *1000 50% Drunk, *1000 90% Stealth:TIME=70.150002:LEN=0.020000:MODS=*1000 Flip, *1000 50% Drunk, *1000 90% Stealth:TIME=70.190002:LEN=0.020000:MODS=*1000 Flip, *1000 50% Drunk, *1000 90% Stealth:TIME=70.230003:LEN=0.020000:MODS=*1000 Flip, *1000 50% Drunk, *1000 90% Stealth:TIME=70.269997:LEN=0.020000:MODS=*1000 Flip, *1000 50% Drunk, *1000 90% Stealth:TIME=70.309998:LEN=0.020000:MODS=*1000 Flip, *1000 50% Drunk, *1000 90% Stealth:TIME=70.349998:LEN=0.020000:MODS=*1000 Flip, *1000 50% Drunk, *1000 90% Stealth:TIME=70.389999:LEN=0.020000:MODS=*1000 Flip, *1000 50% Drunk, *1000 90% Stealth:TIME=70.430000:LEN=0.020000:MODS=*1000 Flip, *1000 50% Drunk, *1000 90% Stealth:TIME=70.470001:LEN=0.020000:MODS=*1000 Flip, *1000 50% Drunk, *1000 90% Stealth:TIME=70.510002:LEN=0.020000:MODS=*1000 Flip, *1000 50% Drunk, *1000 90% Stealth:TIME=70.550003:LEN=0.020000:MODS=*1000 Flip, *1000 50% Drunk, *1000 90% Stealth:TIME=70.589996:LEN=0.020000:MODS=*1000 Flip, *1000 50% Drunk, *1000 90% Stealth:TIME=70.629997:LEN=0.020000:MODS=*1000 Flip, *1000 50% Drunk, *1000 90% Stealth:TIME=70.669998:LEN=0.020000:MODS=*1000 Flip, *1000 50% Drunk, *1000 90% Stealth:TIME=70.709999:LEN=0.020000:MODS=*1000 Flip, *1000 50% Drunk, *1000 90% Stealth:TIME=70.750000:LEN=0.020000:MODS=*1000 Flip, *1000 50% Drunk, *1000 90% Stealth:TIME=70.790001:LEN=0.020000:MODS=*1000 Flip, *1000 50% Drunk, *1000 90% Stealth:TIME=70.830002:LEN=0.020000:MODS=*1000 Flip, *1000 50% Drunk, *1000 90% Stealth:TIME=150.869995:LEN=10.000000:MODS=*2 Dark, *0.5 50% Stealth, *1000 No Brake, *1000 No Mini:TIME=151.770004:LEN=1.100000:MODS=*0.8 50% Flip:TIME=152.869995:LEN=0.020000:MODS=*1000 Flip, *1000 50% Drunk, *1000 -110% Mini:TIME=152.910004:LEN=0.020000:MODS=*1000 Flip, *1000 50% Drunk, *1000 -110% Mini:TIME=152.949997:LEN=0.020000:MODS=*1000 Flip, *1000 50% Drunk, *1000 -110% Mini:TIME=152.990005:LEN=0.020000:MODS=*1000 Flip, *1000 50% Drunk, *1000 -110% Mini:TIME=153.029999:LEN=0.020000:MODS=*1000 Flip, *1000 50% Drunk, *1000 -110% Mini:TIME=153.070007:LEN=0.020000:MODS=*1000 Flip, *1000 50% Drunk, *1000 -110% Mini:TIME=153.110001:LEN=0.020000:MODS=*1000 Flip, *1000 50% Drunk, *1000 -110% Mini:TIME=153.149994:LEN=0.020000:MODS=*1000 Flip, *1000 50% Drunk, *1000 -110% Mini:TIME=153.190002:LEN=0.020000:MODS=*1000 Flip, *1000 50% Drunk, *1000 -110% Mini:TIME=153.229996:LEN=0.020000:MODS=*1000 Flip, *1000 50% Drunk, *1000 -110% Mini:TIME=153.270004:LEN=0.020000:MODS=*1000 Flip, *1000 50% Drunk, *1000 -110% Mini:TIME=153.309998:LEN=0.020000:MODS=*1000 Flip, *1000 50% Drunk, *1000 -110% Mini:TIME=153.350006:LEN=0.020000:MODS=*1000 Flip, *1000 50% Drunk, *1000 -110% Mini:TIME=153.389999:LEN=0.020000:MODS=*1000 Flip, *1000 50% Drunk, *1000 -110% Mini:TIME=153.429993:LEN=0.020000:MODS=*1000 Flip, *1000 50% Drunk, *1000 -110% Mini:TIME=153.470001:LEN=0.020000:MODS=*1000 Flip, *1000 50% Drunk, *1000 -110% Mini:TIME=153.509995:LEN=0.020000:MODS=*1000 Flip, *1000 50% Drunk, *1000 -110% Mini:TIME=153.550003:LEN=0.020000:MODS=*1000 Flip, *1000 50% Drunk, *1000 -110% Mini:TIME=153.589996:LEN=0.020000:MODS=*1000 Flip, *1000 50% Drunk, *1000 -110% Mini:TIME=153.630005:LEN=0.020000:MODS=*1000 Flip, *1000 50% Drunk, *1000 -110% Mini:TIME=153.669998:LEN=0.020000:MODS=*1000 Flip, *1000 50% Drunk, *1000 -110% Mini:TIME=153.710007:LEN=0.020000:MODS=*1000 Flip, *1000 50% Drunk, *1000 -110% Mini:TIME=153.750000:LEN=0.020000:MODS=*1000 Flip, *1000 50% Drunk, *1000 -110% Mini:TIME=153.789993:LEN=0.020000:MODS=*1000 Flip, *1000 50% Drunk, *1000 -110% Mini:TIME=153.830002:LEN=0.020000:MODS=*1000 Flip, *1000 50% Drunk, *1000 -110% Mini:TIME=153.869995:LEN=0.020000:MODS=*1000 Flip, *1000 50% Drunk, *1000 -110% Mini:TIME=153.910004:LEN=0.020000:MODS=*1000 Flip, *1000 50% Drunk, *1000 -110% Mini:TIME=153.949997:LEN=0.020000:MODS=*1000 Flip, *1000 50% Drunk, *1000 -110% Mini:TIME=153.990005:LEN=0.020000:MODS=*1000 Flip, *1000 50% Drunk, *1000 -110% Mini:TIME=154.029999:LEN=0.020000:MODS=*1000 Flip, *1000 50% Drunk, *1000 -110% Mini:TIME=154.070007:LEN=0.020000:MODS=*1000 Flip, *1000 50% Drunk, *1000 -110% Mini:TIME=154.110001:LEN=0.020000:MODS=*1000 Flip, *1000 50% Drunk, *1000 -110% Mini:TIME=154.149994:LEN=0.020000:MODS=*1000 Flip, *1000 50% Drunk, *1000 -110% Mini:TIME=154.190002:LEN=0.020000:MODS=*1000 Flip, *1000 50% Drunk, *1000 -110% Mini:TIME=154.229996:LEN=0.020000:MODS=*1000 Flip, *1000 50% Drunk, *1000 -110% Mini:TIME=154.270004:LEN=0.020000:MODS=*1000 Flip, *1000 50% Drunk, *1000 -110% Mini:TIME=154.309998:LEN=0.020000:MODS=*1000 Flip, *1000 50% Drunk, *1000 -110% Mini:TIME=154.350006:LEN=0.020000:MODS=*1000 Flip, *1000 50% Drunk, *1000 -110% Mini:TIME=154.389999:LEN=0.020000:MODS=*1000 Flip, *1000 50% Drunk, *1000 -110% Mini:TIME=154.429993:LEN=0.020000:MODS=*1000 Flip, *1000 50% Drunk, *1000 -110% Mini:TIME=154.470001:LEN=0.020000:MODS=*1000 Flip, *1000 50% Drunk, *1000 -110% Mini:TIME=154.509995:LEN=0.020000:MODS=*1000 Flip, *1000 50% Drunk, *1000 -110% Mini:TIME=154.550003:LEN=0.020000:MODS=*1000 Flip, *1000 50% Drunk, *1000 -110% Mini:TIME=154.589996:LEN=0.020000:MODS=*1000 Flip, *1000 50% Drunk, *1000 -110% Mini:TIME=154.630005:LEN=0.020000:MODS=*1000 Flip, *1000 50% Drunk, *1000 -110% Mini:TIME=154.669998:LEN=0.020000:MODS=*1000 Flip, *1000 50% Drunk, *1000 -110% Mini:TIME=154.710007:LEN=0.020000:MODS=*1000 Flip, *1000 50% Drunk, *1000 -110% Mini:TIME=154.750000:LEN=0.020000:MODS=*1000 Flip, *1000 50% Drunk, *1000 -110% Mini:TIME=154.789993:LEN=0.020000:MODS=*1000 Flip, *1000 50% Drunk, *1000 -110% Mini:TIME=154.830002:LEN=0.020000:MODS=*1000 Flip, *1000 50% Drunk, *1000 -110% Mini:TIME=154.869995:LEN=2.000000:MODS=*1000 50% Flip:TIME=156.869995:LEN=0.020000:MODS=*1000 Flip, *1000 50% Drunk, *1000 -110% Mini:TIME=156.910004:LEN=0.020000:MODS=*1000 Flip, *1000 50% Drunk, *1000 -110% Mini:TIME=156.949997:LEN=0.020000:MODS=*1000 Flip, *1000 50% Drunk, *1000 -110% Mini:TIME=156.990005:LEN=0.020000:MODS=*1000 Flip, *1000 50% Drunk, *1000 -110% Mini:TIME=157.029999:LEN=0.020000:MODS=*1000 Flip, *1000 50% Drunk, *1000 -110% Mini:TIME=157.070007:LEN=0.020000:MODS=*1000 Flip, *1000 50% Drunk, *1000 -110% Mini:TIME=157.110001:LEN=0.020000:MODS=*1000 Flip, *1000 50% Drunk, *1000 -110% Mini:TIME=157.149994:LEN=0.020000:MODS=*1000 Flip, *1000 50% Drunk, *1000 -110% Mini:TIME=157.190002:LEN=0.020000:MODS=*1000 Flip, *1000 50% Drunk, *1000 -110% Mini:TIME=157.229996:LEN=0.020000:MODS=*1000 Flip, *1000 50% Drunk, *1000 -110% Mini:TIME=157.270004:LEN=0.020000:MODS=*1000 Flip, *1000 50% Drunk, *1000 -110% Mini:TIME=157.309998:LEN=0.020000:MODS=*1000 Flip, *1000 50% Drunk, *1000 -110% Mini:TIME=157.350006:LEN=0.020000:MODS=*1000 Flip, *1000 50% Drunk, *1000 -110% Mini:TIME=157.389999:LEN=0.020000:MODS=*1000 Flip, *1000 50% Drunk, *1000 -110% Mini:TIME=157.429993:LEN=0.020000:MODS=*1000 Flip, *1000 50% Drunk, *1000 -110% Mini:TIME=157.470001:LEN=0.020000:MODS=*1000 Flip, *1000 50% Drunk, *1000 -110% Mini:TIME=157.509995:LEN=0.020000:MODS=*1000 Flip, *1000 50% Drunk, *1000 -110% Mini:TIME=157.550003:LEN=0.020000:MODS=*1000 Flip, *1000 50% Drunk, *1000 -110% Mini:TIME=157.589996:LEN=0.020000:MODS=*1000 Flip, *1000 50% Drunk, *1000 -110% Mini:TIME=157.630005:LEN=0.020000:MODS=*1000 Flip, *1000 50% Drunk, *1000 -110% Mini:TIME=157.669998:LEN=0.020000:MODS=*1000 Flip, *1000 50% Drunk, *1000 -110% Mini:TIME=157.710007:LEN=0.020000:MODS=*1000 Flip, *1000 50% Drunk, *1000 -110% Mini:TIME=157.750000:LEN=0.020000:MODS=*1000 Flip, *1000 50% Drunk, *1000 -110% Mini:TIME=157.789993:LEN=0.020000:MODS=*1000 Flip, *1000 50% Drunk, *1000 -110% Mini:TIME=157.830002:LEN=0.020000:MODS=*1000 Flip, *1000 50% Drunk, *1000 -110% Mini:TIME=157.869995:LEN=0.020000:MODS=*1000 Flip, *1000 50% Drunk, *1000 -110% Mini:TIME=157.910004:LEN=0.020000:MODS=*1000 Flip, *1000 50% Drunk, *1000 -110% Mini:TIME=157.949997:LEN=0.020000:MODS=*1000 Flip, *1000 50% Drunk, *1000 -110% Mini:TIME=157.990005:LEN=0.020000:MODS=*1000 Flip, *1000 50% Drunk, *1000 -110% Mini:TIME=158.029999:LEN=0.020000:MODS=*1000 Flip, *1000 50% Drunk, *1000 -110% Mini:TIME=158.070007:LEN=0.020000:MODS=*1000 Flip, *1000 50% Drunk, *1000 -110% Mini:TIME=158.110001:LEN=0.020000:MODS=*1000 Flip, *1000 50% Drunk, *1000 -110% Mini:TIME=158.149994:LEN=0.020000:MODS=*1000 Flip, *1000 50% Drunk, *1000 -110% Mini:TIME=158.190002:LEN=0.020000:MODS=*1000 Flip, *1000 50% Drunk, *1000 -110% Mini:TIME=158.229996:LEN=0.020000:MODS=*1000 Flip, *1000 50% Drunk, *1000 -110% Mini:TIME=158.270004:LEN=0.020000:MODS=*1000 Flip, *1000 50% Drunk, *1000 -110% Mini:TIME=158.309998:LEN=0.020000:MODS=*1000 Flip, *1000 50% Drunk, *1000 -110% Mini:TIME=158.350006:LEN=0.020000:MODS=*1000 Flip, *1000 50% Drunk, *1000 -110% Mini:TIME=158.389999:LEN=0.020000:MODS=*1000 Flip, *1000 50% Drunk, *1000 -110% Mini:TIME=158.429993:LEN=0.020000:MODS=*1000 Flip, *1000 50% Drunk, *1000 -110% Mini:TIME=158.470001:LEN=0.020000:MODS=*1000 Flip, *1000 50% Drunk, *1000 -110% Mini:TIME=158.509995:LEN=0.020000:MODS=*1000 Flip, *1000 50% Drunk, *1000 -110% Mini:TIME=158.550003:LEN=0.020000:MODS=*1000 Flip, *1000 50% Drunk, *1000 -110% Mini:TIME=158.589996:LEN=0.020000:MODS=*1000 Flip, *1000 50% Drunk, *1000 -110% Mini:TIME=158.630005:LEN=0.020000:MODS=*1000 Flip, *1000 50% Drunk, *1000 -110% Mini:TIME=158.669998:LEN=0.020000:MODS=*1000 Flip, *1000 50% Drunk, *1000 -110% Mini:TIME=158.710007:LEN=0.020000:MODS=*1000 Flip, *1000 50% Drunk, *1000 -110% Mini:TIME=158.750000:LEN=0.020000:MODS=*1000 Flip, *1000 50% Drunk, *1000 -110% Mini:TIME=158.789993:LEN=0.020000:MODS=*1000 Flip, *1000 50% Drunk, *1000 -110% Mini:TIME=158.830002:LEN=0.020000:MODS=*1000 Flip, *1000 50% Drunk, *1000 -110% Mini:TIME=158.869995:LEN=1.000000:MODS=*1000 50% Flip:TIME=159.869995:LEN=1.000000:MODS=*0.6 No Flip, *1 No Stealth:TIME=160.619995:LEN=7.250000:MODS=*2 Dark, *0.5 15% Stealth, *1000 No Brake:TIME=160.869995:LEN=0.020000:MODS=*1000 Flip, *1000 50% Drunk, *1000 -110% Mini:TIME=160.910004:LEN=0.020000:MODS=*1000 Flip, *1000 50% Drunk, *1000 -110% Mini:TIME=160.949997:LEN=0.020000:MODS=*1000 Flip, *1000 50% Drunk, *1000 -110% Mini:TIME=160.990005:LEN=0.020000:MODS=*1000 Flip, *1000 50% Drunk, *1000 -110% Mini:TIME=161.029999:LEN=0.020000:MODS=*1000 Flip, *1000 50% Drunk, *1000 -110% Mini:TIME=161.070007:LEN=0.020000:MODS=*1000 Flip, *1000 50% Drunk, *1000 -110% Mini:TIME=161.110001:LEN=0.020000:MODS=*1000 Flip, *1000 50% Drunk, *1000 -110% Mini:TIME=161.160004:LEN=0.020000:MODS=*1000 Flip, *1000 50% Drunk, *1000 -110% Mini:TIME=161.190002:LEN=0.020000:MODS=*1000 Flip, *1000 50% Drunk, *1000 -110% Mini:TIME=161.229996:LEN=0.020000:MODS=*1000 Flip, *1000 50% Drunk, *1000 -110% Mini:TIME=161.270004:LEN=0.020000:MODS=*1000 Flip, *1000 50% Drunk, *1000 -110% Mini:TIME=161.309998:LEN=0.020000:MODS=*1000 Flip, *1000 50% Drunk, *1000 -110% Mini:TIME=161.350006:LEN=0.020000:MODS=*1000 Flip, *1000 50% Drunk, *1000 -110% Mini:TIME=161.389999:LEN=0.020000:MODS=*1000 Flip, *1000 50% Drunk, *1000 -110% Mini:TIME=161.429993:LEN=0.020000:MODS=*1000 Flip, *1000 50% Drunk, *1000 -110% Mini:TIME=161.470001:LEN=0.020000:MODS=*1000 Flip, *1000 50% Drunk, *1000 -110% Mini:TIME=161.509995:LEN=0.020000:MODS=*1000 Flip, *1000 50% Drunk, *1000 -110% Mini:TIME=161.550003:LEN=0.020000:MODS=*1000 Flip, *1000 50% Drunk, *1000 -110% Mini:TIME=161.589996:LEN=0.020000:MODS=*1000 Flip, *1000 50% Drunk, *1000 -110% Mini:TIME=161.630005:LEN=0.020000:MODS=*1000 Flip, *1000 50% Drunk, *1000 -110% Mini:TIME=161.669998:LEN=0.020000:MODS=*1000 Flip, *1000 50% Drunk, *1000 -110% Mini:TIME=161.710007:LEN=0.020000:MODS=*1000 Flip, *1000 50% Drunk, *1000 -110% Mini:TIME=161.750000:LEN=0.020000:MODS=*1000 Flip, *1000 50% Drunk, *1000 -110% Mini:TIME=161.789993:LEN=0.020000:MODS=*1000 Flip, *1000 50% Drunk, *1000 -110% Mini:TIME=161.830002:LEN=0.020000:MODS=*1000 Flip, *1000 50% Drunk, *1000 -110% Mini:TIME=161.869995:LEN=0.020000:MODS=*1000 Flip, *1000 50% Drunk, *1000 -110% Mini:TIME=161.910004:LEN=0.020000:MODS=*1000 Flip, *1000 50% Drunk, *1000 -110% Mini:TIME=161.949997:LEN=0.020000:MODS=*1000 Flip, *1000 50% Drunk, *1000 -110% Mini:TIME=161.990005:LEN=0.020000:MODS=*1000 Flip, *1000 50% Drunk, *1000 -110% Mini:TIME=162.029999:LEN=0.020000:MODS=*1000 Flip, *1000 50% Drunk, *1000 -110% Mini:TIME=162.070007:LEN=0.020000:MODS=*1000 Flip, *1000 50% Drunk, *1000 -110% Mini:TIME=162.110001:LEN=0.020000:MODS=*1000 Flip, *1000 50% Drunk, *1000 -110% Mini:TIME=162.160004:LEN=0.020000:MODS=*1000 Flip, *1000 50% Drunk, *1000 -110% Mini:TIME=162.190002:LEN=0.020000:MODS=*1000 Flip, *1000 50% Drunk, *1000 -110% Mini:TIME=162.229996:LEN=0.020000:MODS=*1000 Flip, *1000 50% Drunk, *1000 -110% Mini:TIME=162.270004:LEN=0.020000:MODS=*1000 Flip, *1000 50% Drunk, *1000 -110% Mini:TIME=162.309998:LEN=0.020000:MODS=*1000 Flip, *1000 50% Drunk, *1000 -110% Mini:TIME=162.350006:LEN=0.020000:MODS=*1000 Flip, *1000 50% Drunk, *1000 -110% Mini:TIME=162.389999:LEN=0.020000:MODS=*1000 Flip, *1000 50% Drunk, *1000 -110% Mini:TIME=162.429993:LEN=0.020000:MODS=*1000 Flip, *1000 50% Drunk, *1000 -110% Mini:TIME=162.470001:LEN=0.020000:MODS=*1000 Flip, *1000 50% Drunk, *1000 -110% Mini:TIME=162.509995:LEN=0.020000:MODS=*1000 Flip, *1000 50% Drunk, *1000 -110% Mini:TIME=162.550003:LEN=0.020000:MODS=*1000 Flip, *1000 50% Drunk, *1000 -110% Mini:TIME=162.589996:LEN=0.020000:MODS=*1000 Flip, *1000 50% Drunk, *1000 -110% Mini:TIME=162.630005:LEN=0.020000:MODS=*1000 Flip, *1000 50% Drunk, *1000 -110% Mini:TIME=162.669998:LEN=0.020000:MODS=*1000 Flip, *1000 50% Drunk, *1000 -110% Mini:TIME=162.710007:LEN=0.020000:MODS=*1000 Flip, *1000 50% Drunk, *1000 -110% Mini:TIME=162.750000:LEN=0.020000:MODS=*1000 Flip, *1000 50% Drunk, *1000 -110% Mini:TIME=162.789993:LEN=0.020000:MODS=*1000 Flip, *1000 50% Drunk, *1000 -110% Mini:TIME=162.830002:LEN=0.020000:MODS=*1000 Flip, *1000 50% Drunk, *1000 -110% Mini:TIME=164.869995:LEN=0.020000:MODS=*1000 Flip, *1000 50% Drunk, *1000 -110% Mini:TIME=164.910004:LEN=0.020000:MODS=*1000 Flip, *1000 50% Drunk, *1000 -110% Mini:TIME=164.949997:LEN=0.020000:MODS=*1000 Flip, *1000 50% Drunk, *1000 -110% Mini:TIME=164.990005:LEN=0.020000:MODS=*1000 Flip, *1000 50% Drunk, *1000 -110% Mini:TIME=165.029999:LEN=0.020000:MODS=*1000 Flip, *1000 50% Drunk, *1000 -110% Mini:TIME=165.070007:LEN=0.020000:MODS=*1000 Flip, *1000 50% Drunk, *1000 -110% Mini:TIME=165.110001:LEN=0.020000:MODS=*1000 Flip, *1000 50% Drunk, *1000 -110% Mini:TIME=165.149994:LEN=0.020000:MODS=*1000 Flip, *1000 50% Drunk, *1000 -110% Mini:TIME=165.190002:LEN=0.020000:MODS=*1000 Flip, *1000 50% Drunk, *1000 -110% Mini:TIME=165.229996:LEN=0.020000:MODS=*1000 Flip, *1000 50% Drunk, *1000 -110% Mini:TIME=165.270004:LEN=0.020000:MODS=*1000 Flip, *1000 50% Drunk, *1000 -110% Mini:TIME=165.309998:LEN=0.020000:MODS=*1000 Flip, *1000 50% Drunk, *1000 -110% Mini:TIME=165.350006:LEN=0.020000:MODS=*1000 Flip, *1000 50% Drunk, *1000 -110% Mini:TIME=165.389999:LEN=0.020000:MODS=*1000 Flip, *1000 50% Drunk, *1000 -110% Mini:TIME=165.429993:LEN=0.020000:MODS=*1000 Flip, *1000 50% Drunk, *1000 -110% Mini:TIME=165.470001:LEN=0.020000:MODS=*1000 Flip, *1000 50% Drunk, *1000 -110% Mini:TIME=165.509995:LEN=0.020000:MODS=*1000 Flip, *1000 50% Drunk, *1000 -110% Mini:TIME=165.550003:LEN=0.020000:MODS=*1000 Flip, *1000 50% Drunk, *1000 -110% Mini:TIME=165.589996:LEN=0.020000:MODS=*1000 Flip, *1000 50% Drunk, *1000 -110% Mini:TIME=165.630005:LEN=0.020000:MODS=*1000 Flip, *1000 50% Drunk, *1000 -110% Mini:TIME=165.669998:LEN=0.020000:MODS=*1000 Flip, *1000 50% Drunk, *1000 -110% Mini:TIME=165.710007:LEN=0.020000:MODS=*1000 Flip, *1000 50% Drunk, *1000 -110% Mini:TIME=165.750000:LEN=0.020000:MODS=*1000 Flip, *1000 50% Drunk, *1000 -110% Mini:TIME=165.789993:LEN=0.020000:MODS=*1000 Flip, *1000 50% Drunk, *1000 -110% Mini:TIME=165.830002:LEN=0.020000:MODS=*1000 Flip, *1000 50% Drunk, *1000 -110% Mini:TIME=165.869995:LEN=0.020000:MODS=*1000 Flip, *1000 50% Drunk, *1000 -110% Mini:TIME=165.910004:LEN=0.020000:MODS=*1000 Flip, *1000 50% Drunk, *1000 -110% Mini:TIME=165.949997:LEN=0.020000:MODS=*1000 Flip, *1000 50% Drunk, *1000 -110% Mini:TIME=165.990005:LEN=0.020000:MODS=*1000 Flip, *1000 50% Drunk, *1000 -110% Mini:TIME=166.029999:LEN=0.020000:MODS=*1000 Flip, *1000 50% Drunk, *1000 -110% Mini:TIME=166.070007:LEN=0.020000:MODS=*1000 Flip, *1000 50% Drunk, *1000 -110% Mini:TIME=166.110001:LEN=0.020000:MODS=*1000 Flip, *1000 50% Drunk, *1000 -110% Mini:TIME=166.149994:LEN=0.020000:MODS=*1000 Flip, *1000 50% Drunk, *1000 -110% Mini:TIME=166.190002:LEN=0.020000:MODS=*1000 Flip, *1000 50% Drunk, *1000 -110% Mini:TIME=166.229996:LEN=0.020000:MODS=*1000 Flip, *1000 50% Drunk, *1000 -110% Mini:TIME=166.270004:LEN=0.020000:MODS=*1000 Flip, *1000 50% Drunk, *1000 -110% Mini:TIME=166.309998:LEN=0.020000:MODS=*1000 Flip, *1000 50% Drunk, *1000 -110% Mini:TIME=166.350006:LEN=0.020000:MODS=*1000 Flip, *1000 50% Drunk, *1000 -110% Mini:TIME=166.389999:LEN=0.020000:MODS=*1000 Flip, *1000 50% Drunk, *1000 -110% Mini:TIME=166.429993:LEN=0.020000:MODS=*1000 Flip, *1000 50% Drunk, *1000 -110% Mini:TIME=166.470001:LEN=0.020000:MODS=*1000 Flip, *1000 50% Drunk, *1000 -110% Mini:TIME=166.509995:LEN=0.020000:MODS=*1000 Flip, *1000 50% Drunk, *1000 -110% Mini:TIME=166.550003:LEN=0.020000:MODS=*1000 Flip, *1000 50% Drunk, *1000 -110% Mini:TIME=166.589996:LEN=0.020000:MODS=*1000 Flip, *1000 50% Drunk, *1000 -110% Mini:TIME=166.630005:LEN=0.020000:MODS=*1000 Flip, *1000 50% Drunk, *1000 -110% Mini:TIME=166.669998:LEN=0.020000:MODS=*1000 Flip, *1000 50% Drunk, *1000 -110% Mini:TIME=166.710007:LEN=0.020000:MODS=*1000 Flip, *1000 50% Drunk, *1000 -110% Mini:TIME=166.750000:LEN=0.020000:MODS=*1000 Flip, *1000 50% Drunk, *1000 -110% Mini:TIME=166.789993:LEN=0.020000:MODS=*1000 Flip, *1000 50% Drunk, *1000 -110% Mini:TIME=166.830002:LEN=0.020000:MODS=*1000 Flip, *1000 50% Drunk, *1000 -110% Mini;

//---------------dance-single - ----------------
#NOTES:
     dance-single:
     :
     Medium:
     7:
     0.229512,0.365539,0.043275,0.064913,0.148758,297.000000,289.000000,8.000000,12.000000,1.000000,0.000000,0.229512,0.365539,0.043275,0.064913,0.148758,297.000000,289.000000,8.000000,12.000000,1.000000,0.000000:
0000
0000
0000
0000
,
0000
0000
0000
0000
,
0000
0000
0000
0000
,
0000
0000
0000
0000
,
1000
0000
0001
1000
0000
0000
0001
0000
0000
0100
0000
0000
,
0010
0000
0100
0010
0000
0000
1000
0000
0000
0010
0000
0000
,
1000
0000
0001
1000
0000
0000
0010
0000
0000
0100
0000
0000
,
0002
0003
0000
0000
,
0001
0000
1000
0001
0000
0000
1000
0000
0000
0010
0000
0000
,
0100
0000
0010
0100
0000
0000
0001
0000
0000
0100
0000
0000
,
0001
0000
1000
0001
0000
0000
0000
0000
0000
0000
0000
0000
,
0000
1000
0001
0100
,
0001
1000
0001
1000
,
0100
0000
1000
0001
0000
1000
0001
0000
0000
0100
0000
0000
,
0010
1000
0001
1000
,
0001
0000
0100
0010
0000
0100
0010
0000
0000
1000
0000
0000
,
0001
0010
0001
1000
,
0010
0000
1000
0001
0000
0100
0010
0000
0000
1000
0000
0000
,
0001
0100
0010
0000
,
0000
1001
0000
0010
,
0200
0300
0000
0001
,
1000
0000
0000
0020
,
0030
0000
0000
1000
0000
0000
0001
0000
1000
0010
0000
1000
,
0010
0100
0002
1000
,
0003
0000
0000
0100
0000
0000
0010
0000
1000
0001
0000
1000
,
0001
0002
0000
0000
,
0000
0003
2000
0000
,
0000
0000
3000
1000
,
0100
0010
0001
0100
,
0010
0000
0000
0000
0000
0000
1000
0000
0001
0000
0100
0000
0001
0000
0000
1000
0000
0000
0000
0000
0000
0010
0000
0000
,
0000
0100
0000
0001
0000
0010
0000
0100
,
0000
1000
0000
0000
0000
0000
0000
0001
,
0000
0000
0000
1000
0000
0000
0000
0001
,
0000
0000
0000
1000
0000
0000
0000
0001
,
0000
0000
0000
1000
0000
0000
0000
0001
,
0000
0000
0000
1000
0000
0010
0000
0100
,
0000
0000
0000
0001
0000
0000
0000
1000
0000
0100
0000
0000
0000
1000
0000
0100
0000
0000
0000
0000
0000
0010
0000
0000
,
0000
0000
0000
0001
0000
0000
0000
0100
0000
0010
0000
0000
0000
0100
0000
0010
0000
0000
0000
0000
0000
1000
0000
0000
,
0000
0000
0000
0000
,
1000
0100
0001
0100
,
1000
0001
0100
1000
,
0100
0000
0000
0001
0000
0000
1000
0000
0000
0001
1000
0001
,
1000
0001
1000
0001
0000
0000
0100
0000
0000
1000
0000
0000
,
0100
0001
1000
0100
,
0010
0001
1000
0100
,
0001
0100
1000
0001
,
0100
0000
0001
0100
,
0010
0000
0000
1001
0000
1001
0000
1001
0000
0000
0000
0000
,
1000
0000
0000
0100
0000
0000
0010
0000
0000
0001
0000
0001
,
0000
0001
0000
0000
0000
0000
0000
0000
0000
0000
0000
0000
,
1000
0000
0000
0010
0000
0000
0100
0000
0000
1001
0000
1001
,
0000
1001
0000
0000
0000
0000
0001
0000
0000
0010
0000
0000
,
0100
0000
0000
1000
0000
1000
0000
1000
0000
0000
0000
0000
,
0000
0001
0001
0001
,
0001
0100
0100
0100
,
0100
0010
0010
0010
,
0010
1000
1000
1000
,
1000
0010
0010
0010
,
0010
0000
1000
0001
0000
1000
0001
0000
1000
0001
0000
1000
,
0001
0000
0100
0010
0000
0100
0010
0000
0100
0010
0000
0100
,
0010
0000
1000
0001
0000
1000
0001
0000
0000
0000
0000
0000
,
0000
0000
0000
1001
,
0000
0010
0200
0300
,
0000
0001
1000
0000
,
0000
0020
0030
1000
,
0001
0000
1000
0010
0000
1000
0010
0000
0000
0100
0000
0000
,
0002
1000
0003
0100
,
0010
0000
1000
0001
0000
1000
0001
0000
0000
0002
0000
0000
,
0000
0000
0000
0003
,
2000
0000
0000
0000
,
3000
1000
0100
0010
,
0001
0000
0000
0100
0000
0000
0010
0000
0000
1000
0001
0100
,
0001
1000
0000
0010
0000
0100
0000
0001
,
0000
0000
0000
1000
0000
0000
0000
0000
0000
0100
0000
0000
0000
0000
0000
0010
0000
0000
0001
0000
0000
0000
1000
0000
,
0001
0000
0000
1000
0000
0000
0010
0000
0000
0100
0000
0010
,
0100
0000
0000
0001
0000
0000
0100
0000
0000
0001
0000
1000
,
0001
0100
0010
2000
,
3000
0000
0000
0000
0000
0000
0000
0000
0000
1000
0000
0001
,
1000
0000
0000
0001
0000
0000
0100
0000
0000
0010
0000
0100
,
0010
1000
000M
0000
;

//---------------dance-single - ----------------
#NOTES:
     dance-single:
     :
     Easy:
     5:
     0.170782,0.215023,0.000000,0.075731,0.000000,221.000000,221.000000,0.000000,14.000000,1.000000,0.000000,0.170782,0.215023,0.000000,0.075731,0.000000,221.000000,221.000000,0.000000,14.000000,1.000000,0.000000:
0000
0000
0000
0000
,
0000
0000
0000
0000
,
0000
0000
0000
0000
,
0000
0000
0000
0000
,
1000
1000
0001
0100
,
0010
0010
1000
0010
,
1000
1000
0010
0100
,
0002
0003
0000
0000
,
0001
0001
1000
0010
,
0100
0100
0001
0100
,
0001
0001
0000
0000
,
0000
1000
0001
0100
,
0001
1000
0001
1000
,
0100
0010
0001
0100
,
0010
1000
0001
1000
,
0001
0010
0100
1000
,
0001
0010
0001
1000
,
0010
0100
0010
1000
,
0001
0100
0010
0000
,
0000
1000
0000
0010
,
0200
0300
0000
0001
,
0001
0000
0000
0020
,
0030
1000
0001
0010
,
0010
0100
2000
0000
,
3000
0001
0100
0001
,
0001
0002
0000
0000
,
0000
0000
0000
0000
,
0000
0000
0003
1000
,
0001
1000
0001
1000
,
0001
0000
1000
0000
0001
0100
0000
0010
,
0000
0100
0000
0010
0000
0100
0000
0010
,
0000
0100
0000
0000
0000
0000
0000
0001
,
0000
0000
0000
0001
0000
0000
0000
0001
,
0000
0000
0000
0001
0000
0000
0000
0001
,
0000
0000
0000
0001
0000
0000
0000
0001
,
0000
0000
0000
1000
0000
0010
0000
0100
,
0000
0001
0000
0100
0000
0001
0000
0010
,
0000
0001
0000
0010
0000
0100
0000
1000
,
0000
0000
0000
0000
,
1000
0100
0010
0100
,
1000
0001
0100
0010
,
0100
0001
1000
0001
,
0000
0001
0100
0010
,
0100
0001
1000
0100
,
0010
0001
1000
0100
,
0010
0100
1000
0001
,
0100
0000
0001
0100
,
0010
0000
0000
2000
0000
0000
0000
3000
0000
0000
0000
0000
,
1000
0100
0010
0002
,
0000
0003
0000
0000
0000
0000
0000
0000
0000
0000
0000
0000
,
1000
0010
0100
0002
,
0000
0003
0000
0000
0000
0000
0001
0000
0000
0010
0000
0000
,
0100
0000
0000
2000
0000
0000
0000
3000
0000
0000
0000
0000
,
0000
0001
0000
0001
,
0000
0100
0000
0100
,
0000
0010
0000
0010
,
0000
1000
0000
1000
,
0000
0010
0010
0010
,
0010
1000
1000
1000
,
1000
0001
0001
0001
,
0001
0100
0100
0000
,
0000
0000
0000
0001
,
0000
0010
0200
0300
,
0000
1000
1000
0000
,
0000
0020
0030
1000
,
0001
0010
0010
0100
,
2000
0000
3000
0001
,
0010
0001
0001
0002
,
0000
0000
0000
0000
,
0000
0000
0000
0000
,
0003
1000
0100
0010
,
0001
0100
0010
1000
,
0001
1000
0000
0010
0000
0100
0000
0001
,
0000
1000
0000
0100
0000
0010
0001
0000
,
0001
1000
0010
0100
,
0100
0001
0100
0001
,
0001
0100
0010
2000
,
3000
0000
0000
1000
,
1000
0001
0100
0010
,
0010
1000
000M
0000
;

//---------------dance-single - ----------------
#NOTES:
     dance-single:
     :
     Beginner:
     2:
     0.090414,0.107511,0.000000,0.000000,0.000000,117.000000,117.000000,0.000000,0.000000,13.000000,0.000000,0.090414,0.107511,0.000000,0.000000,0.000000,117.000000,117.000000,0.000000,0.000000,13.000000,0.000000:
0000
0000
0000
0000
,
0000
0000
0000
0000
,
0000
0000
0000
0000
,
0000
0000
0000
0000
,
1000
0000
1000
0000
,
0001
0000
0001
0000
,
1000
0000
1000
0000
,
0001
0000
0000
0000
,
0001
0000
0001
0000
,
1000
0000
1000
0000
,
0001
0000
0001
0000
,
0000
1000
0000
1000
,
0000
1000
0000
0001
,
0000
0001
0000
0001
,
0000
0001
0000
0100
,
0000
0100
0000
0100
,
0000
0100
0000
0010
,
0000
0010
0000
0010
,
0000
0010
0000
1000
,
0000
0001
0000
1000
,
0000
0000
0001
0000
,
0000
0000
1000
0000
,
0000
0001
0000
0001
,
0000
1000
0000
0000
,
0000
0010
0000
0010
,
0000
0M00
0000
0M00
,
0000
0M00
0M00
0000
,
0M00
0000
0M00
0000
,
1000
0000
1000
0000
,
1000
0000
0000
0000
1000
0000
0000
0001
,
0000
0000
0000
0001
0000
0000
0000
0001
,
0000
0000
0000
0000
0000
0000
0000
1000
,
0000
0000
0000
0000
0000
0000
0000
1000
,
0000
0000
0000
0000
0000
0000
0000
1000
,
0000
0000
0000
0000
0000
0000
0000
1000
,
0000
0000
0000
0001
0000
0000
0000
0001
,
0000
0000
0000
0100
0000
0000
0000
0100
,
0000
0000
0000
0010
0000
0000
0000
0010
,
0000
0000
0000
0000
,
1000
0000
1000
0000
,
1000
0000
0001
0000
,
0001
0000
0001
0000
,
0001
0000
0100
0000
,
0100
0000
0100
0000
,
0100
0000
0010
0000
,
0010
0000
0010
0000
,
0010
0000
1000
0000
,
0001
0000
0000
0000
,
1000
0000
0001
0000
,
0000
0000
0000
0000
,
1000
0000
0001
0000
,
0000
0000
1000
0000
,
0001
0000
0000
0000
,
0000
1000
0000
1000
,
0000
0100
0000
0100
,
0000
0010
0000
0010
,
0000
0001
0000
0001
,
0000
1000
0000
0000
,
0000
0001
0000
0000
,
0000
0100
0000
0000
,
0000
0010
0000
0000
,
0000
1000
0000
0001
,
0000
1000
0000
0000
,
0001
0000
0000
0000
,
1000
0000
0000
0001
,
0000
0001
0000
1000
,
0000
0000
0000
0010
,
0000
0010
0000
0M00
,
0000
0M00
0000
0M00
,
0M00
0000
0M00
0000
,
0M00
0000
1000
0000
,
1000
0000
1000
0000
,
1000
0000
0000
0001
0000
0000
0000
0001
,
0000
0000
0000
0001
0000
0000
0000
0000
,
1000
0000
1000
0000
,
0001
0000
0001
0000
,
1000
0000
1000
0000
,
0001
0000
0000
0000
,
1000
0000
0010
0000
,
0100
0000
000M
0000
;

//---------------dance-single - ----------------
#NOTES:
     dance-single:
     :
     Hard:
     13:
     0.418068,0.559060,0.081141,0.075731,0.708629,541.000000,526.000000,15.000000,14.000000,1.000000,0.000000,0.418068,0.559060,0.081141,0.075731,0.708629,541.000000,526.000000,15.000000,14.000000,1.000000,0.000000:
// measure 0
0000
0000
0000
0000
,  // measure 1
0000
0000
0000
0000
,  // measure 2
0000
0000
0000
0000
,  // measure 3
0000
0000
0000
0000
,  // measure 4
0001
0000
0001
0100
0000
0100
0010
0000
0010
0100
0000
0100
,  // measure 5
0010
0000
0010
1000
0000
1000
0001
0100
0010
0100
0010
0100
,  // measure 6
0001
0000
0001
0010
0000
0010
0100
0000
0100
1000
0000
1000
,  // measure 7
0002
0000
0000
1003
0000
0000
0010
0100
0010
0100
0010
0100
,  // measure 8
0001
0000
0001
1000
0000
1000
0100
0000
0100
0010
0000
0010
,  // measure 9
0001
0000
0001
0100
0000
0100
0001
1000
0100
1000
0100
1000
,  // measure 10
0001
0000
0001
0100
0000
0100
0000
0000
0000
0000
0000
0000
,  // measure 11
1001
0000
0001
1000
0000
1000
0010
0000
0010
0100
0000
0100
,  // measure 12
0001
0000
0001
1000
0000
0000
0001
0000
0001
0010
0000
0010
,  // measure 13
0100
0000
0100
1000
0000
1000
0001
0000
0001
0100
0000
0100
,  // measure 14
0010
1000
0010
1000
0010
1000
0001
0000
0001
0100
0000
0100
,  // measure 15
0001
0000
0001
0010
0000
0010
0100
0000
0100
1000
0000
1000
,  // measure 16
0001
0100
0010
0100
0010
0100
0001
0000
0001
1000
0000
1000
,  // measure 17
0100
0000
0100
1000
0000
1000
0001
0000
0001
0100
0000
0100
,  // measure 18
0001
0010
0001
0010
0001
0010
0100
0000
0000
0100
0000
0000
,  // measure 19
1000
1000
0001
0001
,  // measure 20
0200
0310
0010
1000
,  // measure 21
1000
0001
0001
0020
,  // measure 22
0130
0000
0000
0100
0000
0000
1000
0000
0001
0100
0000
0010
,  // measure 23
0100
0000
0000
0001
0000
0000
0020
0000
0000
0130
0000
0100
,  // measure 24
1000
0000
1000
0001
0000
0001
0010
0000
0010
0200
0000
1000
,  // measure 25
0300
2000
0000
0000
,  // measure 26
0000
3000
0002
0000
,  // measure 27
0000
0000
0000
0000
0000
0000
0003
0000
0000
1000
0000
1000
,  // measure 28
0100
0000
0100
0010
0000
0010
0001
0000
0001
0100
0000
0100
,  // measure 29
0010
0000
0000
0000
0010
0000
1000
0000
0001
0000
0100
0000
0001
0000
0000
1000
0000
0000
0000
1000
0000
0100
0000
0000
,  // measure 30
0000
0100
0000
0010
0000
0000
0000
0010
0000
0001
0000
0000
0000
0001
0000
0100
0000
0000
0000
0100
0000
0010
0000
0000
,  // measure 31
0000
0000
0000
0000
0000
0000
0000
0101
,  // measure 32
0000
0000
0000
1100
0000
0000
0000
1010
,  // measure 33
0000
0000
0000
0011
0000
0000
0000
0101
,  // measure 34
0000
0000
0000
1100
0000
0000
0000
1001
,  // measure 35
0000
0000
0000
0000
0000
0000
0000
0000
0000
0110
0000
0000
0000
0000
0000
0001
0000
0000
0000
0001
0000
0100
0000
0000
,  // measure 36
0000
0100
0000
0001
0000
0000
0000
0001
0000
1000
0000
0000
0000
1000
0000
0100
0000
0000
0000
0100
0000
1000
0000
0000
,  // measure 37
0000
1000
0000
0010
0000
0000
0000
0010
0000
0100
0000
0000
0000
0100
0000
0010
0000
0000
0000
0010
0000
1000
0000
0000
,  // measure 38
0000
0000
0000
0000
0000
0000
0000
0000
0000
1000
0100
0010
,  // measure 39
0001
0100
0010
1000
0010
0100
0001
1000
0001
0010
0100
1000
,  // measure 40
0001
0000
0100
0010
1000
0001
0100
0001
1000
0010
0100
0001
,  // measure 41
0010
0100
0010
0001
1000
0100
0010
0001
1000
0010
0100
0010
,  // measure 42
0100
0010
0100
0010
0000
0100
0001
0010
0001
1000
0100
0010
,  // measure 43
0100
1000
0001
0100
0001
1000
0010
0100
0001
0100
0010
1000
,  // measure 44
0010
1000
0010
0100
0001
0010
0100
0010
0001
1000
0100
1000
,  // measure 45
0001
0010
0100
1000
0001
0010
0100
0010
0001
0100
0010
0100
,  // measure 46
0010
0100
0010
1000
0010
1000
0001
0010
0001
1000
0010
1000
,  // measure 47
0001
0010
0001
0011
0000
0011
0000
0011
0000
1000
0100
1000
,  // measure 48
0001
0100
0001
1000
0100
1000
0001
0100
0001
1000
0000
1000
,  // measure 49
0000
1000
0000
0000
1000
0001
1000
0001
1000
0001
0100
0001
,  // measure 50
1000
0010
1000
0001
0100
0001
1000
0010
1000
1010
0000
1010
,  // measure 51
0000
1010
0000
1000
0001
1000
0010
0100
0010
1000
0001
1000
,  // measure 52
0010
0100
0010
0100
0000
0100
0000
0100
0000
0001
0010
0100
,  // measure 53
0010
0100
0010
0001
0000
0000
0001
0000
0000
0001
0000
0000
,  // measure 54
0001
0100
0100
0100
,  // measure 55
0100
0010
0010
0010
,  // measure 56
0010
1000
1000
1000
,  // measure 57
1000
0000
0001
0010
0000
1000
0010
0000
0001
0010
0000
1000
,  // measure 58
0010
0000
0001
0100
0000
1000
0100
0000
0001
0100
0000
1000
,  // measure 59
0100
0000
0001
0010
0000
1000
0010
0000
0001
0100
0000
1000
,  // measure 60
0100
0000
0001
1000
0000
0001
1000
0000
0000
0000
0000
0000
,  // measure 61
1000
1000
0010
0010
,  // measure 62
0100
0100
0020
1030
,  // measure 63
1000
0001
0001
1000
,  // measure 64
1000
0200
0310
0010
,  // measure 65
0001
0000
1000
0010
0000
0100
0010
0000
0000
1000
0000
0000
,  // measure 66
0200
0000
0000
0310
0000
0010
0001
0000
0001
1000
0000
1000
,  // measure 67
0100
0000
0100
0020
0000
0001
0030
0000
0000
0002
0000
0000
,  // measure 68
0000
0000
0000
0003
,  // measure 69
2000
0000
0000
0000
,  // measure 70
3000
0000
0000
0001
0000
0001
0010
0000
0010
0100
0000
0100
,  // measure 71
1000
0000
1000
0010
0000
0010
0100
0000
0100
0001
1000
0010
,  // measure 72
1000
0000
0000
0001
0000
0000
0000
0001
0000
0010
0000
0000
0000
0010
0000
0100
0000
0000
0000
0100
0000
1000
0000
0000
,  // measure 73
0000
1000
0000
0010
0000
0000
0000
0010
0000
0100
0000
0000
0000
0000
0000
0000
0000
0000
0001
0000
0000
0000
0001
0000
,  // measure 74
0010
0000
0010
0100
0000
0100
1000
0000
1000
0001
0000
0001
,  // measure 75
0100
0000
0100
0010
0000
0010
1000
0000
1000
0100
0000
0100
,  // measure 76
0010
0000
0010
0001
0000
0001
1000
0000
1000
0200
0000
0000
,  // measure 77
1300
0000
0000
0100
1000
0001
1000
0001
1000
0001
0100
0010
,  // measure 78
1000
0010
0100
0001
0010
0100
1000
0100
0010
0001
1000
0010
,  // measure 79
0100
0001
0100
0010
0000
0000
M000
0000
0000
0000
0000
0000
;
