#TITLE:You Need To Calm Down;
#SUBTITLE:;
#ARTIST:Taylor Swift;
#TITLETRANSLIT:;
#SUBTITLETRANSLIT:;
#ARTISTTRANSLIT:;
#GENRE:Pop;
#CREDIT:;
#BANNER:bn.png;
#BACKGROUND:bg.png;
#LYRICSPATH:;
#CDTITLE:;
#MUSIC:You Need To Calm Down.ogg;
#OFFSET:0.529000;
#SAMPLESTART:45.301353;
#SAMPLELENGTH:22.588234;
#SELECTABLE:YES;
#BPMS:0.000000=85.000000
;
#STOPS:
;
#BGCHANGES:0.750=You Need To Calm Down.mp4=1.000=1=0=0=StretchNoLoop==CrossFade==,
193.000=bg.png=1.000=1=0=1===CrossFade==,
99999=-nosongbg-=1.000=0=0=0 // don't automatically add -songbackground-
;
#KEYSOUNDS:;
#ATTACKS:;

//---------------dance-single - ----------------
#NOTES:
     dance-single:
     :
     Hard:
     11:
     0.463621,0.578416,0.014456,0.050596,0.737250,449.000000,447.000000,2.000000,7.000000,36.000000,0.000000,0.463621,0.578416,0.014456,0.050596,0.737250,449.000000,447.000000,2.000000,7.000000,36.000000,0.000000:
// measure 0
0000
0000
0000
0000
,  // measure 1
0000
0000
0000
0000
,  // measure 2
0000
0000
0000
0000
,  // measure 3
0000
0000
0000
0000
,  // measure 4
0000
0000
0000
0000
1000
0001
1000
0001
0100
0000
0010
1000
0010
1000
0000
0000
,  // measure 5
0001
0000
1000
0010
0100
0010
0100
0001
0010
0000
0001
0010
0100
1000
0000
0010
,  // measure 6
0100
0010
1000
0001
0100
0000
0000
0001
0100
0000
0001
0000
1000
0000
0000
0001
,  // measure 7
0010
0001
0010
0100
1000
0000
0000
0100
1000
0000
0100
0000
0010
0000
0000
0000
,  // measure 8
0001
0100
0100
0100
0001
1000
0001
1000
0100
0000
0010
0001
0010
0001
0000
0000
,  // measure 9
1000
0000
0001
0100
0010
0100
0010
1000
0100
0000
1000
0100
0010
0001
0000
0100
,  // measure 10
0010
0100
0001
1000
0010
0000
0000
1000
0010
0000
1000
0000
0001
0000
0000
0000
,  // measure 11
1000
0010
1000
0001
0100
0000
0000
0001
0100
0000
0001
0000
1000
0000
0000
0000
,  // measure 12
0001
0010
0010
0010
0001
1000
0100
0010
0001
0100
0010
1000
0010
0100
0001
1000
,  // measure 13
0001
0100
0001
0010
0100
1000
0001
0100
0010
1000
0100
1000
0010
0100
0001
1000
,  // measure 14
0100
0010
0001
1000
0100
0000
0000
1000
0100
0000
1000
0000
0001
0000
0000
0000
,  // measure 15
1000
0000
0000
0001
0010
0000
0000
0010
0010
0000
0010
0000
0000
0010
0010
0000
,  // measure 16
0110
0000
1000
0000
0001
0100
000M
0M00
1000
0100
M000
0M00
0001
0100
000M
0M00
,  // measure 17
1000
0100
M000
0M00
0001
0200
000M
0000
0010
0000
0000
0000
0300
0000
0000
1000
,  // measure 18
0001
0010
0100
1000
0100
0000
0000
1000
0100
0000
1000
0000
0001
0000
0000
1000
,  // measure 19
0001
1000
0010
0100
0001
0000
0000
0100
0001
0000
0100
0000
0010
0000
0000
1000
,  // measure 20
0001
0010
0100
1000
0001
0100
000M
0M00
1000
0100
M000
0M00
0001
0100
000M
0M00
,  // measure 21
1000
0100
M000
0M00
0001
0200
000M
0000
0010
0000
0000
0000
0300
0000
0000
1000
,  // measure 22
0001
0010
0100
1000
0100
0000
0000
1000
0100
0000
1000
0000
0001
0000
0000
1000
,  // measure 23
0001
1000
0010
0100
0001
0000
0000
0100
0001
1000
0100
0000
0010
0000
0000
0010
,  // measure 24
0001
0010
0100
1000
0100
0000
0000
1000
0100
0000
1000
0000
0001
0000
0000
0000
,  // measure 25
1000
0000
0000
0001
0100
0000
0000
0001
0100
0000
0001
0000
1000
0000
0000
0000
,  // measure 26
0001
0000
0000
1000
0010
0000
0000
1000
0010
0000
1000
0000
0001
0000
0000
0000
,  // measure 27
1000
0000
0000
0001
0010
0000
0000
0001
0010
0000
0001
0000
1000
0000
0000
0000
,  // measure 28
0001
0010
0100
1000
0001
1000
0001
1000
0010
0000
0100
0001
0100
0001
0000
0000
,  // measure 29
1000
0000
0001
0100
0010
0100
0010
1000
0100
0000
1000
0100
0010
0001
0000
0000
,  // measure 30
0010
0000
0001
1000
0010
0000
0000
1000
0010
0000
1000
0000
0001
0000
0000
1000
,  // measure 31
0100
1000
0100
0010
0001
0000
0000
0010
0001
0100
0010
0000
2000
0000
0000
0000
,  // measure 32
0002
0000
3003
0000
1000
0001
1000
0001
0010
0000
0100
1000
0100
1000
0000
0000
,  // measure 33
0001
0000
0000
0000
0100
0010
0100
0001
0010
0000
0001
0010
0100
1000
0000
0010
,  // measure 34
0100
0010
1000
0001
0100
0000
0000
0001
0100
0000
0001
0000
1000
0000
0010
1000
,  // measure 35
0001
0100
0001
1000
0010
0000
0000
1000
0010
0000
1000
0000
0001
1000
0000
0001
,  // measure 36
0100
0001
0010
0001
1000
0001
0010
0100
1000
0010
0100
0001
0100
0010
1000
0001
,  // measure 37
1000
0010
1000
0100
0010
0001
1000
0010
0100
0001
0010
0001
0100
0010
1000
0001
,  // measure 38
0010
0100
1000
0001
0010
0000
0000
0001
0010
0000
0001
0000
1000
0000
0000
0000
,  // measure 39
0001
0000
0000
1000
0100
0000
0000
0100
0100
0000
0100
0000
0000
0100
0100
0000
,  // measure 40
0110
0000
0001
0000
1000
0010
M000
00M0
0001
0010
000M
00M0
1000
0010
M000
00M0
,  // measure 41
0001
0010
000M
00M0
1000
0020
M000
0000
0100
0000
0000
0000
0030
0000
0000
0001
,  // measure 42
1000
0100
0010
0001
0010
0000
0000
0001
0010
0000
0001
0000
1000
0000
0000
0001
,  // measure 43
1000
0001
0100
0010
1000
0000
0000
0010
1000
0000
0010
0000
0100
0000
0000
0001
,  // measure 44
1000
0100
0010
0001
1000
0010
M000
00M0
0001
0010
000M
00M0
1000
0010
M000
00M0
,  // measure 45
0001
0010
000M
00M0
1000
0020
M000
0000
0100
0000
0000
0000
0030
0000
0000
0001
,  // measure 46
1000
0100
0010
0001
0010
0000
0000
0001
0010
0000
0001
0000
1000
0000
0000
0001
,  // measure 47
1000
0001
0100
0010
1000
0000
0000
0010
1000
0001
0010
0000
0100
0000
0000
0100
,  // measure 48
1000
0100
0010
0001
2000
0000
0000
0000
3000
0000
0000
0000
0000
0000
0000
0000
;

//---------------dance-single - ----------------
#NOTES:
     dance-single:
     :
     Medium:
     7:
     0.284987,0.313873,0.000000,0.057824,0.137331,276.000000,276.000000,0.000000,8.000000,0.000000,0.000000,0.284987,0.313873,0.000000,0.057824,0.137331,276.000000,276.000000,0.000000,8.000000,0.000000,0.000000:
0000
0000
0000
0000
,
0000
0000
0000
0000
,
0000
0000
0000
0000
,
0000
0000
0000
0000
,
0000
0000
1000
0100
0010
0001
2000
0000
,
3010
0000
1000
0001
0010
0100
2000
0000
,
3001
0100
0001
0000
0100
0000
0010
0000
,
1000
0100
1000
0000
0010
0000
0100
0000
,
0001
0000
0001
0010
0100
1000
0020
0000
,
0130
0000
0001
1000
0100
0010
0002
0000
,
1003
0100
1000
0000
0010
0000
0100
0000
,
0001
0100
0001
0000
0100
0000
0010
0000
,
1000
0000
1000
0100
0010
0001
0100
0010
,
1000
0010
0100
0001
0010
0100
1000
0010
,
0100
0001
1000
0000
0010
0000
0100
0000
,
0001
0000
0000
0000
1000
0000
0000
0001
1000
0000
0010
0000
0000
1000
0001
0000
,
0100
0000
0000
0000
0001
0100
0000
0000
1000
0100
0000
0000
0001
0100
0000
0000
,
1000
0100
0000
0000
0001
0100
0000
0000
0010
0000
0000
0000
1000
0000
0000
0000
,
0001
0100
0001
0100
0001
0000
0000
0000
0100
0000
0000
0000
0010
0000
0000
0000
,
1000
0100
1000
0000
0010
0000
0100
0000
,
0001
0000
1000
0000
0001
0100
0000
0000
1000
0100
0000
0000
0001
0100
0000
0000
,
1000
0100
0000
0000
0001
0100
0000
0000
0010
0000
0000
0000
1000
0000
0000
0000
,
0001
0010
0001
0010
0001
0000
0000
0000
0100
0000
0000
0000
0010
0000
0000
0000
,
1000
0001
1000
0000
0010
0100
0001
0000
,
1000
0001
1000
0001
1000
0000
0000
0000
0001
0000
0100
0000
0001
0000
0000
0000
,
0010
0000
0001
0000
1000
0100
1000
0000
,
0010
0000
1000
0000
0001
0010
0001
0000
,
0100
0000
0001
0000
1000
0010
1000
0000
,
0001
0000
0001
0010
0100
1000
0002
0000
,
0103
0000
0001
1000
0100
0010
0002
0000
,
1003
0010
1000
0000
0010
0000
0100
0000
,
0001
0010
0001
0000
0100
0000
0010
0000
,
0010
0000
1000
0100
0010
0001
0200
0000
,
0310
0000
1000
0001
0010
0100
2000
0000
,
3001
0010
0001
0000
0100
0000
0010
0000
,
1000
0000
0010
0000
1000
0000
0000
0000
0010
0000
0000
0000
0100
0001
0000
0000
,
1000
0001
1000
0000
0001
0000
0010
0000
0100
0000
1000
0000
0010
0000
0100
0000
,
0001
0100
0010
1000
0100
0010
0001
0100
,
0010
1000
0001
0000
0100
0000
0010
0000
,
1000
0000
0000
0000
0001
0000
0000
1000
0001
0000
0100
0000
0000
0001
1000
0000
,
0010
0000
0000
0000
1000
0010
0000
0000
0001
0010
0000
0000
1000
0010
0000
0000
,
0001
0010
0000
0000
1000
0010
0000
0000
0100
0000
0000
0000
0001
0000
0000
0000
,
1000
0010
1000
0010
1000
0000
0000
0000
0010
0000
0000
0000
0100
0000
0000
0000
,
0001
0010
0001
0000
0100
0000
0010
0000
,
1000
0000
0001
0000
1000
0010
0000
0000
0001
0010
0000
0000
1000
0010
0000
0000
,
0001
0010
0000
0000
1000
0010
0000
0000
0100
0000
0000
0000
0001
0000
0000
0000
,
1000
0100
1000
0100
1000
0000
0000
0000
0010
0000
0000
0000
0100
0000
0000
0000
,
0001
1000
0001
0000
0100
0010
1000
0000
,
0001
1000
0001
1000
0001
0000
0000
0000
0000
0000
0000
0000
0000
0000
0000
0000
;

//---------------dance-single - ----------------
#NOTES:
     dance-single:
     :
     Easy:
     4:
     0.160047,0.191811,0.014456,0.144559,0.000000,155.000000,153.000000,2.000000,20.000000,0.000000,0.000000,0.160047,0.191811,0.014456,0.144559,0.000000,155.000000,153.000000,2.000000,20.000000,0.000000,0.000000:
0000
0000
0000
0000
,
0000
0000
0000
0000
,
0000
0000
0000
0000
,
0000
0000
0000
0000
,
0000
1000
1000
1000
,
0000
0001
0001
0001
,
0000
0100
0100
0100
,
0000
0010
0010
0010
,
0000
1000
0001
1000
,
0000
0001
1000
0001
,
0000
0100
0010
0100
,
0000
0010
0100
0010
,
0000
1000
1000
0100
,
0100
0010
0010
0001
,
0001
1000
1000
1000
,
0000
0001
0000
0000
,
1001
2000
3200
0320
,
0032
2000
0000
3003
,
1000
0001
1000
0000
0001
0000
0100
0000
,
0001
1000
0001
0000
1000
0000
0100
0000
,
1000
0002
0023
0230
,
2300
0002
0000
3003
,
0001
1000
0001
0000
0010
0000
0100
0000
,
1000
0001
1000
0000
0010
0000
0100
0000
,
0001
1000
0001
0000
1000
0000
0001
0000
,
0000
0100
0010
0100
,
0000
0001
1000
0001
,
0000
0010
0100
0010
,
0000
0001
0001
0001
,
0000
1000
1000
1000
,
0000
0010
0010
0010
,
0000
0100
0100
0100
,
0000
0001
1000
0001
,
0000
1000
0001
1000
,
0000
0010
0100
0010
,
0000
0100
0010
0100
,
0000
0001
0001
0010
,
0010
0100
0100
1000
,
1000
0001
0001
0001
,
0000
1000
0000
0000
,
1001
0002
0023
0230
,
2300
0002
0000
3003
,
0001
1000
0001
0000
1000
0000
0010
0000
,
1000
0001
1000
0000
0001
0000
0010
0000
,
0001
2000
3200
0320
,
0032
2000
0000
3003
,
1000
0001
1000
0000
0100
0000
0010
0000
,
0001
1000
0001
0000
0100
0000
0010
0000
,
1000
0001
1000
0000
0000
0000
0000
0000
;

//---------------dance-single - ----------------
#NOTES:
     dance-single:
     :
     Beginner:
     2:
     0.112549,0.156937,0.000000,0.000000,0.000000,109.000000,109.000000,0.000000,0.000000,0.000000,0.000000,0.112549,0.156937,0.000000,0.000000,0.000000,109.000000,109.000000,0.000000,0.000000,0.000000,0.000000:
0000
0000
0000
0000
,
0000
0000
0000
0000
,
0000
0000
0000
0000
,
0000
0000
0000
0000
,
0000
1000
0000
1000
,
0000
0001
0000
0001
,
0000
0100
0000
0100
,
0000
0010
0000
0010
,
0000
1000
0000
1000
,
0000
0001
0000
0001
,
0000
0100
0000
0100
,
0000
0010
0000
0010
,
0000
1000
1000
0001
,
0001
1000
1000
0001
,
0001
0100
0000
0010
,
0000
0100
0000
0000
,
0000
0001
0001
0001
,
0001
0001
0000
0000
,
1000
0001
1000
0000
,
0001
1000
0001
0000
,
0000
1000
1000
1000
,
1000
1000
0000
0000
,
0010
0100
0010
0000
,
0100
0010
0100
0000
,
0001
0001
0000
1000
,
0000
0001
0000
1000
,
0000
0010
0000
0100
,
0000
0010
0000
0100
,
0000
0001
0000
0001
,
0000
1000
0000
1000
,
0000
0010
0000
0010
,
0000
0100
0000
0100
,
0000
0001
0000
0001
,
0000
1000
0000
1000
,
0000
0010
0000
0010
,
0000
0100
0000
0100
,
0000
0001
0001
1000
,
1000
0001
0001
1000
,
1000
0010
0000
0100
,
0000
0010
0000
0000
,
0000
1000
1000
1000
,
1000
1000
0000
0000
,
0001
1000
0001
0000
,
1000
0001
1000
0000
,
0000
0001
0001
0001
,
0001
0001
0000
0000
,
0100
0010
0100
0000
,
0010
0100
0010
0000
,
1000
1000
0000
0000
;
