#VERSION:0.83;
#TITLE:Sweet but Psycho;
#SUBTITLE:;
#ARTIST:Ava Max;
#TITLETRANSLIT:;
#SUBTITLETRANSLIT:;
#ARTISTTRANSLIT:;
#GENRE:Pop;
#ORIGIN:;
#CREDIT:;
#BANNER:bn.png;
#BACKGROUND:bg.png;
#PREVIEWVID:;
#JACKET:jacket.png;
#CDIMAGE:;
#DISCIMAGE:;
#LYRICSPATH:;
#CDTITLE:;
#MUSIC:Sweet but Psycho.ogg;
#OFFSET:0.000181;
#SAMPLESTART:45.100601;
#SAMPLELENGTH:14.436089;
#SELECTABLE:YES;
#BPMS:0.000=133.000;
#STOPS:;
#DELAYS:;
#WARPS:;
#TIMESIGNATURES:0.000=4=4;
#TICKCOUNTS:0.000=4;
#COMBOS:0.000=1;
#SPEEDS:0.000=1.000=0.000=0;
#SCROLLS:0.000=1.000;
#FAKES:;
#LABELS:0.000=Song Start;
#BGCHANGES:0.000=Sweet But Psycho.mp4=1.000=1=0=0=StretchNoLoop==CrossFade==,
274.000=bg.png=1.000=1=0=1===CrossFade==,
99999=-nosongbg-=1.000=0=0=0 // don't automatically add -songbackground-
;
#KEYSOUNDS:;
#ATTACKS:
;

//---------------dance-single - ----------------
#NOTEDATA:;
#CHARTNAME:;
#STEPSTYPE:dance-single;
#DESCRIPTION:;
#CHARTSTYLE:Pad;
#DIFFICULTY:Medium;
#METER:8;
#RADARVALUES:0.363038,0.380992,0.047500,0.063334,0.015833,321.000000,315.000000,6.000000,8.000000,0.000000,0.000000,0.000000,0.000000,0.000000,0.363038,0.380992,0.047500,0.063334,0.015833,321.000000,315.000000,6.000000,8.000000,0.000000,0.000000,0.000000,0.000000,0.000000;
#CREDIT:Galamoth;
#NOTES:
0000
0000
0000
0000
,
0000
0000
0000
0000
,
0000
0000
0000
0000
,
0000
0000
0000
0000
,
0000
0000
0000
0000
,
0001
0100
0001
0000
0000
0000
0000
0000
,
1000
0100
1000
0000
0000
0000
0000
0000
,
0001
0100
0001
0000
0000
0000
0000
0000
,
1000
0001
1000
0001
0000
1000
0001
0000
,
1001
0000
0001
1000
0100
0000
1000
0000
,
0100
0000
0010
0100
1000
0000
0001
0000
,
0100
0000
0010
1000
0001
0000
0010
0000
,
0001
0000
0100
0010
1000
0000
0010
0000
,
1001
0000
1000
0001
0010
0000
0001
0000
,
0010
0000
0100
0010
0001
0000
1000
0000
,
0010
0000
0100
0001
1000
0000
0100
0000
,
1000
0000
0010
0100
0001
0000
0100
0000
,
0002
0000
0000
1000
0003
0000
0001
0000
,
0020
0000
0000
0100
0030
0000
1000
0001
,
1000
0000
0000
1000
0000
0000
1000
0000
0000
0000
0010
0000
0010
0000
0100
0000
,
0001
0000
0000
0001
0000
0000
0001
0000
0100
0000
0001
0000
0001
0000
1000
0000
,
0002
0000
0000
1000
0003
0000
0001
0000
,
0200
0000
0000
0010
0300
0000
1000
0001
,
1000
0000
0000
1000
0000
0000
1000
0000
0000
0000
0010
0000
0010
0000
0100
0000
,
0001
0000
0000
0001
0000
0000
0001
0000
0100
0000
0010
0000
1000
0000
0001
0000
,
1000
0000
0100
0000
0010
0001
1000
0000
,
0001
0000
0100
0000
0010
1000
0001
0000
,
0010
0000
0100
0000
1000
0001
0100
0000
,
0001
1000
0001
1000
0000
0001
1000
0000
,
0001
0000
0010
0000
0100
1000
0001
0000
,
1000
0000
0010
0000
0100
0001
1000
0000
,
0100
0000
0010
0000
0001
1000
0010
0000
,
1000
0001
1000
0001
0000
1000
0001
0000
,
1000
0000
0100
0000
0010
0001
0100
0000
,
0001
0000
0100
0000
0010
1000
0100
0000
,
0010
0000
0100
0000
1000
0001
0100
0000
,
0001
0010
0001
1000
0001
0100
0001
0000
,
1000
0000
0100
0000
0010
0001
1000
0000
,
0001
0000
0100
0000
0010
1000
0001
0000
,
0010
0000
0100
0000
1000
0001
0100
0000
,
0001
1000
0001
1000
0000
0001
1000
0000
,
0002
0003
0101
0000
,
2000
3000
1100
0000
,
0200
0300
0110
0000
,
0020
0030
1001
0000
,
0001
1000
0001
1000
0001
0000
0000
0000
,
1000
0001
1000
0001
1000
0000
0000
0000
,
0010
0100
0010
0100
0010
0000
0000
1000
,
1000
0001
1000
0001
1000
0000
0000
0000
,
0001
1000
0001
1000
0010
0000
0000
0000
,
1000
0001
1000
0001
0010
0000
0000
0000
,
0001
0100
0001
0100
0010
0000
0000
1000
,
1000
0100
1000
0100
0010
0000
0000
0000
,
1000
0000
0100
0000
0010
0001
1000
0000
,
0001
0000
0100
0000
0010
1000
0001
0000
,
0010
0000
0100
0000
1000
0001
0100
0000
,
0001
1000
0001
1000
0000
0001
1000
0000
,
0001
0000
0010
0000
0100
1000
0001
0000
,
1000
0000
0010
0000
0100
0001
1000
0000
,
0100
0000
0010
0000
0001
1000
0010
0000
,
1000
0001
1000
0001
0000
1000
0001
0000
,
1000
0000
0100
0000
0010
0001
0100
0000
,
0001
0000
0100
0000
0010
1000
0100
0000
,
0010
0000
0100
0000
1000
0001
0100
0000
,
0001
0100
0001
1000
0001
0010
0001
0000
,
1000
0000
0100
0000
0010
0001
1000
0000
,
0001
0000
0100
0000
0010
1000
0001
0000
,
0010
0000
0100
0000
1000
0001
0100
0000
,
0001
1000
0001
1000
0000
0001
1000
0000
;

//---------------dance-single - ----------------
#NOTEDATA:;
#CHARTNAME:;
#STEPSTYPE:dance-single;
#DESCRIPTION:;
#CHARTSTYLE:Pad;
#DIFFICULTY:Easy;
#METER:5;
#RADARVALUES:0.201311,0.244033,0.000000,0.126667,0.000000,178.000000,178.000000,0.000000,16.000000,0.000000,0.000000,0.000000,0.000000,0.000000,0.201311,0.244033,0.000000,0.126667,0.000000,178.000000,178.000000,0.000000,16.000000,0.000000,0.000000,0.000000,0.000000,0.000000;
#CREDIT:Galamoth;
#NOTES:
0000
0000
0000
0000
,
0000
0000
0000
0000
,
0000
0000
0000
0000
,
0000
0000
0000
0000
,
0000
0000
0000
0000
,
1000
0000
0000
0000
,
0001
0000
0000
0000
,
1000
0000
0000
0000
,
0001
0000
0000
0000
,
0100
0100
0000
0010
,
1000
1000
0000
0001
,
0010
0010
0000
0100
,
1000
1000
0000
0001
,
1000
0001
0000
1000
,
0010
1000
0000
0001
,
0100
0001
0000
1000
,
0100
1000
0000
0001
,
0002
0000
0003
0100
,
0200
0000
0300
0001
,
1000
1000
0000
0010
,
0100
0100
0000
0001
,
0002
0000
0003
0010
,
0020
0000
0030
0100
,
1000
1000
0000
0001
,
0010
0000
0000
0000
,
0001
1000
0001
1000
,
0010
0100
0010
0100
,
0001
1000
0001
1000
,
0001
0000
1000
0000
,
0001
1000
0001
1000
,
0010
0100
0010
0100
,
0001
1000
0001
1000
,
0001
0000
1000
0000
,
0001
1000
0000
0001
,
1000
0010
0000
1000
,
0001
0010
0000
0001
,
1000
0100
0000
0010
,
0001
1000
0001
1000
,
0010
0100
0010
0100
,
0001
1000
0001
1000
,
0001
0000
1000
0000
,
0020
0000
0130
0000
,
0002
0000
0013
0000
,
0200
0000
1300
0000
,
0002
0000
0103
0000
,
0200
0000
0310
0000
,
2000
0000
3100
0000
,
0020
0000
0031
0000
,
2000
0000
3010
0000
,
0020
0000
0130
0000
,
0002
0000
0013
0000
,
0200
0000
1300
0000
,
0002
0000
0103
0000
,
0001
1000
0001
1000
,
0010
0100
0010
0100
,
0001
1000
0001
1000
,
0001
0000
1000
0000
,
0001
1000
0001
1000
,
0010
0100
0010
0100
,
0001
1000
0001
1000
,
0001
0000
1000
0000
,
0001
1000
0000
0001
,
1000
0010
0000
1000
,
0001
0010
0000
0001
,
1000
0100
0000
0010
,
0001
1000
0001
1000
,
0010
0100
0010
0100
,
0001
1000
0001
1000
,
0001
0000
1000
0000
;

//---------------dance-single - ----------------
#NOTEDATA:;
#CHARTNAME:;
#STEPSTYPE:dance-single;
#DESCRIPTION:;
#CHARTSTYLE:Pad;
#DIFFICULTY:Beginner;
#METER:2;
#RADARVALUES:0.104048,0.162689,0.000000,0.126667,0.000000,92.000000,92.000000,0.000000,16.000000,0.000000,0.000000,0.000000,0.000000,0.000000,0.104048,0.162689,0.000000,0.126667,0.000000,92.000000,92.000000,0.000000,16.000000,0.000000,0.000000,0.000000,0.000000,0.000000;
#CREDIT:Galamoth;
#NOTES:
// measure 0
0000
0000
0000
0000
,  // measure 1
0000
0000
0000
0000
,  // measure 2
0000
0000
0000
0000
,  // measure 3
0000
0000
0000
0000
,  // measure 4
0000
0000
0000
0000
,  // measure 5
1000
0000
0000
0000
,  // measure 6
0001
0000
0000
0000
,  // measure 7
1000
0000
0000
0000
,  // measure 8
0001
0000
0000
0000
,  // measure 9
0100
0000
0000
0000
,  // measure 10
0001
0000
0000
0000
,  // measure 11
1000
0000
0000
0000
,  // measure 12
0010
0000
0000
0000
,  // measure 13
1000
0000
0000
0000
,  // measure 14
0001
0000
0000
0000
,  // measure 15
0010
0000
0000
0000
,  // measure 16
0100
0000
0000
0000
,  // measure 17
2000
0000
3000
0000
,  // measure 18
0002
0000
0003
0000
,  // measure 19
0100
0000
0000
0000
,  // measure 20
0010
0000
0000
0000
,  // measure 21
2000
0000
3000
0000
,  // measure 22
0002
0000
0003
0000
,  // measure 23
0100
0000
0000
0000
,  // measure 24
0010
0000
0000
0000
,  // measure 25
1000
0000
1000
0000
,  // measure 26
0001
0000
0001
0000
,  // measure 27
1000
0000
1000
0000
,  // measure 28
0010
0000
0100
0000
,  // measure 29
0001
0000
0001
0000
,  // measure 30
1000
0000
1000
0000
,  // measure 31
0001
0000
0001
0000
,  // measure 32
0100
0000
0010
0000
,  // measure 33
1000
0000
0000
0000
,  // measure 34
0100
0000
0000
0000
,  // measure 35
0010
0000
0000
0000
,  // measure 36
0001
0001
0001
0000
,  // measure 37
0001
0000
0001
0000
,  // measure 38
1000
0000
1000
0000
,  // measure 39
0001
0000
0001
0000
,  // measure 40
0100
0000
0010
0000
,  // measure 41
2000
0000
3000
0000
,  // measure 42
0002
0000
0003
0000
,  // measure 43
2000
0000
3000
0000
,  // measure 44
0002
0000
0003
0000
,  // measure 45
0200
0000
0300
0000
,  // measure 46
0020
0000
0030
0000
,  // measure 47
0200
0000
0300
0000
,  // measure 48
0020
0000
0030
0000
,  // measure 49
2000
0000
3000
0000
,  // measure 50
0200
0000
0300
0000
,  // measure 51
0020
0000
0030
0000
,  // measure 52
0002
0000
0003
0000
,  // measure 53
1000
0000
1000
0000
,  // measure 54
0001
0000
0001
0000
,  // measure 55
1000
0000
1000
0000
,  // measure 56
0010
0000
0100
0000
,  // measure 57
0001
0000
0001
0000
,  // measure 58
1000
0000
1000
0000
,  // measure 59
0001
0000
0001
0000
,  // measure 60
0100
0000
0010
0000
,  // measure 61
1000
0000
0000
0000
,  // measure 62
0100
0000
0000
0000
,  // measure 63
0010
0000
0000
0000
,  // measure 64
0001
0001
0001
0000
,  // measure 65
0001
0000
0001
0000
,  // measure 66
1000
0000
1000
0000
,  // measure 67
0001
0000
0001
0000
,  // measure 68
0100
0000
0010
0000
;

//---------------dance-single - ----------------
#NOTEDATA:;
#CHARTNAME:;
#STEPSTYPE:dance-single;
#DESCRIPTION:;
#CHARTSTYLE:Pad;
#DIFFICULTY:Hard;
#METER:12;
#RADARVALUES:0.504408,0.518001,0.166251,0.063334,0.075209,446.000000,425.000000,21.000000,8.000000,0.000000,0.000000,0.000000,0.000000,0.000000,0.504408,0.518001,0.166251,0.063334,0.075209,446.000000,425.000000,21.000000,8.000000,0.000000,0.000000,0.000000,0.000000,0.000000;
#CREDIT:Gradi;
#NOTES:
0000
0000
0000
0000
,
0000
0000
0000
0000
,
0000
0000
0000
0000
,
0000
0000
0000
0000
,
0000
0000
0000
0000
,
0001
0000
0010
0000
0100
1000
0010
0100
,
0000
0001
0000
1000
0001
0010
0100
1000
,
0000
0001
0000
0100
0010
1000
0010
0100
,
0001
0001
0001
0001
0000
0001
0001
0000
,
1001
0000
1000
1000
0000
0000
0101
0000
,
0100
0000
0010
0010
0000
0000
1001
0000
,
0001
0000
0010
0010
0000
0000
0011
0000
,
0001
0000
1000
1000
0000
0000
1010
0001
,
1000
0000
0010
0010
0000
0000
0110
0000
,
0100
0000
0001
0001
0000
0000
0101
0000
,
0100
0000
0010
0010
0000
0000
1100
0000
,
1000
0000
0001
0001
0000
0000
0101
0000
,
0200
0000
0010
0010
0000
0000
0301
0000
,
2000
0000
0100
0100
3000
1000
0100
1000
,
0001
0000
0000
0001
0000
0000
0001
0000
0000
0000
0100
0010
0100
0000
0010
0000
,
1000
0000
0000
1000
0000
0000
1000
0000
0010
0000
1000
0001
1000
0000
0001
0000
,
0200
0000
1000
1000
0000
0000
0301
0000
,
0020
0000
0100
0100
0030
1000
0001
1000
,
0010
0000
0000
0010
0000
0000
0010
0000
0000
0000
0100
0001
0100
0000
0010
0000
,
1000
0000
0000
0001
0000
0000
1000
0000
0000
0000
1001
0000
0101
0000
0100
0000
,
1001
0000
1000
0010
0100
0001
1000
0001
,
1000
0100
0010
0010
0001
1000
0100
0001
,
0100
0010
0001
0001
1000
0001
0010
0001
,
0100
0100
0100
0100
0000
0100
0100
0010
,
0100
0001
1000
1000
0010
0100
0010
0001
,
0010
1000
0001
0001
0100
0001
1000
0100
,
1000
0001
0100
0100
0010
1000
0001
1000
,
0010
0010
0010
0010
0000
0010
0010
1000
,
0001
0010
0100
0010
0001
0100
0010
0200
,
0000
1000
0300
0010
1000
0001
0100
0020
,
0000
1000
0030
0100
0001
1000
0001
0000
,
0010
0100
0010
0010
0001
1000
0001
0000
,
0010
0100
1000
1000
0001
0100
0010
0100
,
0001
1000
0100
0100
1000
0001
0010
0100
,
1000
0010
0100
0100
0001
1000
0100
1000
,
0010
0010
0010
0010
0000
0010
0010
0000
,
1000
0001
1000
0001
1100
0000
0000
0000
,
1000
0100
1000
0010
0001
0010
0100
0010
,
1000
0000
0001
0000
1000
0000
0001
0000
1100
0000
0000
0000
1000
0000
0001
1000
,
0001
0100
0010
0100
1000
0100
0010
1000
,
0001
0100
0001
0100
1001
0000
0000
0000
,
1000
0010
1000
0010
1001
0000
0000
0000
,
0001
0000
0010
0000
0001
0000
0010
0000
1001
0000
0000
0000
0000
0000
1000
0010
,
1000
0001
1000
0001
1000
0100
0010
0001
,
0100
0010
0100
0010
0101
0000
0000
0000
,
0001
1000
0001
1000
0011
0000
0000
0000
,
1000
0000
0010
0000
1000
0000
0010
0000
1001
0000
0000
0000
0000
0000
1000
0001
,
1000
0000
0001
0000
1000
0000
0001
0010
0001
0000
0000
0000
0000
0000
0000
0000
,
1001
0000
0001
0100
0001
1000
0010
1000
,
0001
0000
1000
0001
0100
0000
0100
0000
0001
0000
1000
0000
0010
0000
0001
0000
,
0010
0000
0100
0010
0100
0000
0001
0000
1000
0000
0010
0000
0100
0000
0001
0000
,
0010
0010
0010
0010
0000
0010
0010
0001
,
0100
0000
0001
1000
0100
0000
0100
0000
0010
0000
0001
0000
0100
0000
1000
0000
,
0100
0000
0010
1000
0001
0000
0001
0000
0100
0000
0001
0000
1000
0000
0010
0000
,
1000
0000
0001
1000
0100
0000
0100
0000
0010
0000
0001
0000
1000
0000
0001
0000
,
0100
0100
0100
0100
0000
0100
0100
0001
,
1000
0100
0010
0100
1000
0010
0100
0020
,
0000
0001
0030
0100
0001
1000
0010
0200
,
0000
0001
0300
0010
1000
0001
1000
0000
,
0100
0010
0100
0100
1000
0001
1000
0000
,
0010
0000
0100
0010
1000
0000
1000
0000
0001
0000
0010
0000
0100
0000
1000
0000
,
0010
0000
1000
0001
0100
0000
0100
0000
0010
0000
0100
0000
0001
0000
1000
0000
,
0100
0000
0010
0001
1000
0000
0001
0000
0100
0000
0010
0000
1000
0000
0001
0000
,
0010
0010
0010
0010
0000
0010
0010
0100
;
