#VERSION:0.83;
#TITLE:Sucker;
#SUBTITLE:;
#ARTIST:Jonas Brothers;
#TITLETRANSLIT:;
#SUBTITLETRANSLIT:;
#ARTISTTRANSLIT:;
#GENRE:Pop;
#ORIGIN:;
#CREDIT:;
#BANNER:bn.png;
#BACKGROUND:bg.png;
#PREVIEWVID:;
#JACKET:jacket.png;
#CDIMAGE:;
#DISCIMAGE:;
#LYRICSPATH:;
#CDTITLE:;
#MUSIC:Sucker.ogg;
#OFFSET:0.000383;
#SAMPLESTART:28.228485;
#SAMPLELENGTH:13.913044;
#SELECTABLE:YES;
#BPMS:0.000=138.000;
#STOPS:;
#DELAYS:;
#WARPS:;
#TIMESIGNATURES:0.000=4=4;
#TICKCOUNTS:0.000=4;
#COMBOS:0.000=1;
#SPEEDS:0.000=1.000=0.000=0;
#SCROLLS:0.000=1.000;
#FAKES:;
#LABELS:0.000=Song Start;
#BGCHANGES:0.000=Sucker.mp4=1.000=1=0=0=StretchNoLoop==CrossFade==,
276.000=bg.png=1.000=1=0=1===CrossFade==,
99999=-nosongbg-=1.000=0=0=0 // don't automatically add -songbackground-
;
#KEYSOUNDS:;
#ATTACKS:
;

//---------------dance-single - ----------------
#NOTEDATA:;
#CHARTNAME:;
#STEPSTYPE:dance-single;
#DESCRIPTION:;
#CHARTSTYLE:Pad;
#DIFFICULTY:Hard;
#METER:12;
#RADARVALUES:0.549591,0.685039,0.165468,0.000000,0.148922,465.000000,445.000000,20.000000,0.000000,16.000000,0.000000,0.000000,0.000000,0.000000,0.549591,0.685039,0.165468,0.000000,0.148922,465.000000,445.000000,20.000000,0.000000,16.000000,0.000000,0.000000,0.000000,0.000000;
#CREDIT:Gradi;
#NOTES:
0000
0000
0000
0000
,
0000
0000
0000
0000
,
0000
0000
0000
0000
,
0000
0000
0000
0000
,
0000
0000
0000
0000
,
1000
0000
0000
0001
0100
0000
0000
0010
,
0000
0000
0000
0000
,
1000
0000
0000
0010
0100
0100
0000
0001
,
0000
0000
0000
0000
0000
1000
0100
1000
,
0001
0100
0010
0100
100M
0000
0100
0010
,
1000
0001
1000
0010
M001
0000
0010
1000
,
0001
0010
0001
0100
0010
0010
1000
0001
,
1000
0010
0000
1000
0001
0010
0001
1000
,
0100
0010
0001
0100
100M
0000
0100
0010
,
1000
0001
1000
0010
M001
0000
0010
0100
,
0001
1000
0001
0100
0010
0010
1000
0001
,
0000
MMMM
0000
0000
,
0001
0001
0100
0000
1000
1000
0100
0000
,
0001
0001
0010
0000
1000
1000
0010
0000
,
0001
0001
0100
0000
1000
1000
0010
0000
,
0001
0001
1000
0000
1000
1000
0010
0010
,
0100
0100
0010
1000
0001
0001
0010
0100
,
1000
1000
0010
0100
0010
0010
1000
0100
,
1000
1000
0001
1000
0010
0010
0100
0010
,
1000
1000
0000
0000
0000
0000
0000
0000
,
1001
1000
0010
0100
0010
0010
1000
0001
,
0010
0010
0001
0100
0010
0010
1000
0001
,
0100
0100
1000
0001
0100
0100
1000
0001
,
0100
0000
0100
0000
1000
0000
0010
0100
0010
0000
0010
0000
1000
0001
1000
0001
,
1000
1000
0010
1000
0001
0001
1000
0010
,
0100
0000
0100
0000
0010
0000
1000
0001
1000
0000
0001
0000
0010
0000
0100
0010
,
0100
0000
0100
0000
1000
0000
0010
0100
0010
0000
0010
0000
1000
0000
0001
1000
,
0001
0000
0000
0000
,
1000
0000
0000
0000
0010
0000
0100
0010
0100
0000
0001
0000
1000
0000
0100
0000
,
1000
0000
0001
0000
0010
0000
0001
1000
0001
0010
0001
0000
1000
0000
0100
0010
,
0100
0000
0000
0000
1000
0000
0001
0100
0001
1000
0001
0000
1000
0000
0010
0000
,
0100
0010
0100
0000
0001
0000
1000
0001
1000
0010
1000
0000
0001
0100
0001
0100
,
0010
0000
0000
0000
1000
0000
0010
0100
0010
0000
1000
0000
0001
0000
0010
0000
,
0001
0000
1000
0000
0001
0000
1000
0001
1000
0010
1000
0000
0001
0000
0100
0010
,
0100
0010
1000
0000
0001
0000
1000
0001
1000
0000
0001
0000
1000
0000
0001
0000
,
1001
0000
0010
0000
1001
0000
0100
0000
1001
0000
0010
0000
0100
0010
0100
0010
,
0100
0001
1000
0100
M001
0000
0100
1000
,
0001
0010
0100
0010
100M
0000
0010
0001
,
1000
0010
0100
0001
0010
0010
0001
1000
,
0001
0010
0000
0001
1000
0100
1000
0001
,
1000
0010
0100
0010
M001
0000
0010
0100
,
0001
1000
0001
0100
100M
0000
0100
0010
,
1000
0001
1000
0010
0100
0100
0001
0010
,
0000
MMMM
0000
0000
,
1010
1001
0000
0000
1001
0011
0000
0000
,
0101
0110
0000
0000
1001
0101
0000
0000
,
1100
1001
0000
0000
1010
0110
0000
0000
,
1001
1010
0000
0000
0011
1001
0100
0100
,
1000
1000
0001
0010
0100
0100
1000
0010
,
0100
0100
0001
1000
0010
0010
0100
0001
,
1000
1000
0001
0010
0100
0100
1000
0010
,
0100
0000
0100
0000
0001
0000
0000
0000
0000
0000
1000
0001
1000
0001
1000
0001
,
1000
0001
0100
0010
0100
0100
0001
1000
,
0100
0100
1000
0010
0100
0100
0001
1000
,
0100
0100
0001
1000
0100
0100
0001
1000
,
0100
0000
0100
0000
0001
0000
0010
0100
0010
0000
0010
0000
0001
1000
0001
1000
,
0001
0001
0100
0001
1000
1000
0001
0100
,
0010
0000
0010
0000
0100
0000
0001
1000
0001
0000
1000
0000
0100
0000
0010
0100
,
0010
0000
0010
0000
0001
0000
0100
0010
0100
0000
0100
0000
0001
0000
1000
0001
,
1000
0000
0000
0000
,
1000
0000
0001
0010
0001
1000
0000
0100
,
0000
0000
0010
0001
1000
0000
0001
0000
,
0100
0000
0010
0100
0010
1000
0000
0001
,
0000
0000
1000
0001
1000
0000
0010
0000
,
0100
0000
0000
0000
;

//---------------dance-single - ----------------
#NOTEDATA:;
#CHARTNAME:;
#STEPSTYPE:dance-single;
#DESCRIPTION:;
#CHARTSTYLE:Pad;
#DIFFICULTY:Medium;
#METER:9;
#RADARVALUES:0.349847,0.428150,0.066187,0.000000,0.000000,296.000000,288.000000,8.000000,0.000000,0.000000,0.000000,0.000000,0.000000,0.000000,0.349847,0.428150,0.066187,0.000000,0.000000,296.000000,288.000000,8.000000,0.000000,0.000000,0.000000,0.000000,0.000000,0.000000;
#CREDIT:Galamoth;
#NOTES:
0000
0000
0000
0000
,
0000
0000
0000
0000
,
0000
0000
0000
0000
,
0000
0000
0000
0000
,
0000
0000
0000
0000
,
0000
0000
0000
0000
,
0000
0000
0000
0000
,
0000
0000
0000
0000
,
0000
0000
0000
0000
,
1000
0100
0010
0000
0001
0000
0100
0000
,
0001
0100
0010
0000
1000
0000
0010
0000
,
0100
0001
1000
0000
0100
0000
0010
0001
,
1000
0001
0000
0000
1000
0000
0001
0000
,
0010
0100
1000
0000
0001
0000
0100
0000
,
0010
0100
0001
0000
1000
0000
0001
0000
,
0010
0001
1000
0000
0010
1000
0001
0000
,
0000
0000
0000
0000
,
1000
0100
0000
0000
1000
0001
0000
0000
,
1000
0010
0000
0000
1000
0001
0000
0000
,
0001
0010
0000
0000
0001
1000
0000
0000
,
0001
0100
0000
0000
0001
1000
0001
1000
,
0010
0100
0010
0000
1000
0010
1000
0000
,
0001
0100
0001
0000
1000
0100
1000
0000
,
0001
0010
0001
0000
0100
0010
0100
0000
,
0001
1000
0000
0000
0000
0000
0000
0000
,
1001
0000
0001
0000
1000
0100
0010
0000
,
0001
0000
0100
0000
0010
0100
0001
0000
,
0010
0100
0010
0000
0100
1000
0100
0000
,
1000
0010
1000
0000
0001
0010
0001
0000
,
1001
0000
1000
0000
0001
0010
0100
0000
,
1000
0000
0010
0000
0100
0010
1000
0000
,
0001
0000
1000
0000
0001
1000
0001
0000
,
0010
0100
0000
0000
,
1001
0000
1000
0000
0001
0100
0000
0010
,
0000
1000
0000
0001
1000
0001
1000
0000
,
0010
0000
0100
0001
0000
1000
0001
0000
,
1000
0000
0010
0000
0100
0000
0001
1000
,
0001
0000
1000
0000
0001
0010
0000
0100
,
0000
0010
0000
0100
1000
0100
1000
0000
,
0001
0100
0001
0000
0100
0010
0100
0000
,
1001
0000
1001
0000
1001
0000
0001
1000
,
0001
0100
0010
0000
1000
0000
0010
0000
,
1000
0010
0100
0000
0001
0000
0100
0000
,
0010
1000
0001
0000
0010
0000
0100
1000
,
0001
1000
0000
0000
0001
0000
1000
0000
,
0100
0010
0001
0000
1000
0000
0010
0000
,
0100
0010
1000
0000
0001
0000
1000
0000
,
0100
1000
0001
0000
0100
0001
1000
0000
,
0000
0000
0000
0000
,
0001
0010
0000
0000
0001
1000
0000
0000
,
0001
0100
0000
0000
0001
1000
0000
0000
,
1000
0100
0000
0000
1000
0001
0000
0000
,
1000
0010
0000
0000
1000
0001
1000
0001
,
0100
0010
0100
0000
0001
0100
0001
0000
,
1000
0010
1000
0000
0001
0010
0001
0000
,
1000
0100
1000
0000
0010
0100
0010
0000
,
1000
0001
0000
0000
0000
0100
0000
0000
,
1001
0000
1000
0000
0001
0010
0100
0000
,
1000
0000
0010
0000
0100
0010
1000
0000
,
0100
0010
0100
0000
0010
0001
0010
0000
,
0001
0100
0001
0000
1000
0100
1000
0000
,
1001
0000
0001
0000
1000
0100
0010
0000
,
0001
0000
0100
0000
0010
0100
0001
0000
,
1000
0000
0001
0000
1000
0001
1000
0000
,
0100
0000
0000
0000
,
1000
0000
0001
1000
0100
0000
0000
1000
,
0000
0000
0001
0100
0000
0010
0100
0010
,
0100
0000
0010
1000
0000
0001
1000
0000
,
0001
0000
0100
0000
0010
0000
1000
0001
,
1000
0000
0000
0000
;

//---------------dance-single - ----------------
#NOTEDATA:;
#CHARTNAME:;
#STEPSTYPE:dance-single;
#DESCRIPTION:;
#CHARTSTYLE:Pad;
#DIFFICULTY:Beginner;
#METER:2;
#RADARVALUES:0.134739,0.171260,0.000000,0.000000,0.000000,114.000000,114.000000,0.000000,0.000000,0.000000,0.000000,0.000000,0.000000,0.000000,0.134739,0.171260,0.000000,0.000000,0.000000,114.000000,114.000000,0.000000,0.000000,0.000000,0.000000,0.000000,0.000000,0.000000;
#CREDIT:Galamoth;
#NOTES:
// measure 0
0000
0000
0000
0000
,  // measure 1
0000
0000
0000
0000
,  // measure 2
0000
0000
0000
0000
,  // measure 3
0000
0000
0000
0000
,  // measure 4
0000
0000
0000
0000
,  // measure 5
1000
0000
0000
0000
,  // measure 6
0000
0000
0000
0000
,  // measure 7
0001
0000
0000
0000
,  // measure 8
0000
0000
0000
0000
,  // measure 9
1000
0000
1000
0000
,  // measure 10
0001
0000
0001
0000
,  // measure 11
1000
0000
1000
0000
,  // measure 12
0010
0000
0000
0000
,  // measure 13
1000
0000
1000
0000
,  // measure 14
0001
0000
0001
0000
,  // measure 15
1000
0000
1000
0000
,  // measure 16
0100
0000
0000
0000
,  // measure 17
1000
0000
0001
0000
,  // measure 18
1000
0000
0001
0000
,  // measure 19
0100
0000
0010
0000
,  // measure 20
0100
0000
0010
0000
,  // measure 21
1000
1000
0000
0000
,  // measure 22
0001
0001
0000
0000
,  // measure 23
1000
1000
0000
0000
,  // measure 24
0001
0000
0000
0000
,  // measure 25
1000
0000
0100
0000
,  // measure 26
0010
0000
0001
0000
,  // measure 27
0010
0000
0100
0000
,  // measure 28
1000
0000
0001
0000
,  // measure 29
0100
0000
0010
0000
,  // measure 30
0100
0000
0001
0000
,  // measure 31
1000
0000
0100
0000
,  // measure 32
0010
0000
0000
0000
,  // measure 33
0001
0000
0001
0000
,  // measure 34
0100
0000
0100
0000
,  // measure 35
0010
0000
0010
0000
,  // measure 36
1000
0000
1000
0000
,  // measure 37
0001
0000
0010
0000
,  // measure 38
0100
0000
1000
0000
,  // measure 39
0001
0000
0100
0000
,  // measure 40
0001
0001
0001
0000
,  // measure 41
1000
0000
1000
0000
,  // measure 42
0001
0000
0001
0000
,  // measure 43
1000
0000
1000
0000
,  // measure 44
0010
0000
0000
0000
,  // measure 45
1000
0000
1000
0000
,  // measure 46
0001
0000
0001
0000
,  // measure 47
1000
0000
1000
0000
,  // measure 48
0100
0000
0000
0000
,  // measure 49
1000
0000
0001
0000
,  // measure 50
1000
0000
0001
0000
,  // measure 51
0100
0000
0010
0000
,  // measure 52
0100
0000
0010
0000
,  // measure 53
1000
1000
0000
0000
,  // measure 54
0001
0001
0000
0000
,  // measure 55
1000
1000
0000
0000
,  // measure 56
0001
0000
0000
0000
,  // measure 57
1000
0000
0100
0000
,  // measure 58
0010
0000
0001
0000
,  // measure 59
0010
0000
0100
0000
,  // measure 60
1000
0000
0001
0000
,  // measure 61
0100
0000
0010
0000
,  // measure 62
0100
0000
0001
0000
,  // measure 63
1000
0000
0100
0000
,  // measure 64
0010
0000
0000
0000
,  // measure 65
0001
0000
1000
0000
,  // measure 66
0001
0000
0000
0000
,  // measure 67
1000
0000
0001
0000
,  // measure 68
1000
0000
0000
0000
,  // measure 69
0010
0000
0000
0000
;

//---------------dance-single - ----------------
#NOTEDATA:;
#CHARTNAME:;
#STEPSTYPE:dance-single;
#DESCRIPTION:;
#CHARTSTYLE:Pad;
#DIFFICULTY:Easy;
#METER:5;
#RADARVALUES:0.178469,0.256890,0.000000,0.000000,0.000000,151.000000,151.000000,0.000000,0.000000,0.000000,0.000000,0.000000,0.000000,0.000000,0.178469,0.256890,0.000000,0.000000,0.000000,151.000000,151.000000,0.000000,0.000000,0.000000,0.000000,0.000000,0.000000,0.000000;
#CREDIT:Galamoth;
#NOTES:
0000
0000
0000
0000
,
0000
0000
0000
0000
,
0000
0000
0000
0000
,
0000
0000
0000
0000
,
0000
0000
0000
0000
,
1000
0000
0000
0000
0001
0000
0000
0001
,
0000
0000
0000
0000
,
0001
0000
0000
0000
1000
0000
0000
1000
,
0000
0000
0000
0000
,
0001
0001
0001
0000
,
1000
1000
1000
0000
,
0010
0010
0010
0000
,
1000
0000
0000
0000
,
0001
0001
0001
0000
,
1000
1000
1000
0000
,
0100
0100
0100
0000
,
1000
0000
0000
0000
,
0001
0000
0010
0000
,
0100
0000
1000
0000
,
0001
0000
0100
0000
,
0010
0000
1000
0000
,
0001
0001
1000
1000
,
0001
0001
1000
1000
,
0010
0010
0100
0100
,
0001
0000
0000
0000
,
1000
1000
0001
0000
,
0100
0100
0001
0000
,
0010
0010
0001
0000
,
1000
1000
0001
0000
,
0001
0001
1000
0000
,
0010
0010
1000
0000
,
0100
0100
1000
0000
,
0001
0000
0000
0000
,
1000
0000
0010
0000
,
0100
0000
0001
0000
,
1000
0000
0001
0000
,
0010
0000
0100
0000
,
1000
0000
0001
0000
,
0100
0000
0010
0000
,
0100
0000
0001
0000
,
1000
1000
1000
0000
,
0001
0001
0001
0000
,
1000
1000
1000
0000
,
0010
0010
0010
0000
,
1000
0000
0000
0000
,
0001
0001
0001
0000
,
1000
1000
1000
0000
,
0100
0100
0100
0000
,
1000
0000
0000
0000
,
0001
0000
0010
0000
,
0100
0000
1000
0000
,
0001
0000
0100
0000
,
0010
0000
1000
0000
,
0001
0001
1000
1000
,
0001
0001
1000
1000
,
0010
0010
0100
0100
,
0001
0000
0000
0000
,
1000
1000
0001
0000
,
0100
0100
0001
0000
,
0010
0010
0001
0000
,
1000
1000
0001
0000
,
0001
0001
1000
0000
,
0010
0010
1000
0000
,
0100
0100
1000
0000
,
0001
0000
0000
0000
,
1000
0000
0000
0000
,
0000
0000
0000
0000
,
0000
0000
0000
0000
,
0000
0000
0000
0000
,
1000
0000
0000
0000
;
