#TITLE:Solo;
#SUBTITLE:;
#ARTIST:Clean Bandit, Demi Lovato;
#TITLETRANSLIT:;
#SUBTITLETRANSLIT:;
#ARTISTTRANSLIT:;
#GENRE:Pop;
#CREDIT:;
#BANNER:bn.png;
#BACKGROUND:bg.png;
#LYRICSPATH:;
#CDTITLE:;
#MUSIC:Solo.ogg;
#OFFSET:1.717723;
#SAMPLESTART:45.785000;
#SAMPLELENGTH:18.285713;
#LASTBEATHINT:1.207015;
#SELECTABLE:YES;
#BPMS:0.000000=105.000000
;
#STOPS:
;
#BGCHANGES:3.000=Solo.mp4=1.000=1=0=0=StretchNoLoop==CrossFade==,
228.500=bg.png=1.000=1=0=0=StretchNoLoop==CrossFade==,
99999=-nosongbg-=1.000=0=0=0 // don't automatically add -songbackground-
;
#KEYSOUNDS:;
#ATTACKS:;

//---------------dance-single - ----------------
#NOTES:
     dance-single:
     :
     Hard:
     13:
     0.471242,0.529650,0.023230,0.224559,0.402658,426.000000,423.000000,3.000000,29.000000,0.000000,0.000000,0.471242,0.529650,0.023230,0.224559,0.402658,426.000000,423.000000,3.000000,29.000000,0.000000,0.000000:
// measure 0
0000
0000
0000
0000
,  // measure 1
0000
0000
0000
0000
,  // measure 2
0000
0000
0000
0000
,  // measure 3
0000
0000
0000
0000
,  // measure 4
0000
0000
0000
0000
,  // measure 5
1000
0000
0001
0000
0010
0001
0010
0000
0100
0000
1000
0000
0001
0000
1000
0000
,  // measure 6
0100
0000
0010
0000
0100
1000
0100
0000
0010
0000
0001
0000
1000
0000
0010
1000
,  // measure 7
0001
0000
0100
0000
0010
1000
0010
0000
0100
0000
0001
0000
1000
0000
0001
0000
,  // measure 8
0100
0000
0010
0000
0100
0001
0100
0000
0010
0000
1000
0010
1000
0001
1000
0001
,  // measure 9
1000
0000
0001
0000
0010
0001
0010
0000
0100
0000
1000
0000
0001
0000
1000
0000
,  // measure 10
0100
0000
0010
0000
0100
1000
0100
0000
0010
0000
0001
0000
1000
0000
0001
1000
,  // measure 11
0001
0000
0100
0000
0010
1000
0010
0000
0100
0000
0001
0000
1000
0000
0001
0000
,  // measure 12
0100
0000
0010
0000
0100
0001
0100
0000
0010
0000
1000
0010
1000
0001
1000
0001
,  // measure 13
1000
0000
0001
0000
1000
0001
0100
0001
1000
0000
0001
0000
1000
0000
0001
0000
,  // measure 14
0010
0000
0100
0000
1000
0001
0010
0001
1000
0000
0001
0000
0010
0000
0000
0000
,  // measure 15
0001
0000
1000
0000
0001
1000
0010
1000
0001
0000
0100
0000
0001
0000
1000
0000
,  // measure 16
0010
0000
0100
0000
0001
1000
0001
0000
0010
0000
0001
0100
0001
1000
0100
1000
,  // measure 17
0001
0000
1000
0000
0001
1000
0010
1000
0001
0000
1000
0000
0010
0000
1000
0000
,  // measure 18
0100
0000
0010
0000
0001
1000
0100
1000
0001
0000
1000
0000
0010
0000
0000
0000
,  // measure 19
1000
0010
0100
0000
0001
0010
0100
0000
,  // measure 20
1000
0000
0001
0000
2000
0002
3003
0000
,  // measure 21
1000
0000
1000
0000
1000
0000
0010
1000
0100
0000
1000
0010
0000
0100
0000
0000
,  // measure 22
0001
0000
0001
0000
0001
0000
0010
0001
0100
0000
0001
0100
0000
0010
0000
0000
,  // measure 23
0100
0000
0100
0000
0100
0000
0010
0100
0001
0000
0100
0010
0000
1000
0000
0000
,  // measure 24
0001
0000
0000
0100
0000
0000
1000
0000
0010
0000
0000
0000
1000
0000
1000
0000
,  // measure 25
0001
0000
0001
0000
0001
0000
0100
0001
0010
0000
0001
0100
0000
0010
0000
0000
,  // measure 26
1000
0000
1000
0000
1000
0000
0100
1000
0010
0000
1000
0010
0000
0100
0000
0000
,  // measure 27
0010
0000
0010
0000
0010
0000
0100
0010
1000
0000
0010
0100
0000
0001
1000
0000
,  // measure 28
0001
0000
0000
0010
0000
0000
1000
0000
0200
0000
0000
0000
0020
0000
0330
0000
,  // measure 29
1001
0000
1000
0000
0001
0100
0001
0100
0001
0000
1000
0000
0020
0000
0000
0000
,  // measure 30
0130
0000
0001
0000
1000
0100
1000
0100
1000
0000
0001
0000
0200
0000
0000
0000
,  // measure 31
0310
0000
1000
0000
0001
0010
0001
0010
0001
0000
0100
0000
0002
0000
0000
0000
,  // measure 32
2003
0000
0000
0100
0000
0000
0001
0000
3020
0000
0000
0000
0200
0000
0330
0000
,  // measure 33
1001
0000
0001
0000
1000
0010
1000
0010
1000
0000
0001
0000
0200
0000
0000
0000
,  // measure 34
0310
0000
1000
0000
0001
0010
0001
0010
0001
0000
1000
0000
0020
0000
0000
0000
,  // measure 35
0130
0000
0001
0000
1000
0100
1000
0100
1000
0000
0010
0000
2000
0000
0000
0000
,  // measure 36
3002
0000
0000
0010
0000
0000
1000
0000
0203
0000
0000
0000
0020
0000
0000
0000
,  // measure 37
0330
1000
1000
1000
,  // measure 38
0001
0001
0001
0001
,  // measure 39
0100
0100
0010
0010
,  // measure 40
2000
0000
0000
0000
0002
0000
0000
3003
,  // measure 41
1000
0000
1000
0000
1000
0000
0010
1000
0100
0000
1000
0010
0000
0100
0000
0000
,  // measure 42
0001
0000
0001
0000
0001
0000
0010
0001
0100
0000
0001
0100
0000
0010
0000
0000
,  // measure 43
0100
0000
0100
0000
0100
0000
0010
0100
0001
0000
0100
0010
0000
1000
0000
0000
,  // measure 44
0001
0000
0000
0100
0000
0000
1000
0000
0010
0000
0000
0000
1000
0000
1000
0000
,  // measure 45
0001
0000
0001
0000
0001
0000
0100
0001
0010
0000
0001
0100
0000
0010
0000
0000
,  // measure 46
1000
0000
1000
0000
1000
0000
0100
1000
0010
0000
1000
0010
0000
0100
0000
0000
,  // measure 47
0010
0000
0010
0000
0010
0000
0100
0010
1000
0000
0010
0100
0000
0001
1000
0000
,  // measure 48
0001
0000
0000
0010
0000
0000
1000
0000
0200
0000
0000
0000
0020
0000
0330
0000
,  // measure 49
1001
0000
1000
0000
0001
0100
0001
0100
0001
0000
1000
0000
0020
0000
0000
0000
,  // measure 50
0130
0000
0001
0000
1000
0100
1000
0100
1000
0000
0001
0000
0200
0000
0000
0000
,  // measure 51
0310
0000
1000
0000
0001
0010
0001
0010
0001
0000
0100
0000
0002
0000
0000
0000
,  // measure 52
2003
0000
0000
0100
0000
0000
0001
0000
3020
0000
0000
0000
0200
0000
0000
0000
,  // measure 53
0330
0000
0001
0000
0000
0001
1000
0000
0000
0000
1000
0000
0000
0000
1000
0001
,  // measure 54
0010
0001
0100
0000
0000
0010
0100
0000
0000
0000
0010
0100
0010
0100
0001
0010
,  // measure 55
0100
1000
0001
0000
0000
1000
0001
0000
0000
0000
0000
0010
0001
0010
0100
1000
,  // measure 56
0002
0000
0000
0010
0000
0000
1000
0000
0203
0000
0000
0000
0020
0000
0000
0000
,  // measure 57
0330
0000
0000
0000
;

//---------------dance-single - ----------------
#NOTES:
     dance-single:
     :
     Medium:
     8:
     0.356197,0.375168,0.000000,0.085178,0.000000,322.000000,322.000000,0.000000,11.000000,0.000000,0.000000,0.356197,0.375168,0.000000,0.085178,0.000000,322.000000,322.000000,0.000000,11.000000,0.000000,0.000000:
// measure 0
0000
0000
0000
0000
,  // measure 1
0000
0000
0000
0000
,  // measure 2
0000
0000
0000
0000
,  // measure 3
0000
0000
0000
0000
,  // measure 4
0000
0000
0000
0000
,  // measure 5
1000
0100
0010
0001
0000
1000
0000
0010
,  // measure 6
0100
0001
1000
0100
0000
1000
0000
0001
,  // measure 7
0001
0100
0010
1000
0000
0010
0000
0100
,  // measure 8
0010
1000
0100
0010
0000
0001
0100
0100
,  // measure 9
0001
0010
0100
1000
0000
0001
0000
0100
,  // measure 10
0010
1000
0001
0010
0000
0001
0000
1000
,  // measure 11
1000
0010
0100
0001
0000
0100
0000
0010
,  // measure 12
0100
0001
0010
0100
0000
1000
0010
0010
,  // measure 13
1000
0100
0010
0001
0100
0010
1000
0000
,  // measure 14
0001
0010
0100
1000
0001
0100
0010
0000
,  // measure 15
1000
0100
1000
0001
0010
0001
1000
0000
,  // measure 16
0001
0100
0001
1000
0010
1000
0001
0000
,  // measure 17
1000
0010
0100
0001
0010
0001
1000
0000
,  // measure 18
0001
0100
0010
1000
0100
1000
0001
0000
,  // measure 19
1000
0010
1000
0000
0001
0010
0001
0000
,  // measure 20
1000
0001
1000
0001
0100
0010
0100
0000
,  // measure 21
0001
0001
0001
0100
0010
1000
0001
0000
,  // measure 22
1000
1000
1000
0010
0100
0001
1000
0000
,  // measure 23
0010
0010
0010
0100
0001
0010
0100
0000
,  // measure 24
2000
0100
0001
3100
,  // measure 25
1000
1000
1000
0010
0100
0001
1000
0000
,  // measure 26
0001
0001
0001
0100
0010
1000
0001
0000
,  // measure 27
0100
0100
0100
0010
1000
0100
0010
0000
,  // measure 28
0002
0100
1000
0103
,  // measure 29
0001
0100
0010
1000
0100
0010
0001
1000
,  // measure 30
0010
0100
0001
0100
0010
1000
0001
0010
,  // measure 31
0100
1000
0001
1000
0010
0100
0001
1000
,  // measure 32
0002
0000
0010
0000
1000
0000
0100
0003
,  // measure 33
1000
0010
0100
0001
0010
0100
1000
0001
,  // measure 34
0100
0010
1000
0010
0100
0001
1000
0100
,  // measure 35
0010
0001
1000
0001
0100
0010
1000
0001
,  // measure 36
2000
0000
0010
0000
0001
0000
0100
3000
,  // measure 37
0001
0001
0100
0100
,  // measure 38
0010
0010
1000
1000
,  // measure 39
0001
0100
1000
0010
,  // measure 40
0002
0000
2000
3003
,  // measure 41
0001
0001
0001
0100
0010
1000
0001
0000
,  // measure 42
1000
1000
1000
0010
0100
0001
1000
0000
,  // measure 43
0010
0010
0010
0100
0001
0010
0100
0000
,  // measure 44
2000
0100
0001
3100
,  // measure 45
1000
1000
1000
0010
0100
0001
1000
0000
,  // measure 46
0001
0001
0001
0100
0010
1000
0001
0000
,  // measure 47
0100
0100
0100
0010
1000
0100
0010
0000
,  // measure 48
0002
0100
1000
0103
,  // measure 49
0001
0100
0010
1000
0001
0010
0100
0010
,  // measure 50
0001
1000
0010
0100
0001
1000
0100
0010
,  // measure 51
0100
1000
0001
0100
0010
1000
0100
0010
,  // measure 52
0002
0000
0010
0000
1000
0000
0100
0003
,  // measure 53
1000
0001
0000
0100
0000
0010
0000
1000
,  // measure 54
0001
1000
0000
0001
0000
1000
0001
0100
,  // measure 55
0001
1000
0000
0001
0000
0000
1000
0001
,  // measure 56
2000
0000
3002
0000
,  // measure 57
0013
0000
0000
0000
;

//---------------dance-single - ----------------
#NOTES:
     dance-single:
     :
     Easy:
     5:
     0.181417,0.220687,0.023230,0.147125,0.000000,164.000000,161.000000,3.000000,19.000000,0.000000,0.000000,0.181417,0.220687,0.023230,0.147125,0.000000,164.000000,161.000000,3.000000,19.000000,0.000000,0.000000:
// measure 0
0000
0000
0000
0000
,  // measure 1
0000
0000
0000
0000
,  // measure 2
0000
0000
0000
0000
,  // measure 3
0000
0000
0000
0000
,  // measure 4
0000
0000
0000
0000
,  // measure 5
1000
0001
1000
0001
,  // measure 6
0100
0010
0100
0010
,  // measure 7
1000
0100
1000
0100
,  // measure 8
0010
0001
0010
0001
,  // measure 9
1000
0001
1000
0001
,  // measure 10
0100
0010
0100
0010
,  // measure 11
1000
0100
1000
0100
,  // measure 12
0010
0001
0010
0001
,  // measure 13
2000
0000
3010
0100
,  // measure 14
0002
0000
0103
0010
,  // measure 15
2000
0000
3100
0010
,  // measure 16
0002
0000
0013
0100
,  // measure 17
0020
0000
0031
1000
,  // measure 18
0200
0000
1300
0001
,  // measure 19
0100
0010
0100
0010
,  // measure 20
2000
0000
3000
0000
,  // measure 21
0001
0001
1000
0000
,  // measure 22
0010
0010
1000
0000
,  // measure 23
0100
0100
1000
0000
,  // measure 24
0020
0000
0130
0001
,  // measure 25
1000
1000
0001
0000
,  // measure 26
0100
0100
0001
0000
,  // measure 27
0010
0010
0001
0000
,  // measure 28
0200
0000
0310
1000
,  // measure 29
1001
0001
0100
0010
,  // measure 30
1000
0100
0010
0001
,  // measure 31
1000
0010
0100
0001
,  // measure 32
2000
0000
3001
0100
,  // measure 33
1001
1000
0010
0100
,  // measure 34
0001
0010
0100
1000
,  // measure 35
0001
0100
0010
1000
,  // measure 36
0002
0000
1003
0010
,  // measure 37
2000
0000
3000
0000
,  // measure 38
0002
0000
0003
0000
,  // measure 39
0200
0000
0300
0000
,  // measure 40
0020
0000
0030
0000
,  // measure 41
0001
0001
1000
0000
,  // measure 42
0010
0010
1000
0000
,  // measure 43
0100
0100
1000
0000
,  // measure 44
0020
0000
0130
0001
,  // measure 45
1000
1000
0001
0000
,  // measure 46
0100
0100
0001
0000
,  // measure 47
0010
0010
0001
0000
,  // measure 48
0200
0000
0310
1000
,  // measure 49
1001
0001
0100
0010
,  // measure 50
1000
0100
0010
0001
,  // measure 51
1000
0010
0100
0001
,  // measure 52
2000
0000
3001
0100
,  // measure 53
0001
0000
1000
0000
,  // measure 54
0010
0000
0100
0000
,  // measure 55
0001
0000
1000
0000
,  // measure 56
0002
0000
1003
0000
,  // measure 57
0010
0000
0000
0000
;

//---------------dance-single - ----------------
#NOTES:
     dance-single:
     :
     Beginner:
     2:
     0.108408,0.110344,0.000000,0.007743,0.000000,98.000000,98.000000,0.000000,1.000000,0.000000,0.000000,0.108408,0.110344,0.000000,0.007743,0.000000,98.000000,98.000000,0.000000,1.000000,0.000000,0.000000:
// measure 0
0000
0000
0000
0000
,  // measure 1
0000
0000
0000
0000
,  // measure 2
0000
0000
0000
0000
,  // measure 3
0000
0000
0000
0000
,  // measure 4
0000
0000
0000
0000
,  // measure 5
1000
0000
1000
0000
,  // measure 6
0001
0000
0001
0000
,  // measure 7
1000
0000
1000
0000
,  // measure 8
0001
0000
0001
0000
,  // measure 9
0100
0000
0100
0000
,  // measure 10
0010
0000
0010
0000
,  // measure 11
0100
0000
0100
0000
,  // measure 12
0010
0000
0010
0000
,  // measure 13
1000
0000
0001
0000
,  // measure 14
1000
0000
0001
0000
,  // measure 15
0100
0000
0010
0000
,  // measure 16
0100
0000
0010
0000
,  // measure 17
1000
0000
0001
0000
,  // measure 18
1000
0000
0001
0000
,  // measure 19
0100
0000
0010
0000
,  // measure 20
2000
0000
3000
0000
,  // measure 21
0001
0001
0000
0000
,  // measure 22
1000
1000
0000
0000
,  // measure 23
0001
0001
0000
0000
,  // measure 24
0100
0000
0010
0000
,  // measure 25
1000
1000
0000
0000
,  // measure 26
0001
0001
0000
0000
,  // measure 27
1000
1000
0000
0000
,  // measure 28
0010
0000
0100
0000
,  // measure 29
0001
0000
1000
0000
,  // measure 30
0010
0000
0100
0000
,  // measure 31
0001
0000
0010
0000
,  // measure 32
0100
0000
1000
0000
,  // measure 33
0001
0000
1000
0000
,  // measure 34
0010
0000
0100
0000
,  // measure 35
0001
0000
0010
0000
,  // measure 36
0100
0000
1000
0000
,  // measure 37
0001
0000
0000
0000
,  // measure 38
1000
0000
0000
0000
,  // measure 39
0001
0000
0000
0000
,  // measure 40
0100
0000
0010
0000
,  // measure 41
1000
1000
0000
0000
,  // measure 42
0001
0001
0000
0000
,  // measure 43
1000
1000
0000
0000
,  // measure 44
0010
0000
0100
0000
,  // measure 45
0001
0001
0000
0000
,  // measure 46
1000
1000
0000
0000
,  // measure 47
0001
0001
0000
0000
,  // measure 48
0100
0000
0010
0000
,  // measure 49
1000
0000
0001
0000
,  // measure 50
0100
0000
0010
0000
,  // measure 51
1000
0000
0100
0000
,  // measure 52
0010
0000
0001
0000
,  // measure 53
1000
0000
0000
0000
,  // measure 54
0001
0000
0000
0000
,  // measure 55
0100
0000
0000
0000
,  // measure 56
0010
0000
1000
0000
,  // measure 57
0001
0000
0000
0000
;

//---------------dance-single - Footswitches----------------
#NOTES:
     dance-single:
     Footswitches:
     Edit:
     13:
     0.512172,0.662788,0.356197,0.162612,0.545911,463.000000,417.000000,46.000000,21.000000,12.000000,0.000000,0.512172,0.662788,0.356197,0.162612,0.545911,463.000000,417.000000,46.000000,21.000000,12.000000,0.000000:
// measure 0
0000
0000
0000
0000
,  // measure 1
0000
0000
0000
0000
,  // measure 2
0000
0000
0000
0000
,  // measure 3
0000
0000
0000
0000
,  // measure 4
0000
1001
1001
1001
1001
1001
1001
1001
,  // measure 5
0000
0000
0000
0000
0000
0000
0000
0001
0100
0010
1000
0010
0100
0000
0001
0000
,  // measure 6
1000
0000
0001
0000
0000
0000
0000
1000
0100
0010
0001
0100
0001
0000
1000
0000
,  // measure 7
0001
0010
0000
0000
0100
1000
0020
0000
,  // measure 8
0030
0000
1000
0000
0100
1000
0001
0000
1000
0010
0100
0000
0001
0010
0001
0000
,  // measure 9
0000
0000
0000
0000
0000
0000
0000
1000
0001
0100
0010
0100
0001
0000
0010
0000
,  // measure 10
0100
0000
1000
0000
0000
0000
0000
0001
1000
0010
0100
0001
0100
0010
1000
0000
,  // measure 11
0001
0000
0010
0000
0000
0000
0000
0100
0010
0000
0001
0000
2000
0000
0000
0000
,  // measure 12
3000
0000
0001
0000
0010
0001
0010
0000
0001
1000
0100
0000
1000
0010
1000
0001
,  // measure 13
0010
0000
0000
0000
0000
0000
0100
1000
0000
0001
0000
1000
0000
0000
0001
0010
,  // measure 14
0001
0000
0000
0000
0000
0100
0010
1000
0000
0001
0000
0010
0000
0000
0100
1000
,  // measure 15
0001
0000
0000
0000
0000
0000
1000
0010
0000
0100
0000
0001
0000
0000
1000
0001
,  // measure 16
1000
0000
0000
0000
0000
0000
0000
0000
0000
0000
0010
0000
0100
0000
0001
1000
,  // measure 17
0100
0000
0000
0000
0000
0000
1000
0001
0000
0100
0010
1000
0001
0000
0100
0010
,  // measure 18
0000
0000
0000
0000
0000
0000
1000
0001
0000
0000
1000
0000
0100
0000
1000
0010
,  // measure 19
1000
0000
0000
0000
0000
0000
0001
0100
0001
0000
0000
0000
0000
0000
1000
0010
,  // measure 20
2000
0000
0000
0000
0000
0000
0000
0000
3004
0000
0000
0000
0003
0100
0010
1000
,  // measure 21
1001
0000
1001
0000
1001
0000
0010
1000
0010
0000
M010
0001
0000
0100
0000
0000
,  // measure 22
0011
0000
0011
0000
0011
0000
0010
0001
0010
0000
001M
1000
0000
0100
0000
0000
,  // measure 23
1010
0000
1010
0000
1010
0000
0010
1000
0010
0000
M010
0001
0000
0100
0000
0000
,  // measure 24
0020
0000
0000
0001
0000
0000
0100
0000
4030
0000
0000
0000
3000
0010
0100
0001
,  // measure 25
1001
0000
1001
0000
1001
0000
0100
0001
0100
0000
010M
1000
0000
0010
1000
0100
,  // measure 26
1100
0000
1100
0000
1100
0000
0100
1000
0100
0000
M100
0001
0000
0010
0001
0100
,  // measure 27
0101
0000
0101
0000
0101
0000
0100
0001
0100
0000
010M
1000
0000
0010
1000
0001
,  // measure 28
0200
0000
0000
0001
0000
0000
1000
0000
0010
0000
0000
0000
0302
0000
0000
0003
,  // measure 29
1001
0000
0010
0000
0001
0100
0001
0000
1000
0010
1000
0000
0001
0010
0100
1000
,  // measure 30
0010
0000
1000
0000
0001
0100
0001
0000
1000
1000
0001
0000
1000
0010
0100
0010
,  // measure 31
1000
0000
0001
0000
0010
0001
0100
0000
0010
1000
0100
0000
1000
0010
1000
0001
,  // measure 32
0020
0000
0000
1000
0000
0000
0001
0000
0430
0000
0000
0000
2300
0000
0000
3000
,  // measure 33
1001
0000
1000
0000
0001
0100
0001
0000
1000
0010
1000
0000
0001
0010
0100
0010
,  // measure 34
0001
0000
1000
0000
0010
0100
0001
0000
1000
1000
0010
0000
0100
0010
0100
0001
,  // measure 35
1000
0000
0100
0000
1000
0010
1000
0000
0001
0100
0001
0000
1000
0001
0100
0010
,  // measure 36
0200
0000
0000
1000
0000
0000
0001
0000
0340
0000
0000
0000
2030
0000
0000
0000
,  // measure 37
3000
0000
0000
0000
,  // measure 38
0000
0000
0000
0000
,  // measure 39
0000
0000
0000
0000
,  // measure 40
2000
0000
0000
0010
0000
0000
0100
0000
0001
0000
0000
0000
3010
0100
0010
1000
,  // measure 41
1001
0000
0110
0000
1001
0000
1000
0001
0010
0000
0M10
1000
0000
0001
0000
0000
,  // measure 42
1100
0000
1001
0000
1100
0000
0100
1000
0010
0000
M010
0001
0000
0100
0000
0000
,  // measure 43
0101
0000
1001
0000
0101
0000
0100
0001
0010
0000
001M
1000
0000
0100
0000
0000
,  // measure 44
2000
0000
0000
0010
0000
0000
0100
0000
3004
0000
0000
0000
0003
1000
0010
0100
,  // measure 45
0110
0000
1001
0000
0110
0000
1000
0001
0100
0000
010M
1000
0000
1000
0001
0010
,  // measure 46
0011
0000
0110
0000
0011
0000
0010
0001
0100
0000
01M0
1000
0000
0100
1000
0010
,  // measure 47
1010
0000
0110
0000
1010
0000
0010
1000
0100
0000
01M0
0001
0000
1000
0001
0100
,  // measure 48
0020
0000
0000
0001
0000
0000
1000
0000
0430
0000
0000
0000
0302
0000
0000
0003
,  // measure 49
1001
0000
0001
0000
1000
0100
0010
0000
1000
0100
0010
0000
0100
0010
0001
1000
,  // measure 50
0100
0000
1000
0000
0001
0100
0010
0000
1000
1000
0001
0000
1000
0010
0100
0001
,  // measure 51
0100
0000
0010
0000
1000
0100
0010
0000
1000
0100
0010
0000
0100
0010
0001
1000
,  // measure 52
0200
0000
0000
0001
0000
0000
0010
0000
4300
0000
0000
0000
3002
0000
0000
0000
,  // measure 53
0013
0000
0000
0000
0200
0000
0000
0000
0000
0000
0000
0000
1300
0010
0100
0001
,  // measure 54
0020
0000
0000
0000
0000
0000
0000
0000
0000
0000
0000
0030
0001
0000
0100
0001
,  // measure 55
2000
0000
0000
0000
3000
0000
0000
0100
,  // measure 56
0020
0000
0000
0001
0000
0000
1000
0000
0100
0000
0000
0000
0032
0000
0000
0000
,  // measure 57
0000
0003
0000
0000
0000
0000
0000
0000
0000
0000
0000
0000
0000
0000
0000
0000
;
