#VERSION:0.83;
#TITLE:Rolling in the Deep;
#SUBTITLE:;
#ARTIST:Adele;
#TITLETRANSLIT:;
#SUBTITLETRANSLIT:;
#ARTISTTRANSLIT:;
#GENRE:Pop;
#ORIGIN:;
#CREDIT:;
#BANNER:bn.png;
#BACKGROUND:bg.png;
#PREVIEWVID:;
#JACKET:jacket.png;
#CDIMAGE:;
#DISCIMAGE:;
#LYRICSPATH:;
#CDTITLE:;
#MUSIC:Rolling in the Deep.ogg;
#OFFSET:0.000000;
#SAMPLESTART:57.160446;
#SAMPLELENGTH:12.000000;
#SELECTABLE:YES;
#BPMS:0.000=105.000;
#STOPS:;
#DELAYS:;
#WARPS:;
#TIMESIGNATURES:0.000=4=4;
#TICKCOUNTS:0.000=4;
#COMBOS:0.000=1;
#SPEEDS:0.000=1.000=0.000=0;
#SCROLLS:0.000=1.000;
#FAKES:;
#LABELS:0.000=Song Start;
#BGCHANGES:0.000=Rolling In The Deep.mp4=1.000=1=0=0=StretchNoLoop==CrossFade==,
260.000=bg.png=1.000=1=0=1===CrossFade==,
99999=-nosongbg-=1.000=0=0=0 // don't automatically add -songbackground-
;
#KEYSOUNDS:;
#ATTACKS:
;

//---------------dance-single - ----------------
#NOTEDATA:;
#CHARTNAME:;
#STEPSTYPE:dance-single;
#DESCRIPTION:;
#CHARTSTYLE:Pad;
#DIFFICULTY:Beginner;
#METER:2;
#RADARVALUES:0.129771,0.151956,0.006679,0.000000,0.000000,136.000000,135.000000,1.000000,0.000000,4.000000,0.000000,0.000000,0.000000,0.000000,0.129771,0.151956,0.006679,0.000000,0.000000,136.000000,135.000000,1.000000,0.000000,4.000000,0.000000,0.000000,0.000000,0.000000;
#CREDIT:Galamoth;
#NOTES:
0000
0000
0000
0000
,
0000
0000
0000
0000
,
0000
0000
0000
0000
,
0000
0000
0000
0000
,
0000
0000
0000
0000
,
000M
0000
0000
0000
,
00M0
0000
0000
0000
,
0M00
0000
0000
0000
,
M000
0000
0000
0000
,
0001
0000
0001
0000
,
1000
0000
1000
0000
,
0001
0000
0001
0000
,
1000
0000
1000
0000
,
0010
0000
0010
0000
,
0100
0000
0100
0000
,
0010
0000
0010
0000
,
0100
0000
0100
0000
,
0001
0001
0000
0000
,
1000
1000
0000
0000
,
0001
0001
0000
0000
,
1000
1000
0000
0000
,
0100
0100
0000
0000
,
0010
0010
0000
0000
,
0001
0001
0000
0000
,
1000
0000
0001
0000
,
1000
1000
1000
0000
,
0001
0001
0001
0000
,
1000
1000
1000
0000
,
0001
0001
0001
0000
,
0100
0100
0100
0000
,
0010
0010
0010
0000
,
0100
0100
0100
0000
,
0010
0010
0010
0000
,
1000
0000
1000
0000
,
0001
0000
0001
0000
,
1000
0000
1000
0000
,
0001
0000
0001
0000
,
0100
0000
0100
0000
,
0010
0000
0010
0000
,
0100
0000
0100
0000
,
0010
0000
0010
0000
,
1000
1000
0000
0000
,
0001
0001
0000
0000
,
1000
1000
0000
0000
,
0001
0001
0000
0000
,
0010
0010
0000
0000
,
0100
0100
0000
0000
,
1000
1000
0000
0000
,
0001
0000
1000
0000
,
0001
0001
0001
0000
,
1000
1000
1000
0000
,
0001
0001
0001
0000
,
1000
1000
1000
0000
,
0010
0010
0010
0000
,
0100
0100
0100
0000
,
0010
0010
0010
0000
,
0100
0100
0100
0000
,
0001
0001
1000
0000
,
1000
1000
0001
0000
,
0001
0001
0100
0000
,
1000
1000
0100
0000
,
0001
0001
1000
0000
,
1000
1000
0001
0000
,
1000
0000
1000
0000
,
1000
0000
1000
0000
,
1001
0000
0000
0000
;

//---------------dance-single - ----------------
#NOTEDATA:;
#CHARTNAME:;
#STEPSTYPE:dance-single;
#DESCRIPTION:;
#CHARTSTYLE:Pad;
#DIFFICULTY:Hard;
#METER:12;
#RADARVALUES:0.538169,0.633771,0.621184,0.013359,0.177004,564.000000,471.000000,93.000000,2.000000,16.000000,0.000000,0.000000,0.000000,0.000000,0.538169,0.633771,0.621184,0.013359,0.177004,564.000000,471.000000,93.000000,2.000000,16.000000,0.000000,0.000000,0.000000,0.000000;
#CREDIT:Gradi;
#NOTES:
// measure 0
0000
0000
0000
0000
,  // measure 1
0000
0000
0000
0000
,  // measure 2
0000
0000
0000
0000
,  // measure 3
0000
0000
0000
0000
,  // measure 4
0000
0000
0000
0000
,  // measure 5
000M
000M
000M
000M
,  // measure 6
00M0
00M0
00M0
00M0
,  // measure 7
0M00
0M00
0M00
0M00
,  // measure 8
M000
M000
M000
M000
,  // measure 9
0001
0101
1000
1100
,  // measure 10
0001
0101
1000
1100
,  // measure 11
0001
0011
1000
1010
,  // measure 12
0001
0011
1000
1010
,  // measure 13
0001
0110
1000
0110
,  // measure 14
0001
0110
1000
0110
,  // measure 15
0001
1001
0010
1001
,  // measure 16
0100
0000
1001
0000
1000
0000
0101
0010
,  // measure 17
1001
0000
0001
0000
1000
0000
0010
0000
0100
0000
0010
0000
1000
0000
0001
0010
,  // measure 18
0001
0100
0001
1000
0010
0100
0110
0010
,  // measure 19
1001
0000
0001
0000
0010
0000
0100
0000
1000
0000
0001
0000
1000
0000
0010
0100
,  // measure 20
0010
1000
0010
0100
0001
1000
0001
0011
,  // measure 21
1001
0000
0100
0000
1000
0000
0001
0000
1001
0000
0010
0000
0001
0000
1000
0100
,  // measure 22
1000
0010
0100
0001
0010
0001
0100
0110
,  // measure 23
1001
0010
1000
0100
1000
0001
0011
1000
,  // measure 24
0001
0000
0100
0000
0001
0000
1000
0000
0010
0000
1000
0000
0100
0010
0100
0010
,  // measure 25
0001
0000
0001
1000
0001
0000
0001
0000
0001
0000
0001
0000
1001
0000
0001
0000
,  // measure 26
0100
0010
0100
0000
0100
0000
0100
0000
0100
0000
0100
0000
0110
0000
0100
0001
,  // measure 27
1000
1000
1001
1000
1000
1000
1100
1000
,  // measure 28
0010
0000
0010
0000
1010
0000
0010
0000
0010
0000
0010
0000
0110
0000
0010
0100
,  // measure 29
0001
0000
0001
1000
0001
0000
0001
0000
0001
0000
0001
0000
1001
0000
0001
0000
,  // measure 30
0100
0010
0100
0000
0100
0000
0100
0000
0100
0000
0100
0000
0110
0000
0100
0010
,  // measure 31
1000
1000
1010
1000
1000
1000
1100
1000
,  // measure 32
0001
0000
0001
0000
1001
0000
0001
1000
0001
0000
0001
0000
1000
0001
1000
0001
,  // measure 33
1000
0001
1000
0001
1000
0001
1000
0001
,  // measure 34
0100
0010
0100
0010
0100
0010
0100
0010
,  // measure 35
1000
0100
1000
0100
0010
0001
0010
0001
,  // measure 36
1000
0100
0010
0000
0100
0000
1000
0000
0001
0000
0100
0010
0100
0000
0010
0000
,  // measure 37
1000
0010
1001
1000
0010
0100
0001
0010
,  // measure 38
0001
1000
1001
0100
1000
0001
0010
0100
,  // measure 39
1000
0001
0101
1000
0001
0100
0010
1000
,  // measure 40
0100
0000
0010
0000
1001
0000
0001
0000
0100
0000
0010
0100
0010
0000
1000
0000
,  // measure 41
1001
0000
0001
1000
0001
0000
0010
0000
0001
0000
0100
0000
1001
0000
1000
0000
,  // measure 42
0010
0100
0001
0000
1001
0000
0100
0000
1000
0000
0001
0000
0101
0000
0010
0000
,  // measure 43
1000
0001
0011
0010
0100
1000
1001
0010
,  // measure 44
0001
0000
1000
0000
1100
0000
0010
0000
0001
0000
1000
0000
0101
0000
0010
0100
,  // measure 45
0001
0000
1000
0001
1000
0000
0010
0000
0101
0000
0010
0000
1001
0000
1000
0010
,  // measure 46
0100
0001
0010
0000
1001
0000
0100
0000
1001
0000
0010
0000
0101
0000
0100
0000
,  // measure 47
1001
0000
0100
0000
1010
0000
0100
0000
1001
0000
0010
0000
0101
0000
1000
0001
,  // measure 48
1001
0000
1001
0000
1001
0000
0010
0000
1001
0000
1000
0010
0100
0010
0100
0010
,  // measure 49
1000
0000
1000
0001
1000
0000
1000
0000
1000
0000
1000
0000
1001
0000
1000
0000
,  // measure 50
0010
0100
0010
0000
0010
0000
0010
0000
0010
0000
0010
0000
0110
0000
0010
1000
,  // measure 51
0001
0000
0001
0000
1001
0000
0001
0000
0001
0000
0001
0000
0011
0000
0001
1000
,  // measure 52
0010
0000
0010
0000
1010
0000
0010
0000
0010
0000
0010
0000
0110
0000
0010
0100
,  // measure 53
0001
0000
0001
1000
0001
0000
0001
0000
0001
0000
0001
0000
1001
0000
0001
0000
,  // measure 54
0100
0010
0100
0000
0100
0000
0100
0000
0100
0000
0100
0000
0110
0000
0100
0010
,  // measure 55
1000
1000
1010
1000
1000
1000
1100
1000
,  // measure 56
0001
0000
0001
0000
1001
0000
0001
1000
0001
0000
0001
0000
0010
0001
0010
0001
,  // measure 57
1000
0000
1000
0100
1000
0000
1000
0000
1010
0000
1000
0000
1001
0000
1000
0000
,  // measure 58
0010
0100
0010
0000
1010
0000
0010
0000
0110
0000
0001
0000
1100
0000
0010
0000
,  // measure 59
0101
0000
0100
0000
0110
0000
0100
0000
0101
0000
0100
0000
0110
0000
0100
0010
,  // measure 60
1000
0000
1000
0000
1001
0000
0010
0000
0101
0000
0010
0000
1001
0000
0001
1000
,  // measure 61
0010
0000
0010
0100
0010
0000
0010
0000
0110
0000
1000
0000
0101
0000
0010
0100
,  // measure 62
0001
0001
0101
0001
0011
0100
1001
0010
,  // measure 63
1001
0000
0100
1000
0001
0000
0010
0000
1001
0000
0100
1000
0001
0000
0010
0000
,  // measure 64
0001
1000
0001
0000
1001
0000
1000
0001
1000
0010
0100
0001
0010
0100
1000
0001
,  // measure 65
2002
0000
0000
0000
0000
0000
0000
3003
0000
0000
0000
0000
0000
0000
0000
0000
;

//---------------dance-single - ----------------
#NOTEDATA:;
#CHARTNAME:;
#STEPSTYPE:dance-single;
#DESCRIPTION:;
#CHARTSTYLE:Pad;
#DIFFICULTY:Medium;
#METER:7;
#RADARVALUES:0.275764,0.371521,0.026718,0.073473,0.000000,289.000000,285.000000,4.000000,11.000000,16.000000,0.000000,0.000000,0.000000,0.000000,0.275764,0.371521,0.026718,0.073473,0.000000,289.000000,285.000000,4.000000,11.000000,16.000000,0.000000,0.000000,0.000000,0.000000;
#CREDIT:Galamoth;
#NOTES:
0000
0000
0000
0000
,
0000
0000
0000
0000
,
0000
0000
0000
0000
,
0000
0000
0000
0000
,
0000
0000
0000
0000
,
000M
000M
000M
000M
,
00M0
00M0
00M0
00M0
,
0M00
0M00
0M00
0M00
,
M000
M000
M000
M000
,
0001
1000
0001
1000
,
0010
0100
0010
0100
,
0001
0010
0001
0010
,
0100
1000
0100
1000
,
0001
0100
0001
0100
,
0010
1000
0010
1000
,
0001
1000
0001
1000
,
0010
0100
0010
0100
,
0001
1000
0001
1000
0001
0000
0100
0000
,
0010
0100
0010
0100
0010
0000
0100
0000
,
0001
1000
0001
1000
0001
0000
0010
0000
,
0100
0010
0100
0010
0100
0000
1000
0000
,
0001
0100
0010
0000
1000
0000
0001
0000
,
1000
0100
0010
0000
0001
0000
1000
0000
,
0010
0100
0001
0000
1000
0000
0001
0000
,
0010
0100
1000
0000
0001
0000
1001
0000
,
1000
0001
1000
0000
0001
1000
0001
0000
,
0100
0010
0100
0000
0010
0100
0010
0000
,
1000
0100
1000
0000
0100
1000
0100
0000
,
0010
0001
0010
0000
0001
0010
0001
0000
,
2000
0010
0001
3100
,
0002
0010
1000
0103
,
2000
0100
0001
3010
,
0002
0100
1000
0013
,
0001
1000
0001
1000
,
0010
0100
0010
0100
,
0001
0010
0001
0010
,
0100
1000
0100
1000
,
0001
0100
0010
0000
1000
0000
0100
0000
,
0010
0001
1000
0000
0010
0000
1000
0000
,
0001
0010
0100
0000
1000
0000
0001
0000
,
0010
0100
1000
0000
0010
0000
0100
0000
,
0001
1000
0001
1000
0001
0000
0100
0000
,
0010
0100
0010
0100
0010
0000
0100
0000
,
0001
1000
0001
1000
0001
0000
0010
0000
,
0100
0010
0100
0010
0100
0000
1000
0000
,
0001
0100
0010
0000
1000
0000
0001
0000
,
1000
0100
0010
0000
0001
0000
1000
0000
,
0010
0100
0001
0000
1000
0000
0001
0000
,
0010
0100
1000
0000
0001
0000
1001
0000
,
1000
0001
1000
0000
0001
1000
0001
0000
,
0100
0010
0100
0000
0010
0100
0010
0000
,
1000
0100
1000
0000
0100
1000
0100
0000
,
0010
0001
0010
0000
0001
0010
0001
0000
,
2000
0010
0001
3100
,
0002
0010
1000
0103
,
2000
0100
0001
3010
,
0002
0100
1000
0013
,
1000
0001
1000
0001
1000
0000
0001
0000
,
0100
0010
0100
0010
0100
0000
0010
0000
,
1000
0100
1000
0100
1000
0000
0100
0000
,
0010
0001
0010
0001
0010
0000
0001
0000
,
2001
0010
0001
3100
,
1002
0010
1000
0103
,
0001
0100
0001
0100
0010
1000
0010
1000
,
0001
0100
0001
0100
0010
1000
0010
1000
,
0002
0000
0000
0000
0000
0000
0000
0003
0000
0000
0000
0000
0000
0000
0000
0000
;

//---------------dance-single - ----------------
#NOTEDATA:;
#CHARTNAME:;
#STEPSTYPE:dance-single;
#DESCRIPTION:;
#CHARTSTYLE:Pad;
#DIFFICULTY:Easy;
#METER:5;
#RADARVALUES:0.185115,0.217081,0.006679,0.000000,0.000000,194.000000,193.000000,1.000000,0.000000,8.000000,0.000000,0.000000,0.000000,0.000000,0.185115,0.217081,0.006679,0.000000,0.000000,194.000000,193.000000,1.000000,0.000000,8.000000,0.000000,0.000000,0.000000,0.000000;
#CREDIT:Galamoth;
#NOTES:
0000
0000
0000
0000
,
0000
0000
0000
0000
,
0000
0000
0000
0000
,
0000
0000
0000
0000
,
0000
0000
0000
0000
,
000M
0000
000M
0000
,
00M0
0000
00M0
0000
,
0M00
0000
0M00
0000
,
M000
0000
M000
0000
,
0001
0001
0001
0000
,
1000
1000
1000
0000
,
0010
0010
0010
0000
,
0100
0100
0100
0000
,
0001
1000
0001
0000
,
1000
0001
1000
0000
,
0010
0100
0010
0000
,
0100
0010
0100
0000
,
0001
0010
0001
0000
,
1000
0010
1000
0000
,
0001
0100
0001
0000
,
1000
0100
1000
0000
,
0001
0100
0010
0000
,
1000
0010
0100
0000
,
0001
0010
0100
0000
,
1000
0100
0010
0000
,
0001
0001
0001
0001
,
0100
0100
0100
0100
,
0010
0010
0010
0010
,
1000
1000
1000
1000
,
0001
0001
0010
0010
,
0100
0100
1000
1000
,
0001
0001
1000
1000
,
0010
0010
0100
0100
,
0001
0001
0001
0000
,
1000
1000
1000
0000
,
0010
0010
0010
0000
,
0100
0100
0100
0000
,
0001
1000
0001
0000
,
1000
0001
1000
0000
,
0010
0100
0010
0000
,
0100
0010
0100
0000
,
0001
0010
0001
0000
,
1000
0010
1000
0000
,
0001
0100
0001
0000
,
1000
0100
1000
0000
,
0001
0100
0010
0000
,
1000
0010
0100
0000
,
0001
0010
0100
0000
,
1000
0100
0010
0000
,
0001
0001
0001
0001
,
0100
0100
0100
0100
,
0010
0010
0010
0010
,
1000
1000
1000
1000
,
0001
0001
0010
0010
,
0100
0100
1000
1000
,
0001
0001
1000
1000
,
0010
0010
0100
0100
,
0001
1000
0001
1000
,
0010
0100
0010
0100
,
0001
0010
0001
0010
,
0100
1000
0100
1000
,
0001
0100
0001
0100
,
0010
1000
0010
1000
,
0001
0001
1000
1000
,
0001
0001
1000
1000
,
1001
0000
0000
0000
;
