#TITLE:Miss Me More;
#SUBTITLE:;
#ARTIST:Kelsea Ballerini;
#TITLETRANSLIT:;
#SUBTITLETRANSLIT:;
#ARTISTTRANSLIT:;
#GENRE:Country;
#CREDIT:;
#BANNER:bn.png;
#BACKGROUND:bg.png;
#LYRICSPATH:;
#CDTITLE:;
#MUSIC:Miss Me More.ogg;
#OFFSET:0.000014;
#SAMPLESTART:58.850471;
#SAMPLELENGTH:10.000000;
#SELECTABLE:YES;
#BPMS:0.000=96.000;
#STOPS:
;
#BGCHANGES:0.000=Miss Me More.mp4=1.000=1=0=0=StretchNoLoop==CrossFade==,
231.000=bg.png=1.000=1=0=1===CrossFade==,
99999=-nosongbg-=1.000=0=0=0 // don't automatically add -songbackground-
;
#KEYSOUNDS:;
#ATTACKS:;

//---------------dance-single - ----------------
#NOTES:
     dance-single:
     :
     Hard:
     11:
     0.379310,0.438103,0.089655,0.234483,0.293103,385.000000,372.000000,13.000000,34.000000,0.000000,0.000000,0.379310,0.438103,0.089655,0.234483,0.293103,385.000000,372.000000,13.000000,34.000000,0.000000,0.000000:
0000
0000
0000
0000
,
0000
0000
0000
0000
,
0001
0000
0000
0000
0000
0100
0010
0000
0000
1000
0000
0000
1000
0000
0000
0000
0000
0100
0010
0000
0000
0001
0000
0000
,
0001
0000
0000
0000
0000
0000
0000
0000
0000
0000
0100
0000
0010
0000
0000
0000
0000
0000
1000
0000
0000
0000
0000
0000
1000
0000
0000
0000
0000
0000
0000
0000
0000
0000
0100
0000
0010
0000
0000
0000
0000
0000
0001
0000
0000
1000
0000
0000
,
0001
0100
0010
1000
0001
1000
0010
0100
,
0001
0000
0000
0000
0000
0000
1000
0000
0000
0000
0000
0000
0010
0000
0000
0000
0000
0000
0100
0000
0000
0000
0000
0000
0010
0000
0000
0000
0000
0000
1000
0000
0000
0000
0000
0000
0000
0000
0000
0000
0001
0000
1000
0000
0000
0001
0000
0000
,
1000
0000
0000
0100
0000
0000
0010
0000
0000
0001
0000
0000
0020
0000
0000
0000
0000
0000
0030
0000
0000
0001
0000
1000
,
0001
0000
0000
1000
0000
0000
0001
0000
0000
0000
0000
0000
0010
0000
0000
0100
0000
0000
1000
0000
0000
0000
0000
0000
0200
0000
0000
0000
0000
0000
0000
0000
0000
0000
0000
0000
0300
0000
0000
0000
1000
0000
0001
0000
0000
1000
0000
0000
,
0001
0100
0010
1000
0100
1000
0010
0100
,
0001
0010
0001
0100
0010
1000
0001
0010
,
0100
0000
0000
1000
0000
0000
0000
0000
0000
0001
0000
0000
1000
0000
0000
0000
0000
0001
1000
0000
0000
0100
0000
0000
,
0010
0001
0000
0000
0000
0100
0001
1000
,
2001
0000
0000
3100
0000
0000
0010
0001
0010
0001
0000
1000
0001
0000
0100
0000
,
0002
0000
0000
0103
0000
0000
0010
1000
0010
1000
0000
0000
0001
0000
0100
0000
,
0020
0000
0000
0030
0100
0000
0000
0000
0000
0000
0001
0000
0010
0000
0100
0000
,
2000
0000
0000
0010
0000
0000
0000
0000
3000
0000
0000
0000
0000
0000
0000
0000
,
2010
0010
0001
0001
,
0100
0100
0001
3001
,
0012
0010
1000
1000
,
0100
0000
0000
0000
0100
0000
0000
0000
1000
0000
0000
0000
1003
0000
0001
1000
,
0100
0000
1000
0010
0000
0000
1000
0000
0000
0001
0000
0100
0010
0000
0100
0001
0000
0000
1000
0000
0000
0000
0000
0001
,
1000
0000
0000
0000
0000
0000
0000
0000
0000
0000
0000
0000
0000
0000
0000
0000
0000
0000
0000
0000
0000
0000
0000
0000
0010
0000
0000
0000
0000
0000
0000
0000
0000
0000
0000
0000
0000
0000
0000
0000
1000
0000
0000
0000
0000
0000
0000
0000
0001
0000
0000
0000
0000
0000
0000
0000
0000
0000
0000
0000
0000
0000
0000
0000
0000
0000
0000
0000
0000
0000
0000
0000
1000
0000
0000
0000
0000
0000
0000
0000
0000
0000
0000
0000
0000
0000
0000
0000
0000
0000
0010
0000
0000
0000
0000
0000
0000
0000
0000
0000
0000
0000
0000
0000
0000
0000
0000
0000
0000
0000
0000
0000
0000
0000
0000
0000
0000
0000
0000
0000
1000
0000
0000
0000
0000
0000
0000
0000
0000
0000
0000
0000
0000
0000
0000
0000
0000
0000
0000
0000
0000
0000
0000
0000
0100
0000
0000
0000
0000
0000
0000
0000
0000
0000
0000
0000
0000
0000
0000
0000
0000
0000
0000
0000
0000
0000
0000
0000
0010
0000
0000
0000
0000
0000
0000
0000
0000
0000
0000
0000
0000
0000
0000
0000
0000
0000
0000
0000
0000
0000
0000
0000
,
0002
0000
0000
0003
0100
0000
0000
0000
0000
0000
0001
0000
0010
0000
0100
0000
,
2000
0002
3003
0000
,
0012
0000
0000
0010
0000
0000
1000
0000
0000
0100
0000
0000
1003
0000
1000
0001
,
2000
0000
0000
0010
0000
0000
0001
0000
0000
0100
0000
0000
3001
0000
1000
0000
,
1200
0000
0000
1000
0000
0000
0010
0000
0000
0001
0000
0000
0310
0000
0010
0100
,
0020
0000
0000
0001
0000
0000
0100
0000
0000
1000
0000
0000
0130
0000
0010
0000
,
0001
0100
0010
1000
0001
1000
0010
0100
,
0001
0000
1000
0100
1000
0000
0001
0010
0001
0000
0100
0000
0000
0000
0010
1000
,
0001
0000
0000
0000
0000
0000
0010
0000
0000
0000
0000
0000
0100
0000
0000
0000
0000
0000
1000
0000
0000
0000
0000
0000
0020
0000
0000
0000
0000
0000
0000
0000
0000
0000
0000
0000
0030
0000
0000
0000
1000
0000
0001
0000
0000
1000
0000
0000
,
0001
1000
0100
0010
0002
0003
1001
1000
,
0001
0100
0010
1000
0100
1000
0010
0100
,
0001
0010
0001
0100
0010
1000
0001
0010
,
0100
0000
0000
1000
0000
0000
0000
0000
0000
0001
0000
0000
1000
0000
0000
0000
0000
0001
1000
0000
0000
0100
0000
0000
,
0010
0001
0000
0000
0000
0100
0001
1000
,
2001
0000
0000
3100
0000
0000
0010
0001
0010
0001
0000
1000
0001
0000
0100
0000
,
0002
0000
0000
0103
0000
0000
0010
1000
0010
1000
0000
0000
0001
0000
0100
0000
,
0020
0000
0000
0000
0000
0000
0000
0000
0000
0130
0000
0000
0000
0000
0000
0000
0000
0000
0000
0000
0000
0000
0000
0000
0000
0000
0000
0000
1000
0000
0001
0000
0000
0000
0000
0000
0010
0000
0000
0000
0000
0000
0100
0000
0000
0000
0000
0000
,
2000
0000
0000
0000
0000
0000
0000
0010
0000
0000
0000
0000
0000
0000
0000
0000
3000
0000
0000
0000
0000
0000
0000
0000
0000
0000
0000
0000
0000
0000
0000
0000
,
2010
0010
0001
0001
,
0100
0100
0001
3001
,
0012
0010
1000
1000
,
0100
0000
0000
0000
0100
0000
0000
0000
1000
0000
0000
0000
1003
0000
0001
1000
,
0100
0000
1000
0010
0000
0000
1000
0000
0000
0001
0000
0100
0010
0000
0100
0001
0000
0000
1000
0000
0000
0000
0000
0001
,
1000
0000
0000
0000
0000
0000
0000
0000
0000
0000
0000
0000
0000
0000
0000
0000
0000
0000
0000
0000
0000
0000
0000
0000
0010
0000
0000
0000
0000
0000
0000
0000
0000
0000
0000
0000
0000
0000
0000
0000
1000
0000
0000
0000
0000
0000
0000
0000
0001
0000
0000
0000
0000
0000
0000
0000
0000
0000
0000
0000
0000
0000
0000
0000
0000
0000
0000
0000
0000
0000
0000
0000
1000
0000
0000
0000
0000
0000
0000
0000
0000
0000
0000
0000
0000
0000
0000
0000
0000
0000
0010
0000
0000
0000
0000
0000
0000
0000
0000
0000
0000
0000
0000
0000
0000
0000
0000
0000
0000
0000
0000
0000
0000
0000
0000
0000
0000
0000
0000
0000
1000
0000
0000
0000
0000
0000
0000
0000
0000
0000
0000
0000
0000
0000
0000
0000
0000
0000
0000
0000
0000
0000
0000
0000
0100
0000
0000
0000
0000
0000
0000
0000
0000
0000
0000
0000
0000
0000
0000
0000
0000
0000
0000
0000
0000
0000
0000
0000
0010
0000
0000
0000
0000
0000
0000
0000
0000
0000
0000
0000
0000
0000
0000
0000
0000
0000
0000
0000
0000
0000
0000
0000
,
0002
0000
0000
0003
0100
0000
0000
0000
0000
0000
0001
0000
0010
0000
0100
0000
,
2000
0002
3003
0000
,
0012
0000
0000
0010
0000
0000
1000
0000
0000
0100
0000
0000
1003
0000
1000
0001
,
2000
0000
0000
0010
0000
0000
0001
0000
0000
0100
0000
0000
3001
0000
1000
0000
,
1200
0000
0000
1000
0000
0000
0010
0000
0000
0001
0000
0000
0310
0000
0010
0100
,
0020
0000
0000
0001
0000
0000
0100
0000
0000
1000
0000
0000
0130
0000
0010
0000
,
1002
0000
0000
0100
0000
0000
0010
0000
0000
0100
0000
0000
0013
0000
0010
0100
,
2000
0000
0000
0100
0000
0000
0010
0000
0000
0100
0000
0000
3010
0000
0100
0000
,
0120
0000
0000
0100
0000
0000
1000
0000
0000
0001
0000
0000
1030
0000
0001
0010
,
0200
0000
0000
0010
0000
0000
0001
0000
0000
1000
0000
0000
0310
0000
0001
0000
,
1000
0000
0000
0000
0000
0100
0010
0000
0000
0001
0000
0000
0001
0000
0000
0000
0000
0100
0010
0000
0000
1000
0000
0000
,
1000
0000
0000
0000
0000
0100
0010
0000
0000
0001
0000
0000
0001
0000
0000
0000
0000
0100
0010
0000
0000
0000
0000
0000
;

//---------------dance-single - ----------------
#NOTES:
     dance-single:
     :
     Medium:
     7:
     0.285714,0.298707,0.048276,0.206897,0.000000,290.000000,283.000000,7.000000,30.000000,0.000000,0.000000,0.285714,0.298707,0.048276,0.206897,0.000000,290.000000,283.000000,7.000000,30.000000,0.000000,0.000000:
0000
0000
0000
0000
,
0000
0000
0000
0000
,
0000
0000
0000
0000
,
0000
0000
0000
0000
,
1000
0100
1000
0000
0001
0100
0001
0000
,
1000
0010
1000
0000
0001
0010
0001
0000
,
1000
0010
1000
0010
1000
0000
0000
0000
,
0001
0100
0001
0100
0001
0000
0000
0000
,
1000
0010
1000
0000
0001
0010
0001
0000
,
1000
0100
1000
0000
0001
0100
0001
0000
,
1000
0001
0100
0000
0001
1000
0100
0000
,
1000
0001
0010
0000
0001
0000
1000
0000
,
0002
0000
1003
0000
0010
1000
0100
0000
,
2000
0000
3001
0000
0010
0001
0100
0000
,
0020
0000
0130
0000
0001
0010
0100
1000
,
0002
2000
3003
0000
,
2001
0010
3020
0100
,
0230
0001
0302
1000
,
2003
0100
3200
0010
,
0320
0001
0032
1000
,
1003
0100
0010
0000
0001
0010
0100
0000
,
1000
0010
0100
0000
0001
0100
0010
0000
,
1000
0100
0010
0100
1000
0100
0010
0000
,
0001
0100
0010
0100
0001
0000
0000
0000
,
0110
0000
0010
1000
0100
0000
0010
0001
,
0200
0010
0001
0310
,
1001
0000
0100
0001
0010
0000
0100
1000
,
0020
0100
1000
0130
,
1000
0100
1000
0000
0001
0100
0001
0000
,
1000
0010
1000
0000
0001
0010
0001
0000
,
1000
0010
1000
0010
1000
0000
0000
0000
,
0001
0100
0001
0100
0001
0000
0000
0000
,
1000
0010
1000
0000
0001
0010
0001
0000
,
1000
0100
1000
0000
0001
0100
0001
0000
,
1000
0001
0100
0000
0001
1000
0100
0000
,
1000
0001
0010
0000
0001
0000
1000
0000
,
0002
0000
1003
0000
0010
1000
0100
0000
,
2000
0000
3001
0000
0010
0001
0100
0000
,
0020
0000
0130
0000
0001
0010
0100
1000
,
0002
2000
3003
0000
,
2001
0010
3020
0100
,
0230
0001
0302
1000
,
2003
0100
3200
0010
,
0320
0001
0032
1000
,
1003
0100
0010
0000
0001
0010
0100
0000
,
1000
0010
0100
0000
0001
0100
0010
0000
,
1000
0100
0010
0100
1000
0100
0010
0000
,
0001
0100
0010
0100
0001
0000
0000
0000
,
0110
0000
0010
1000
0100
0000
0010
0001
,
0200
0010
1000
0310
,
1001
0000
0100
0001
0010
0000
0100
1000
,
0020
0100
0001
0130
,
1001
0000
0001
0010
0100
0000
1000
0100
,
0010
0000
0001
0100
0010
1000
0010
0100
,
0001
0000
1000
0010
0100
0000
0001
0100
,
0010
0000
1000
0100
0010
0001
0010
0100
,
1000
0000
0001
0100
0001
0000
0100
1000
,
0100
0000
1000
0010
1000
0000
0010
0000
;

//---------------dance-single - ----------------
#NOTES:
     dance-single:
     :
     Easy:
     4:
     0.154680,0.179224,0.000000,0.055172,0.000000,157.000000,157.000000,0.000000,8.000000,0.000000,0.000000,0.154680,0.179224,0.000000,0.055172,0.000000,157.000000,157.000000,0.000000,8.000000,0.000000,0.000000:
0000
0000
0000
0000
,
0000
0000
0000
0000
,
0000
0000
0000
0000
,
0000
0000
0000
0000
,
1000
0001
1000
0001
,
0100
0010
0100
0000
,
0001
0001
0001
0000
,
1000
1000
1000
0000
,
0001
1000
0001
1000
,
0010
0100
0010
0000
,
1000
0000
1000
0000
,
0001
0000
0000
0000
,
1000
0100
1000
0000
,
0001
0100
0001
0000
,
1000
0001
1000
0001
,
1000
0000
0000
0000
,
0002
0000
0003
0000
,
2000
0000
3000
0000
,
0020
0000
0030
0000
,
0200
0000
0300
0000
,
0001
0010
0001
0010
,
0100
1000
0100
1000
,
0001
0001
0001
0000
,
1000
1000
1000
0000
,
0001
0001
1000
1000
,
0001
0010
0100
1000
,
0001
0001
1000
1000
,
0001
0010
0100
1000
,
0001
0001
1000
0001
,
0100
0010
0100
0000
,
0001
0001
0001
0000
,
1000
1000
1000
0000
,
0001
1000
0001
1000
,
0010
0100
0010
0000
,
1000
0000
1000
0000
,
0001
0000
0000
0000
,
1000
0100
1000
0000
,
0001
0100
0001
0000
,
1000
0001
1000
0001
,
1000
0000
0000
0000
,
0002
0000
0003
0000
,
2000
0000
3000
0000
,
0020
0000
0030
0000
,
0200
0000
0300
0000
,
0001
0010
0001
0010
,
0100
1000
0100
1000
,
0001
0001
0001
0000
,
1000
1000
1000
0000
,
0001
0001
1000
1000
,
0001
0010
0100
1000
,
0001
0001
1000
1000
,
0001
0010
0100
1000
,
0001
0001
1000
1000
,
0001
0010
0100
1000
,
0001
0001
1000
1000
,
0001
0010
0100
1000
,
0001
0000
1000
0000
,
0001
0000
1000
0100
;

//---------------dance-single - ----------------
#NOTES:
     dance-single:
     :
     Beginner:
     2:
     0.091626,0.099569,0.000000,0.055172,0.000000,93.000000,93.000000,0.000000,8.000000,0.000000,0.000000,0.091626,0.099569,0.000000,0.055172,0.000000,93.000000,93.000000,0.000000,8.000000,0.000000,0.000000:
// measure 0
0000
0000
0000
0000
,  // measure 1
0000
0000
0000
0000
,  // measure 2
0000
0000
0000
0000
,  // measure 3
0000
0000
0000
0000
,  // measure 4
1000
0000
1000
0000
,  // measure 5
0001
0000
0001
0000
,  // measure 6
1000
0000
0010
0000
,  // measure 7
1000
0000
0100
0000
,  // measure 8
1000
0000
1000
0000
,  // measure 9
0001
0000
0001
0000
,  // measure 10
1000
0000
0100
0000
,  // measure 11
0010
0000
0000
0000
,  // measure 12
0001
0000
0001
0000
,  // measure 13
1000
0000
1000
0000
,  // measure 14
0010
0000
0010
0000
,  // measure 15
0100
0000
0000
0000
,  // measure 16
0002
0003
0000
0000
,  // measure 17
2000
3000
0000
0000
,  // measure 18
0002
0003
0000
0000
,  // measure 19
2000
3000
0000
0000
,  // measure 20
0001
0000
1000
0000
,  // measure 21
0010
0000
0100
0000
,  // measure 22
0001
0000
0000
0000
,  // measure 23
1000
0000
0000
0000
,  // measure 24
0001
0000
1000
0000
,  // measure 25
0001
0000
1000
0000
,  // measure 26
0010
0000
0100
0000
,  // measure 27
0010
0000
0100
0000
,  // measure 28
0001
0000
0001
0000
,  // measure 29
1000
0000
1000
0000
,  // measure 30
0001
0000
0100
0000
,  // measure 31
0001
0000
0010
0000
,  // measure 32
0001
0000
0001
0000
,  // measure 33
1000
0000
1000
0000
,  // measure 34
0001
0000
0010
0000
,  // measure 35
0100
0000
0000
0000
,  // measure 36
1000
0000
1000
0000
,  // measure 37
0001
0000
0001
0000
,  // measure 38
0100
0000
0100
0000
,  // measure 39
0010
0000
0000
0000
,  // measure 40
2000
3000
0000
0000
,  // measure 41
0002
0003
0000
0000
,  // measure 42
2000
3000
0000
0000
,  // measure 43
0002
0003
0000
0000
,  // measure 44
1000
0000
0001
0000
,  // measure 45
0100
0000
0010
0000
,  // measure 46
1000
0000
0000
0000
,  // measure 47
0001
0000
0000
0000
,  // measure 48
1000
0000
0001
0000
,  // measure 49
1000
0000
0001
0000
,  // measure 50
0100
0000
0010
0000
,  // measure 51
0100
0000
0010
0000
,  // measure 52
1000
0000
0100
0000
,  // measure 53
0010
0000
0001
0000
,  // measure 54
1000
0000
0010
0000
,  // measure 55
0100
0000
0001
0000
,  // measure 56
1000
0000
1000
0000
,  // measure 57
1000
0000
1000
1000
;
