#TITLE:Love Again;
#SUBTITLE:;
#ARTIST:Dua Lipa;
#TITLETRANSLIT:;
#SUBTITLETRANSLIT:;
#ARTISTTRANSLIT:;
#GENRE:Pop;
#CREDIT:;
#BANNER:bn.png;
#BACKGROUND:bg.png;
#LYRICSPATH:;
#CDTITLE:;
#MUSIC:Love Again.ogg;
#OFFSET:0.000000;
#SAMPLESTART:57.931000;
#SAMPLELENGTH:20.690001;
#SELECTABLE:YES;
#DISPLAYBPM:116;
#BPMS:0.000000=116.022003
,2.000000=116.016998
,3.000000=116.022003
,4.000000=116.016998
,5.000000=116.022003
,7.000000=116.016998
,8.000000=116.022003
,9.000000=116.016998
,10.000000=116.022003
,12.000000=116.016998
,13.000000=116.022003
,14.000000=116.016998
,15.000000=116.022003
,16.000000=116.016998
,17.000000=116.022003
,19.000000=116.016998
,20.000000=116.022003
,21.000000=116.016998
,22.000000=116.022003
,24.000000=116.016998
,25.000000=116.022003
,26.000000=116.016998
,27.000000=116.022003
,29.000000=116.016998
,30.000000=116.022003
,31.000000=116.016998
,32.000000=116.022003
,33.000000=116.016998
,34.000000=116.022003
,36.000000=116.016998
,37.000000=116.022003
,38.000000=116.016998
,39.000000=116.022003
,41.000000=116.016998
,42.000000=116.022003
,43.000000=116.016998
,44.000000=116.022003
,45.000000=116.016998
,46.000000=116.022003
,48.000000=116.016998
,49.000000=116.022003
,50.000000=116.016998
,51.000000=116.022003
,53.000000=116.016998
,54.000000=116.022003
,55.000000=116.016998
,56.000000=116.022003
,58.000000=116.016998
,59.000000=116.022003
,60.000000=116.016998
,61.000000=116.022003
,62.000000=116.016998
,63.000000=116.022003
,65.000000=116.016998
,66.000000=116.022003
,67.000000=116.016998
,68.000000=116.022003
,70.000000=116.016998
,71.000000=116.022003
,72.000000=116.016998
,73.000000=116.022003
,74.000000=116.016998
,75.000000=116.022003
,77.000000=116.016998
,78.000000=116.022003
,80.000000=116.016998
,81.000000=116.022003
,82.000000=116.016998
,83.000000=116.022003
,84.000000=116.016998
,85.000000=116.022003
,87.000000=116.016998
,88.000000=116.022003
,89.000000=116.016998
,90.000000=116.022003
,91.000000=116.016998
,92.000000=116.022003
,94.000000=116.016998
,95.000000=116.022003
,96.000000=116.016998
,97.000000=116.022003
,99.000000=116.016998
,100.000000=116.022003
,101.000000=116.016998
,102.000000=116.022003
,104.000000=116.016998
,105.000000=116.022003
,106.000000=116.016998
,107.000000=116.022003
,108.000000=116.016998
,109.000000=116.022003
,111.000000=116.016998
,112.000000=116.022003
,113.000000=116.016998
,114.000000=116.022003
,116.000000=116.016998
,117.000000=116.022003
,118.000000=116.016998
,119.000000=116.022003
,121.000000=116.016998
,122.000000=116.022003
,123.000000=116.016998
,124.000000=116.022003
,125.000000=116.016998
,126.000000=116.022003
,128.000000=116.016998
,129.000000=116.022003
,130.000000=116.016998
,131.000000=116.022003
,133.000000=116.016998
,134.000000=116.022003
,135.000000=116.016998
,136.000000=116.022003
,138.000000=116.016998
,139.000000=116.022003
,140.000000=116.016998
,141.000000=116.022003
,142.000000=116.016998
,143.000000=116.022003
,145.000000=116.016998
,146.000000=116.022003
,147.000000=116.016998
,148.000000=116.022003
,149.000000=116.016998
,150.000000=116.022003
,152.000000=116.016998
,153.000000=116.022003
,155.000000=116.016998
,156.000000=116.022003
,157.000000=116.016998
,158.000000=116.022003
,160.000000=116.016998
,161.000000=116.022003
,162.000000=116.016998
,163.000000=116.022003
,164.000000=116.016998
,165.000000=116.022003
,167.000000=116.016998
,168.000000=116.022003
,169.000000=116.016998
,170.000000=116.022003
,172.000000=116.016998
,173.000000=116.022003
,174.000000=116.016998
,175.000000=116.022003
,177.000000=116.016998
,178.000000=116.022003
,179.000000=116.016998
,180.000000=116.022003
,182.000000=116.016998
,184.000000=116.022003
,186.000000=116.016998
,187.000000=116.022003
,189.000000=116.016998
,191.000000=116.022003
,193.000000=116.016998
,194.000000=116.022003
,196.000000=116.016998
,197.000000=116.022003
,198.000000=116.016998
,199.000000=116.022003
,201.000000=116.016998
,202.000000=116.022003
,203.000000=116.016998
,204.000000=116.022003
,205.000000=116.016998
,206.000000=116.022003
,208.000000=116.016998
,209.000000=116.022003
,210.000000=116.016998
,211.000000=116.022003
,212.000000=116.016998
,213.000000=116.022003
,215.000000=116.016998
,216.000000=116.022003
,217.000000=116.016998
,218.000000=116.216003
,220.000000=116.210999
,221.000000=116.216003
,223.000000=116.210999
,224.000000=115.733002
,225.000000=115.727997
,226.000000=115.733002
,227.000000=115.727997
,228.000000=116.022003
,230.000000=116.016998
,231.000000=116.022003
,232.000000=116.016998
,233.000000=116.022003
,235.000000=116.016998
,236.000000=116.022003
,237.000000=116.016998
,238.000000=116.022003
,239.000000=116.016998
,240.000000=116.022003
,242.000000=116.016998
,243.000000=116.022003
,244.000000=116.016998
,245.000000=116.022003
,246.000000=116.016998
,247.000000=116.022003
,249.000000=116.016998
,250.000000=116.022003
,251.000000=116.016998
,252.000000=116.022003
,254.000000=116.016998
,255.000000=116.022003
,257.000000=116.016998
,259.000000=116.022003
,261.000000=116.016998
,262.000000=116.022003
,264.000000=116.016998
,265.000000=116.022003
,266.000000=116.016998
,267.000000=116.022003
,269.000000=116.016998
,270.000000=116.022003
,271.000000=116.016998
,272.000000=116.022003
,273.000000=116.016998
,274.000000=116.022003
,276.000000=116.016998
,277.000000=116.022003
,278.000000=116.016998
,279.000000=116.022003
,280.000000=115.838997
,283.000000=115.834000
,284.000000=116.820999
,285.000000=116.816002
,286.000000=116.820999
,288.000000=116.180000
;
#STOPS:
;
#BGCHANGES:0.000=Love Again.mp4=1.000=1=0=0=StretchNoLoop==CrossFade==,
288.000=bg.png=1.000=1=0=1===CrossFade==,
99999=-nosongbg-=1.000=0=0=0 // don't automatically add -songbackground-
;
#KEYSOUNDS:;
#ATTACKS:;

//---------------dance-single - ----------------
#NOTES:
     dance-single:
     :
     Beginner:
     3:
     0.136281,0.168112,0.013342,0.000000,0.000000,143.000000,141.000000,2.000000,0.000000,0.000000,0.000000,0.136281,0.168112,0.013342,0.000000,0.000000,143.000000,141.000000,2.000000,0.000000,0.000000,0.000000:
// measure 0
0000
0000
0000
0000
,  // measure 1
0000
0000
0000
0000
,  // measure 2
0000
0000
0000
0000
,  // measure 3
0000
0000
0000
0000
,  // measure 4
1000
0000
1000
0000
,  // measure 5
1000
0000
1000
0000
,  // measure 6
0001
0000
0001
0000
,  // measure 7
0001
0000
0001
0000
,  // measure 8
0100
0000
0100
0000
,  // measure 9
0100
0000
0100
0000
,  // measure 10
0010
0000
0010
0000
,  // measure 11
0010
0000
0010
0000
,  // measure 12
1000
0000
1000
0000
,  // measure 13
0001
0000
0001
0000
,  // measure 14
1000
0000
1000
0000
,  // measure 15
0001
0000
0001
0000
,  // measure 16
0100
0000
0100
0000
,  // measure 17
0010
0000
0010
0000
,  // measure 18
0100
0000
0100
0000
,  // measure 19
0010
0000
0010
0000
,  // measure 20
1000
0000
0000
0000
,  // measure 21
0001
0000
1000
0000
,  // measure 22
0001
0000
0000
0000
,  // measure 23
1000
0000
0001
0000
,  // measure 24
1000
0000
1000
0000
,  // measure 25
1000
0000
1000
0000
,  // measure 26
0001
0000
0001
0000
,  // measure 27
0001
0000
0001
0000
,  // measure 28
0100
0000
0010
0000
,  // measure 29
1001
0000
0000
0000
,  // measure 30
1000
1000
1000
0000
,  // measure 31
0001
0000
0100
0000
,  // measure 32
0001
0001
0001
0000
,  // measure 33
1000
0000
0100
0000
,  // measure 34
1000
1000
1000
0000
,  // measure 35
0001
0000
0010
0000
,  // measure 36
0001
0001
0001
0000
,  // measure 37
1000
0000
0010
0000
,  // measure 38
1000
0000
1000
0000
,  // measure 39
0001
0000
0001
0000
,  // measure 40
1000
0000
1000
0000
,  // measure 41
0001
0000
0001
0000
,  // measure 42
0100
0000
0100
0000
,  // measure 43
0010
0000
0010
0000
,  // measure 44
0100
0000
0100
0000
,  // measure 45
0010
0000
0010
0000
,  // measure 46
1000
0000
0000
0000
,  // measure 47
0001
0000
1000
0000
,  // measure 48
0001
0000
0000
0000
,  // measure 49
1000
0000
0001
0000
,  // measure 50
1000
0000
1000
0000
,  // measure 51
1000
0000
1000
0000
,  // measure 52
0001
0000
0001
0000
,  // measure 53
0001
0000
0001
0000
,  // measure 54
0100
0000
0010
0000
,  // measure 55
1001
0000
0000
0000
,  // measure 56
1000
1000
1000
0000
,  // measure 57
0001
0000
0100
0000
,  // measure 58
0001
0001
0001
0000
,  // measure 59
1000
0000
0100
0000
,  // measure 60
1000
1000
1000
0000
,  // measure 61
0001
0000
0010
0000
,  // measure 62
0001
0001
0001
0000
,  // measure 63
1000
0000
0010
0000
,  // measure 64
1000
0000
0001
0000
,  // measure 65
0100
0000
0010
0000
,  // measure 66
1000
0000
0001
0000
,  // measure 67
0010
0000
0100
0000
,  // measure 68
1000
0000
0001
0000
,  // measure 69
0100
0000
0010
0000
,  // measure 70
1000
0000
0001
0000
,  // measure 71
1000
1000
0001
0001
,  // measure 72
1000
0000
0000
0000
;

//---------------dance-single - ----------------
#NOTES:
     dance-single:
     :
     Easy:
     6:
     0.222053,0.240160,0.020013,0.053369,0.000000,233.000000,230.000000,3.000000,8.000000,0.000000,0.000000,0.222053,0.240160,0.020013,0.053369,0.000000,233.000000,230.000000,3.000000,8.000000,0.000000,0.000000:
0000
0000
0000
0000
,
0000
0000
0000
0000
,
0000
0000
0000
0000
,
0000
0000
0000
0000
,
1000
0001
1000
0001
,
1000
1000
0001
0001
,
0100
0010
0100
0010
,
0100
0100
0010
0010
,
1000
0100
0010
0001
,
1000
1000
0001
0001
,
0100
0010
1000
0001
,
0100
0100
0010
0010
,
1000
0001
1000
0001
,
1000
1000
0001
0001
,
0100
0010
0100
0010
,
0100
0100
0010
0010
,
1000
0100
0010
0001
,
1000
1000
0001
0001
,
0100
0010
1000
0001
,
0100
0100
0010
0010
,
1000
0001
0000
1000
,
0002
0003
2000
3000
,
0010
0100
0000
0001
,
2000
3000
0002
0003
,
1000
0000
0001
0000
,
1000
0000
0001
0000
,
0100
0000
0010
0000
,
0100
0000
0010
0000
,
1000
1000
0001
0001
,
1001
0000
0000
1000
,
0001
0001
1000
1000
,
0001
0010
0100
1000
,
0001
0001
1000
1000
,
0010
0100
0001
1000
,
0001
0001
1000
1000
,
0100
0010
0001
0100
,
0001
0001
1000
1000
,
0001
0100
0010
1000
,
0001
1000
0001
1000
,
0001
0001
1000
1000
,
0010
0100
0010
0100
,
0010
0010
0100
0100
,
0001
0010
0100
1000
,
0001
0001
1000
1000
,
0010
0100
0001
1000
,
0010
0010
0100
0100
,
0001
1000
0000
0001
,
2000
3000
0002
0003
,
0100
0010
0000
1000
,
0002
0003
2000
3000
,
0001
0000
1000
0000
,
0001
0000
1000
0000
,
0010
0000
0100
0000
,
0010
0000
0100
0000
,
0001
0001
1000
1000
,
1001
0000
0000
0001
,
1000
1000
0001
0001
,
1000
0100
0010
0001
,
1000
1000
0001
0001
,
0100
0010
1000
0001
,
1000
1000
0001
0001
,
0010
0100
1000
0010
,
1000
1000
0001
0001
,
1000
0010
0100
0001
,
1001
0000
1000
0000
,
0001
0000
0100
0010
,
1000
0000
0001
0000
,
1000
0000
0010
0100
,
0001
0000
1000
0000
,
0001
0000
0100
0010
,
1000
0000
0001
0000
,
1000
0100
0010
0001
,
1000
0000
0000
0000
;

//---------------dance-single - ----------------
#NOTES:
     dance-single:
     :
     Medium:
     9:
     0.340227,0.336224,0.013342,0.113409,0.003336,357.000000,355.000000,2.000000,17.000000,0.000000,0.000000,0.340227,0.336224,0.013342,0.113409,0.003336,357.000000,355.000000,2.000000,17.000000,0.000000,0.000000:
0000
0000
0000
0000
,
0000
0000
0000
0000
,
0000
0000
0000
0000
,
0000
0000
0000
0000
0000
0000
0000
0001
,
1000
0001
0000
1000
0100
0000
1000
0000
,
0001
0000
0000
0010
0001
1000
0000
0010
,
1000
0001
0000
1000
0010
0000
1000
0000
,
0001
0000
0000
0100
0001
1000
0000
0100
,
1000
0001
0000
0100
0010
0000
1000
0000
,
0001
0000
0000
0010
0100
1000
0000
0001
,
0100
0010
0000
1000
0001
0000
0100
0000
,
0010
0000
1000
0000
0000
0010
0010
1000
,
0001
1000
0000
0001
0010
0000
0001
0000
,
1000
0000
0000
0100
1000
0001
0000
0100
,
0001
1000
0000
0001
0100
0000
0001
0000
,
1000
0000
0000
0010
1000
0001
0000
0010
,
0001
1000
0000
0010
0100
0000
0001
0000
,
1000
0000
0000
0100
0010
0001
0000
1000
,
0010
0100
0000
0001
1000
0000
0010
0000
,
0100
0000
0000
0000
0000
0000
0000
0000
0002
0000
0000
2000
0000
0000
3003
0000
,
1000
1000
0001
0000
0100
0010
0100
0000
,
0002
1003
2000
3001
,
0001
0001
1000
0000
0010
0100
0010
0000
,
2000
3001
0002
1003
,
0001
1000
0000
0000
0001
1000
0000
0000
,
0001
1000
0000
0000
0001
1000
0000
0000
,
0010
0100
0000
0000
0010
0100
0000
0000
,
0010
0100
0000
0000
0010
0100
0000
0000
,
0001
0001
1000
1000
,
2002
0000
3003
1000
,
0001
0100
0001
0000
1000
0100
1000
0000
,
0010
0100
0001
0000
1000
0100
0010
0000
,
0001
0010
0001
0000
1000
0010
1000
0000
,
0001
0010
0100
0000
1000
0010
0100
0000
,
0001
1000
0001
0000
0100
0010
0100
0000
,
0010
1000
0100
0000
0010
0001
0100
0000
,
0010
0100
0010
0000
1000
0001
1000
0000
,
0100
1000
0010
0000
0100
0001
0010
0001
,
1000
0001
0000
1000
0100
0000
1000
0000
,
0001
0000
0000
0010
0001
1000
0000
0010
,
1000
0001
0000
1000
0010
0000
1000
0000
,
0001
0000
0000
0100
0001
1000
1000
0100
,
1000
0001
0000
0100
0010
0000
1000
0000
,
0001
0000
0000
0010
0100
1000
0000
0001
,
0100
0010
0000
1000
0001
0000
0200
0000
,
0310
1000
0002
1000
,
1003
1000
0001
0000
0100
0010
0100
0000
,
0002
1003
2000
3001
,
0001
0001
1000
0000
0010
0100
0010
0000
,
2000
3001
0002
1003
,
0001
1000
0001
0000
0001
1000
0001
0000
,
0001
1000
0001
0000
0001
1000
0001
0000
,
0010
0100
0010
0000
0010
0100
0010
0000
,
0010
0100
0010
0000
0010
0100
0010
0000
,
1000
1000
0001
0001
,
2002
0000
3003
1000
,
0001
0100
0001
0000
1000
0100
1000
0000
,
0010
0100
0001
0000
1000
0100
0010
0000
,
0001
0010
0001
0000
1000
0010
1000
0000
,
0001
0010
0100
0000
1000
0010
0100
0000
,
0001
1000
0001
0000
0100
0010
0100
0000
,
0010
1000
0100
0000
0010
0001
0100
0000
,
0010
0100
0010
0000
1000
0001
1000
0000
,
0100
1000
0010
0000
0200
0000
0010
0000
,
0301
1000
0100
0000
1000
0001
0100
0000
,
0001
1000
0100
0000
1000
0001
0100
0000
,
0001
0010
0100
0000
1000
0100
0010
0000
,
0001
0010
0100
0000
1000
0100
0010
0000
,
0001
1000
0010
0000
1000
0001
0010
0000
,
0001
1000
0010
0000
1000
0001
0010
0000
,
0001
1000
0010
0100
,
0010
1000
0100
0000
0010
0001
0100
0010
,
1000
0000
0000
0000
;

//---------------dance-single - ----------------
#NOTES:
     dance-single:
     :
     Hard:
     12:
     0.477461,0.456304,0.033356,0.133422,0.143429,501.000000,496.000000,5.000000,20.000000,0.000000,0.000000,0.477461,0.456304,0.033356,0.133422,0.143429,501.000000,496.000000,5.000000,20.000000,0.000000,0.000000:
0000
0000
0000
0000
,
0000
0000
0000
0000
,
0000
0000
0000
0000
,
0000
0000
0000
0000
,
1000
0001
1000
0100
0010
0001
1000
0001
,
0010
0100
1000
0001
0100
0010
1000
0001
,
1000
0010
1000
0001
0100
0001
1000
0001
,
0100
0010
1000
0001
0010
0100
1000
0001
,
1000
0010
0100
0001
0010
0001
1000
0100
,
0010
0100
1000
0001
1000
0010
0100
0001
,
0100
0010
1000
0001
0010
0100
0010
0001
,
0100
0010
1000
0100
1000
0010
0100
0001
,
1000
0010
1000
0100
0010
0001
1000
0001
,
0010
0100
1000
0001
0100
0010
1000
0001
,
1000
0010
1000
0001
0100
0001
1000
0001
,
0100
0010
1000
0001
0010
0100
1000
0001
,
1000
0010
0100
0001
0010
0001
1000
0100
,
0010
0100
1000
0001
1000
0010
0100
0001
,
0100
0010
1000
0001
0010
0100
0010
0001
,
0100
0010
1000
0100
1000
0010
0100
0001
,
1000
1000
0002
0103
0000
0100
0010
1000
,
0002
0023
0230
2300
,
3001
0001
2000
3100
0000
0100
1000
0010
,
2000
3200
0320
0032
,
1003
1000
0000
0000
0001
0001
0000
0000
,
1000
1000
0000
0000
0001
0001
0000
0000
,
0100
0100
0000
0000
0010
0010
0000
0000
,
0100
0100
0000
0000
0010
0010
0000
0000
,
1000
0000
0001
0000
1000
0000
0001
1000
0001
0000
0100
0000
0010
0000
1000
0000
,
1001
0000
0000
0000
0000
0000
0000
0000
0000
0000
0000
0000
0110
0000
0000
1000
,
0001
0000
0100
0000
0001
0000
0000
1000
0100
0000
0010
0000
0100
0000
0000
1000
,
0001
0000
0010
0000
0001
0000
0000
0100
0010
0000
1000
0000
0010
0000
0000
1000
,
0001
0000
0010
0000
0100
0000
0000
0010
0100
0000
1000
0000
0001
0000
0000
1000
,
0010
0000
0100
0000
0001
0000
0000
0010
0001
0000
0100
0000
0010
0000
1000
0001
,
1000
0000
0010
0000
1000
0000
0000
0001
0010
0000
0100
0000
0010
0000
0000
0001
,
1000
0000
0100
0000
1000
0000
0000
0010
0100
0000
0001
0000
0100
0000
0000
0001
,
1000
0000
0100
0000
0010
0000
0000
0100
0010
0000
0001
0000
1000
0000
0000
0001
,
0100
0000
0010
0000
1000
0000
0000
0100
1000
0000
0010
0000
0100
0000
0000
0000
,
0001
0100
0001
0010
0100
1000
0001
1000
,
0100
0010
0001
1000
0010
0100
0001
1000
,
0001
0100
0001
1000
0010
1000
0001
1000
,
0010
0100
0001
1000
0100
0010
0001
1000
,
0001
0100
0010
1000
0100
1000
0001
0010
,
0100
0010
0001
1000
0001
0100
0010
1000
,
0010
0100
0001
1000
0100
0010
0100
1000
,
0010
0100
0001
0010
0001
0100
0010
1000
,
0001
0001
2000
3010
0000
0010
0100
0001
,
2000
3200
0320
0032
,
1003
1000
0002
0013
0000
0010
0001
0100
,
0002
0023
0230
2300
,
3001
0001
0100
0010
1000
1000
0100
0010
,
0001
0001
0100
0010
1000
1000
0001
1000
,
0010
0010
1000
0001
0100
0100
0001
1000
,
0010
0010
1000
0001
0100
0100
0010
0100
,
0001
0000
1000
0000
0001
0000
1000
0001
1000
0000
0010
0000
0100
0000
0001
0000
,
1001
0000
0000
0000
0000
0000
0000
0000
0000
0000
0000
0000
0110
0000
0000
1000
,
0001
0000
0100
0000
0001
0000
0000
1000
0100
0000
0010
0000
0100
0000
0000
1000
,
0001
0000
0010
0000
0001
0000
0000
0100
0010
0000
1000
0000
0010
0000
0000
1000
,
0001
0000
0010
0000
0100
0000
0000
0010
0100
0000
1000
0000
0001
0000
0000
1000
,
0010
0000
0100
0000
0001
0000
0000
0010
0001
0000
0100
0000
0010
0000
1000
0001
,
1000
0000
0010
0000
1000
0000
0000
0001
0010
0000
0100
0000
0010
0000
0000
0001
,
1000
0000
0100
0000
1000
0000
0000
0010
0100
0000
0001
0000
0100
0000
0000
0001
,
1000
0000
0100
0000
0010
0000
0000
0100
0010
0000
0001
0000
1000
0000
0000
0001
,
0100
0000
0010
0000
1000
0000
0000
0100
1000
0000
0010
0000
0100
0000
0001
0000
,
1000
0000
0001
0000
0100
0000
0100
0010
0000
0000
1000
0000
0100
0000
0100
0010
,
0000
0000
0001
0000
0010
0000
0010
0100
0000
0000
1000
0000
0001
0000
0100
0000
,
0000
0000
0001
0000
1000
0000
1000
0010
0000
0000
0100
0000
0001
0000
0001
0010
,
0000
0000
0100
0000
1000
0000
1000
0010
0000
0000
0100
0000
0001
0000
1000
0000
,
0000
0000
0001
0000
0100
0000
0100
0010
0000
0000
1000
0000
0100
0000
0100
0010
,
0000
0000
0001
0000
1000
0000
1000
0010
0000
0000
0100
0000
0001
0000
0010
0000
,
0100
1000
0001
0100
,
0001
0010
0100
1000
0001
0100
0010
1000
,
1001
0000
0000
0000
;

//---------------dance-single - ----------------
#NOTES:
     dance-single:
     :
     Challenge:
     14:
     0.612790,0.672448,0.233489,0.186791,0.326885,643.000000,608.000000,35.000000,28.000000,0.000000,0.000000,0.612790,0.672448,0.233489,0.186791,0.326885,643.000000,608.000000,35.000000,28.000000,0.000000,0.000000:
0000
0000
0000
0000
,
0000
0000
0000
0000
,
0000
0000
0000
0000
,
0000
0000
0000
0000
0000
0000
0000
0000
0000
0000
0000
1000
0001
0000
0100
0000
,
0001
0000
1000
0000
0100
0000
0010
0001
0010
0000
0001
0000
0100
0000
0010
0000
,
1000
0000
0100
0000
0010
0000
0100
1000
0100
0000
1000
0000
0001
0000
1000
0010
,
1000
0000
0001
0000
0100
0000
0001
0100
0001
0000
0100
0000
0010
0000
1000
0000
,
0001
0000
0010
0000
0100
0000
1000
0010
1000
0000
0010
0000
0100
0000
0001
0000
,
0010
0000
0001
0000
1000
0000
0010
0100
0010
0000
1000
0000
0100
0000
0010
0000
,
0100
0000
1000
0000
0010
0000
0100
0001
0100
0000
0010
0000
1000
0000
0001
1000
,
0001
0000
0100
0000
0010
0000
1000
0100
1000
0000
0001
0000
0100
0000
0001
0000
,
0010
0100
0010
0001
0100
0010
0010
0000
,
1001
0000
0001
0000
0010
0000
0100
1000
0010
0000
1000
0000
0100
0000
0001
0000
,
0100
0000
1000
0000
0100
0000
0010
0001
1000
0000
0001
0000
0010
0000
0001
0100
,
0010
0000
1000
0000
0001
0000
0100
0001
0010
0000
0001
0000
0100
0000
1000
0000
,
0100
0000
0001
0000
0010
0000
0001
0010
0100
0000
1000
0000
0010
0000
0100
0000
,
0001
0000
1000
0000
0001
0000
0010
0001
0100
0000
0001
0000
0010
0000
1000
0000
,
0010
0000
0001
0000
0100
0000
0010
1000
0001
0000
0100
0000
0001
0000
1000
0001
,
0100
0000
0010
0000
1000
0000
0010
1000
0100
0000
1000
0000
0010
0000
1000
0000
,
0100
0000
0001
0000
0100
0000
1000
0000
0001
0100
0001
1000
0100
1000
0001
0000
,
1001
1001
0200
0020
0330
1000
0100
0010
,
0002
0000
0203
0000
2300
0000
0002
3003
,
0110
0110
0002
2000
3003
0001
0010
0100
,
2000
0000
3200
0000
0302
0000
2000
3003
,
0010
0010
1000
0001
0100
0100
0010
0100
,
0001
0001
0010
0000
0100
0100
0000
0000
,
0010
0010
0001
1000
0100
0100
0010
0001
,
1000
1000
0010
0000
0100
0100
0000
0000
,
0001
0000
0001
0000
0001
0000
0001
1000
0100
0000
0100
0000
1000
0001
1000
0000
,
0220
0000
0000
0000
0000
0000
0000
0000
0330
0000
0000
0000
0001
1000
0001
1000
,
1001
0000
0001
0000
0100
0000
0010
1000
0010
0000
1000
0000
0001
0000
0010
0001
,
0010
0000
0001
0000
1000
0000
0100
1000
0100
0000
1000
0000
0001
0000
1000
0000
,
0010
0000
0100
0000
0001
0000
0010
0001
1000
0000
0001
0000
1000
0000
0010
1000
,
0001
0000
0100
0000
0001
0000
1000
0001
0010
0000
0001
0000
1000
0000
0010
0100
,
0110
0000
0001
0000
0100
0000
0010
1000
0100
0000
1000
0000
0001
0000
0010
0001
,
0100
0000
0001
0000
1000
0000
0100
1000
0010
0000
1000
0000
0001
0000
1000
0000
,
0010
0000
0100
0000
0001
0000
0010
0001
0100
0000
0001
0000
1000
0000
0010
1000
,
0100
0000
1000
0000
0001
0000
0100
0001
0010
0000
0001
0000
1000
0001
1000
0001
,
1000
0000
0001
0000
0010
0000
0100
1000
0100
0000
1000
0000
0010
0000
0100
0000
,
0001
0000
0010
0000
0100
0000
0010
0001
0010
0000
0001
0000
0001
0000
1000
0010
,
1000
0000
0001
0000
0100
0000
0001
0100
0001
0000
0100
0000
0010
0000
1000
0000
,
0001
0000
0010
0000
0100
0000
1000
0010
1000
0001
0010
0100
1000
0001
1000
0100
,
0010
0000
0001
0000
1000
0000
0100
1000
0010
0000
1000
0000
0100
0000
0001
0000
,
0100
0000
1000
0000
0010
0000
0100
0001
1000
0000
0010
0000
1000
0000
0001
1000
,
0010
0000
0100
0000
0001
0000
0100
0001
0010
0000
0001
0000
0011
0000
0100
0000
,
1100
0000
1000
0000
0001
0000
0100
0000
0010
0000
1000
0000
0001
0000
1000
0001
,
1001
1001
0200
0020
0330
1000
0100
0010
,
0002
0000
0203
0000
2300
0000
0002
3003
,
0110
0110
0002
2000
3003
0001
0010
0100
,
2000
0000
3200
0000
0302
0000
2000
3003
,
0110
0110
1000
0001
0101
0101
1000
0001
,
0011
0011
1000
0100
1100
1100
0001
1000
,
1010
1010
0100
0001
1001
1001
0100
0010
,
0110
0000
0110
0000
1000
0000
0100
0000
1000
1000
0010
0100
0100
0001
0010
0001
,
1000
0000
1000
0000
1000
0000
1000
0001
0100
0000
0100
0000
0010
0000
0010
0000
,
0220
0000
0000
0000
0000
0000
0000
0000
0330
0000
0000
0000
0001
1000
0001
1000
,
1001
0000
0001
0000
0100
0000
0010
1000
0010
0000
1000
0000
0001
0000
0010
0001
,
0010
0000
0001
0000
1000
0000
0100
1000
0100
0000
1000
0000
0001
0000
1000
0000
,
0010
0000
0100
0000
0001
0000
0010
0001
1000
0000
0001
0000
1000
0000
0010
1000
,
0001
0000
0100
0000
0001
0000
1000
0001
0010
0000
0001
0000
1000
0000
0010
0100
,
0110
0000
0001
0000
0100
0000
0010
1000
0100
0000
1000
0000
0001
0000
0010
0001
,
0100
0000
0001
0000
1000
0000
0100
1000
0010
0000
1000
0000
0001
0000
1000
0000
,
0010
0000
0100
0000
0001
0000
0010
0001
0100
0000
0001
0000
1000
0000
0010
1000
,
0100
0000
1000
0000
0001
0000
0100
0001
0010
0001
0100
0010
1000
0100
1000
0010
,
0110
0000
1000
0000
0001
0000
0100
0010
0100
0000
0001
0000
1000
0000
0100
0010
,
0100
0000
1000
0000
0001
0000
0010
0100
0010
0000
0001
0000
0100
0000
0010
0000
,
1000
0000
0001
0000
1000
0000
0010
0100
0010
0000
1000
0000
0001
0000
0100
0010
,
0100
0000
0001
0000
1000
0000
0010
0100
0010
1000
0100
0000
0010
0000
0001
1000
,
0001
0000
1000
0000
0001
0000
0100
0010
0100
0000
0001
0000
1000
0000
0100
0010
,
0100
0000
1000
0000
0001
0000
0010
0100
0010
0000
0001
0000
0100
0000
0010
0000
,
1000
0100
1100
0001
0101
0100
0010
1000
,
0001
0010
0100
1000
0001
0100
0010
1000
0001
1000
0100
0010
0001
1000
0001
1000
,
1001
0000
0000
0000
;
