#VERSION:0.83;
#TITLE:Levitating;
#SUBTITLE:;
#ARTIST:Dua Lipa;
#TITLETRANSLIT:;
#SUBTITLETRANSLIT:;
#ARTISTTRANSLIT:;
#GENRE:Pop;
#ORIGIN:;
#CREDIT:;
#BANNER:bn.png;
#BACKGROUND:bg.png;
#PREVIEWVID:;
#JACKET:jacket.png;
#CDIMAGE:;
#DISCIMAGE:;
#LYRICSPATH:;
#CDTITLE:cdtitleMic.png;
#MUSIC:Levitating.ogg;
#OFFSET:0.000000;
#SAMPLESTART:32.629356;
#SAMPLELENGTH:18.640778;
#SELECTABLE:YES;
#BPMS:0.000=103.000,
120.000=51.500,
128.000=103.000;
#STOPS:127.875=6.991;
#DELAYS:;
#WARPS:;
#TIMESIGNATURES:0.000=4=4;
#TICKCOUNTS:0.000=4;
#COMBOS:0.000=1;
#SPEEDS:0.000=1.000=0.000=0;
#SCROLLS:0.000=1.000;
#FAKES:;
#LABELS:0.000=Song Start;
#BGCHANGES:0.000=Levitating.mp4=1.000=1=0=0=StretchNoLoop==CrossFade==,
164.000=bg.png=1.000=1=0=1===CrossFade==,
99999=-nosongbg-=1.000=0=0=0 // don't automatically add -songbackground-
;
#KEYSOUNDS:;
#ATTACKS: TIME=0.00:LEN=0.00:MODS=: TIME=78.64:LEN=7.57:MODS=*6 Stealth, *6 Dark, *1000 No Alternate, *1000 No Split, *1000 No Cross: TIME=79.05:LEN=7.16:MODS=*1000 110% Drunk, *1000 110% Tipsy, *10000 400% Dizzy, *1000 Mini, *1000 130% Tornado, *1000 -100% Flip, *1000 1x: TIME=80.34:LEN=0.90:MODS=*1000 Cross: TIME=80.44:LEN=0.10:MODS=*1000 50% Stealth: TIME=80.83:LEN=0.30:MODS=*1000 50% Stealth: TIME=81.58:LEN=0.90:MODS=*1000 Alternate: TIME=81.61:LEN=0.10:MODS=*1000 50% Stealth: TIME=82.02:LEN=0.30:MODS=*1000 50% Stealth: TIME=82.58:LEN=2.00:MODS=*1000 Cross: TIME=82.68:LEN=0.10:MODS=*1000 50% Stealth: TIME=83.18:LEN=0.20:MODS=*1000 50% Stealth: TIME=83.45:LEN=0.02:MODS=*1000 50% Stealth: TIME=83.63:LEN=0.02:MODS=*1000 50% Stealth: TIME=83.92:LEN=0.30:MODS=*1000 50% Stealth: TIME=85.07:LEN=0.10:MODS=*1000 50% Stealth: TIME=85.50:LEN=0.30:MODS=*1000 50% Stealth: TIME=86.21:LEN=2.33:MODS=*0.44 No Mini, *1.7 No Dizzy, *0.8 No Drunk, *0.8 No Tipsy, *0.44 No Flip: TIME=0.00:LEN=0.00:MODS=;

//---------------dance-single - ----------------
#NOTEDATA:;
#CHARTNAME:;
#STEPSTYPE:dance-single;
#DESCRIPTION:;
#CHARTSTYLE:Pad;
#DIFFICULTY:Challenge;
#METER:13;
#RADARVALUES:0.549344,0.602570,0.211590,0.349583,0.694566,418.000000,395.000000,23.000000,38.000000,0.000000,0.000000,0.000000,0.000000,0.000000,0.549344,0.602570,0.211590,0.349583,0.694566,418.000000,395.000000,23.000000,38.000000,0.000000,0.000000,0.000000,0.000000,0.000000;
#CREDIT:Galamoth;
#NOTES:
// measure 0
0000
0000
0000
0000
,  // measure 1
0000
0000
0000
0000
0000
0000
0000
0000
0000
0000
1000
0000
2000
0000
0000
3000
,  // measure 2
0001
0100
0001
0100
0010
1000
0010
1000
0001
0010
0001
0010
0100
1000
0100
1000
,  // measure 3
0001
0010
0100
1000
0010
0000
0100
0000
0002
0000
0013
0000
0010
0000
0000
0001
,  // measure 4
1000
0100
1000
0100
0010
0001
0010
0001
1000
0010
1000
0010
0100
0001
0100
0001
,  // measure 5
1000
0100
0010
0000
0100
0000
0010
0000
0002
0000
1003
0000
1000
0100
0010
0000
,  // measure 6
0001
1000
0100
1000
0002
0000
0003
0000
1000
0001
0100
0001
2000
0000
3000
0000
,  // measure 7
0001
0100
0000
0010
1000
0000
0010
0000
2000
0000
3001
0000
0001
0000
0000
0000
,  // measure 8
1000
0001
1000
0001
0100
0010
0100
0010
1000
0100
1000
0100
0010
0001
0010
0001
,  // measure 9
1000
0100
0010
0001
0100
0000
0010
0000
2000
0000
3001
0000
0002
0003
0000
0000
,  // measure 10
0101
0000
0000
1000
0100
0000
0010
0000
1100
0000
0000
0001
0100
0010
1000
0001
,  // measure 11
0011
0000
0000
1000
0001
0100
0010
0000
1010
0000
1000
0001
1000
0100
0010
0001
,  // measure 12
1001
0000
0000
0001
0010
0100
1000
0000
0110
0000
0000
1000
0001
0100
0001
0010
,  // measure 13
0001
0000
1000
0000
0001
0000
1000
0000
0001
0000
0100
0000
0100
0001
1000
0000
,  // measure 14
2001
0000
0000
3000
0010
0100
0001
1000
0200
0000
0000
0310
0001
0000
1000
0000
,  // measure 15
0020
0000
0000
0130
0001
0000
1000
0000
0200
0000
0000
0310
0000
0001
1000
0000
,  // measure 16
1002
0000
0000
0003
0100
0010
1000
0001
0020
0000
0000
0130
1000
0000
0001
0000
,  // measure 17
1000
0001
0000
0010
0000
0001
1000
0000
0100
0000
1000
0001
1000
0100
0010
0001
,  // measure 18
2001
0000
0000
3000
0010
0000
1000
0000
0200
0000
0000
0310
0001
0000
1000
0000
,  // measure 19
0020
0000
0000
0130
0001
0000
1000
0000
0200
0000
0000
0310
0000
0001
1000
0000
,  // measure 20
1002
0000
0000
0003
0100
0000
0001
0000
0020
0000
0000
0130
1000
0000
0001
0000
,  // measure 21
1000
0001
0000
0010
0000
0001
1000
0000
0100
0000
1000
0001
1000
0100
0010
0001
,  // measure 22
1000
0010
1000
0010
0100
0001
0100
0001
2000
0000
0002
0000
3003
0000
0001
1000
,  // measure 23
0001
0010
0001
0010
0100
1000
0100
1000
0020
0000
0200
0000
0330
0000
0000
0001
,  // measure 24
1000
0100
1000
0100
0010
0001
0010
0001
2000
0000
0002
0000
3003
0000
0000
0000
,  // measure 25
1010
0000
0000
0101
0000
0000
0011
0000
0000
1100
0000
0000
1001
0000
0000
1000
,  // measure 26
0001
0100
0010
1000
0010
0100
0001
1000
0002
0000
0200
0000
0303
0000
0100
0001
,  // measure 27
1000
0010
0100
0001
0100
0010
1000
0001
2000
0000
0200
0000
3300
0000
0000
1000
,  // measure 28
0001
0010
0100
1000
0001
1000
0100
0010
0002
0000
2000
0000
3003
0000
0000
0000
,  // measure 29
0011
0000
0000
1100
0000
0000
0101
0000
0000
1010
0000
0000
1001
0000
0000
0000
,  // measure 30
1000
0000
0000
0000
0001
0000
1000
0000
0100
0000
0000
0000
1000
0000
0001
0000
0100
0000
0000
0000
0001
0000
0000
0000
1000
0000
0000
0001
1000
0100
0010
0001
,  // measure 31
1000
0000
0010
0000
0100
0000
0001
0000
1000
0000
0001
0100
0010
1000
0100
1000
0001
0000
0100
0000
0010
0000
1000
0000
0001
0000
0010
0000
0010
0000
0000
0000
,  // measure 32
0000
0000
0000
0000
,  // measure 33
1001
0000
0000
0000
1000
0100
0010
0100
1000
0000
0001
0100
0000
0010
1000
0000
,  // measure 34
0001
0000
0100
0000
0001
0010
0100
0010
0001
0000
1000
0010
0000
0100
0001
0000
,  // measure 35
1000
0000
0010
0000
1000
0001
1000
0001
1000
0000
0001
1000
0000
0010
0100
0000
,  // measure 36
0001
0000
1000
0000
0001
0000
1000
0000
0001
0000
0100
0000
0100
0001
1000
0000
,  // measure 37
2001
0000
0000
3000
0010
0000
1000
0000
0200
0000
0000
0310
0001
0000
1000
0000
,  // measure 38
0020
0000
0000
0130
0001
0000
1000
0000
0200
0000
0000
0310
0000
0001
1000
0000
,  // measure 39
1002
0000
0000
0003
0100
0000
0001
0000
0020
0000
0000
0130
1000
0000
0001
0000
,  // measure 40
1000
0001
0000
0010
0000
0001
1000
0000
0100
0000
1000
0001
1000
0100
0010
0001
;

//---------------dance-single - ----------------
#NOTEDATA:;
#CHARTNAME:;
#STEPSTYPE:dance-single;
#DESCRIPTION:;
#CHARTSTYLE:Pad;
#DIFFICULTY:Hard;
#METER:10;
#RADARVALUES:0.350897,0.376032,0.147193,0.211590,0.197790,267.000000,251.000000,16.000000,23.000000,0.000000,0.000000,0.000000,0.000000,0.000000,0.350897,0.376032,0.147193,0.211590,0.197790,267.000000,251.000000,16.000000,23.000000,0.000000,0.000000,0.000000,0.000000,0.000000;
#CREDIT:Galamoth;
#ATTACKS:Time=:Len=:Mods=:Time=78.641:End=86.214:Mods=*6 Stealth, *6 Dark, *1000 No Alternate, *1000 No Split, *1000 No Cross:Time=79.053:End=86.214:Mods=*1000 110% Drunk, *1000 110% Tipsy, *10000 400% Dizzy, *1000 Mini, *1000 130% Tornado, *1000 -100% Flip, *1000 1x:Time=80.340:Len=0.900:Mods=*1000 Cross:Time=80.441:Len=0.100:Mods=*1000 50% Stealth:Time=80.828:Len=0.300:Mods=*1000 50% Stealth:Time=81.580:Len=0.900:Mods=*1000 Alternate:Time=81.611:Len=0.100:Mods=*1000 50% Stealth:Time=82.021:Len=0.300:Mods=*1000 50% Stealth:Time=82.583:Len=2.000:Mods=*1000 Cross:Time=82.683:Len=0.100:Mods=*1000 50% Stealth:Time=83.179:Len=0.200:Mods=*1000 50% Stealth:Time=83.454:Len=0.020:Mods=*1000 50% Stealth:Time=83.625:Len=0.020:Mods=*1000 50% Stealth:Time=83.922:Len=0.300:Mods=*1000 50% Stealth:Time=85.067:Len=0.100:Mods=*1000 50% Stealth:Time=85.495:Len=0.300:Mods=*1000 50% Stealth:Time=86.214:End=88.544:Mods=*0.44 No Mini, *1.7 No Dizzy, *0.8 No Drunk, *0.8 No Tipsy, *0.44 No Flip:Time=:Len=:Mods=;
#NOTES:
0000
0000
0000
0000
,
0000
0000
0000
0000
,
1000
0001
1000
0000
0010
0000
1000
0000
0001
0100
0001
0000
0010
0000
0100
0000
,
1000
0100
1000
0000
0001
0000
1000
0000
0010
0000
0000
0000
0000
0000
0000
0000
,
1000
0001
0100
0000
0010
0000
1000
0000
0001
0100
0010
0000
1000
0000
0100
0000
,
0010
0100
1000
0000
0001
0000
1000
0000
0010
0000
0000
0000
0000
0000
0000
0000
,
1000
0100
1000
0100
1000
0000
0000
0000
0001
0010
0001
0010
0001
0000
0000
0000
,
1000
0001
0000
1000
0001
0000
0100
0000
0010
0000
0000
0000
0000
0000
0000
0000
,
1000
0001
0100
0000
0001
0000
1000
0000
0010
1000
0100
0000
1000
0000
0001
0000
,
0010
0001
0100
0000
0001
0000
1000
0000
0010
0000
0000
0000
0000
0000
0000
0000
,
1002
0000
0000
0003
1000
0000
0001
0000
0201
0000
0000
0300
0010
0000
1000
0000
,
2001
0000
0000
3000
0001
0000
1000
0000
1200
0000
0000
0300
0010
0000
0001
0000
,
1002
0000
0000
0003
0100
0000
0010
0000
1020
0000
0000
0030
0100
0000
0001
0000
,
1000
1000
1000
1000
2000
0000
3000
0000
,
1001
0000
0000
0000
1000
0000
0010
0000
0200
0000
0000
0310
0000
0000
1000
0000
,
0020
0000
0000
0130
0000
0000
0001
0000
0200
0000
0000
0310
0000
0000
1000
0000
,
0001
0000
0000
0000
1000
0000
0100
0000
0020
0000
0000
0130
0000
0000
1000
0000
,
0200
0000
0000
0310
0000
0000
0001
0000
1000
0000
0000
0000
0001
0000
1000
0000
,
1001
0000
0000
0000
1000
0000
0001
0000
2000
0000
0000
3001
0000
0000
0010
0000
,
0002
0000
0000
1003
0000
0000
0010
0000
2000
0000
0000
3001
0000
0000
0010
0000
,
0100
0000
0000
0000
0010
0000
0001
0000
2000
0000
0000
3001
0000
0000
0100
0000
,
0002
0000
0000
1003
0000
0000
0010
0000
0100
0000
0000
0000
0001
0000
1000
0000
,
0001
0001
1000
1000
0001
0100
0000
0010
,
1000
1000
0001
0001
1000
0100
0000
0000
,
1000
1000
0001
0001
0100
0010
0000
0000
,
1000
0000
0000
1100
0000
0000
0001
0000
0000
0101
0000
0000
1001
0000
0000
0000
,
1000
1000
0010
0010
0100
0001
0000
1000
,
0001
0001
0100
0100
0010
1000
0000
0000
,
0010
0010
0100
0100
0001
1000
0000
0000
,
0001
0000
0000
0011
0000
0000
1000
0000
0000
1010
0000
0000
1001
0000
0000
0000
,
1000
0001
0100
0010
,
1000
0100
0010
0001
1000
0010
0100
0001
,
0000
0000
0000
0000
,
1001
0000
0000
0000
0001
0010
0100
0000
1000
0000
0001
1000
0000
0001
1000
0000
,
0010
0000
0000
0000
1000
0100
0010
0000
0001
0000
1000
0001
0000
1000
0001
0000
,
0100
0000
0000
0000
0010
1000
0100
0000
0010
0000
0001
0010
0000
0100
1000
0000
,
0001
0001
0001
0001
0002
0000
0003
0000
,
1001
0000
0000
0000
1000
0000
0010
0000
0200
0000
0000
0310
0000
0000
1000
0000
,
0020
0000
0000
0130
0000
0000
0001
0000
0200
0000
0000
0310
0000
0000
1000
0000
,
0001
0000
0000
0000
1000
0000
0100
0000
0020
0000
0000
0130
0000
0000
1000
0000
,
0200
0000
0000
0310
0000
0000
0001
0000
1000
0000
0000
0000
0010
0000
1000
0000
;

//---------------dance-single - ----------------
#NOTEDATA:;
#CHARTNAME:;
#STEPSTYPE:dance-single;
#DESCRIPTION:;
#CHARTSTYLE:Pad;
#DIFFICULTY:Medium;
#METER:8;
#RADARVALUES:0.302271,0.300825,0.128794,0.055197,0.018399,230.000000,216.000000,14.000000,6.000000,0.000000,0.000000,0.000000,0.000000,0.000000,0.302271,0.300825,0.128794,0.055197,0.018399,230.000000,216.000000,14.000000,6.000000,0.000000,0.000000,0.000000,0.000000,0.000000;
#CREDIT:Galamoth;
#ATTACKS:Time=:Len=:Mods=:Time=78.641:End=86.214:Mods=*6 Stealth, *6 Dark, *1000 No Alternate, *1000 No Split, *1000 No Cross:Time=79.053:End=86.214:Mods=*1000 110% Drunk, *1000 110% Tipsy, *10000 400% Dizzy, *1000 Mini, *1000 130% Tornado, *1000 -100% Flip, *1000 1x:Time=80.340:Len=0.900:Mods=*1000 Cross:Time=80.441:Len=0.100:Mods=*1000 50% Stealth:Time=80.828:Len=0.300:Mods=*1000 50% Stealth:Time=81.580:Len=0.900:Mods=*1000 Alternate:Time=81.611:Len=0.100:Mods=*1000 50% Stealth:Time=82.021:Len=0.300:Mods=*1000 50% Stealth:Time=82.583:Len=2.000:Mods=*1000 Cross:Time=82.683:Len=0.100:Mods=*1000 50% Stealth:Time=83.179:Len=0.200:Mods=*1000 50% Stealth:Time=83.454:Len=0.020:Mods=*1000 50% Stealth:Time=83.625:Len=0.020:Mods=*1000 50% Stealth:Time=83.922:Len=0.300:Mods=*1000 50% Stealth:Time=85.067:Len=0.100:Mods=*1000 50% Stealth:Time=85.495:Len=0.300:Mods=*1000 50% Stealth:Time=86.214:End=88.544:Mods=*0.44 No Mini, *1.7 No Dizzy, *0.8 No Drunk, *0.8 No Tipsy, *0.44 No Flip:Time=:Len=:Mods=;
#NOTES:
0000
0000
0000
0000
,
0000
0000
0000
0000
,
1000
0100
0010
0001
1000
0010
0100
0001
,
0010
0100
1000
0001
0100
0000
0000
0000
,
0001
0100
0010
1000
0100
0010
0001
1000
,
0010
0100
0001
1000
0100
0000
0000
0000
,
1000
0001
1000
0000
0010
0100
0010
0000
,
1000
0001
0100
0010
1000
0000
0000
0000
,
0010
1000
0100
1000
0010
0100
0001
0010
,
0001
0100
0010
1000
0001
0000
0000
0000
,
2000
3100
0002
0103
,
2000
3010
0002
0013
,
2000
3001
0002
1003
,
0010
0100
0010
0100
0010
0000
0000
0000
,
1001
0000
0110
0000
1000
0100
0010
0000
,
0001
0100
0010
0000
1000
0010
0100
0000
,
1001
0000
0110
0000
0001
0010
0100
0000
,
1000
0010
0100
0000
0001
0100
0010
0000
,
1001
0000
1010
0000
0010
1000
0100
0000
,
0010
0001
0100
0000
0001
1000
0010
0000
,
1001
0000
0011
0000
0010
0001
0100
0000
,
0010
1000
0100
0000
1000
0001
0010
0000
,
0001
1000
0001
1000
0010
0100
0000
0000
,
0001
0010
0001
0010
0100
1000
0000
0000
,
0010
1000
0010
1000
0001
0100
0000
0000
,
0001
0000
0000
1000
0000
0000
0100
0000
0000
0001
0000
0000
0010
0000
0000
0000
,
1000
0001
1000
0001
0100
0010
0000
0000
,
1000
0100
1000
0100
0010
0001
0000
0000
,
0100
0001
0100
0001
1000
0010
0000
0000
,
1000
0000
0000
0001
0000
0000
0010
0000
0000
1000
0000
0000
0100
0000
0000
0000
,
1001
1000
0010
0100
,
0001
0000
1000
0001
0100
0010
1000
0000
,
0000
0000
0000
0000
,
1001
0000
1000
0100
0010
0001
1000
0010
,
0100
0000
0001
0010
0100
1000
0001
0100
,
0010
0000
1000
0100
1000
0001
0100
0001
,
0010
0100
0010
0100
0010
0000
0000
0000
,
1001
0000
0101
0000
0100
0001
0010
0000
,
0100
1000
0010
0000
1000
0001
0100
0000
,
1001
0000
1100
0000
0100
1000
0010
0000
,
0100
0001
0010
0000
0001
1000
0100
0010
;

//---------------dance-single - ----------------
#NOTEDATA:;
#CHARTNAME:;
#STEPSTYPE:dance-single;
#DESCRIPTION:;
#CHARTSTYLE:Pad;
#DIFFICULTY:Easy;
#METER:4;
#RADARVALUES:0.157707,0.168697,0.045998,0.073596,0.000000,120.000000,115.000000,5.000000,8.000000,0.000000,0.000000,0.000000,0.000000,0.000000,0.157707,0.168697,0.045998,0.073596,0.000000,120.000000,115.000000,5.000000,8.000000,0.000000,0.000000,0.000000,0.000000,0.000000;
#CREDIT:Galamoth;
#ATTACKS:Time=:Len=:Mods=:Time=78.641:End=86.214:Mods=*6 Stealth, *6 Dark, *1000 No Alternate, *1000 No Split, *1000 No Cross:Time=79.053:End=86.214:Mods=*1000 110% Drunk, *1000 110% Tipsy, *10000 400% Dizzy, *1000 Mini, *1000 130% Tornado, *1000 -100% Flip, *1000 1x:Time=80.340:Len=0.900:Mods=*1000 Cross:Time=80.441:Len=0.100:Mods=*1000 50% Stealth:Time=80.828:Len=0.300:Mods=*1000 50% Stealth:Time=81.580:Len=0.900:Mods=*1000 Alternate:Time=81.611:Len=0.100:Mods=*1000 50% Stealth:Time=82.021:Len=0.300:Mods=*1000 50% Stealth:Time=82.583:Len=2.000:Mods=*1000 Cross:Time=82.683:Len=0.100:Mods=*1000 50% Stealth:Time=83.179:Len=0.200:Mods=*1000 50% Stealth:Time=83.454:Len=0.020:Mods=*1000 50% Stealth:Time=83.625:Len=0.020:Mods=*1000 50% Stealth:Time=83.922:Len=0.300:Mods=*1000 50% Stealth:Time=85.067:Len=0.100:Mods=*1000 50% Stealth:Time=85.495:Len=0.300:Mods=*1000 50% Stealth:Time=86.214:End=88.544:Mods=*0.44 No Mini, *1.7 No Dizzy, *0.8 No Drunk, *0.8 No Tipsy, *0.44 No Flip:Time=:Len=:Mods=;
#NOTES:
0000
0000
0000
0000
,
0000
0000
0000
0000
,
1000
0001
1000
0001
,
1000
0001
0010
0000
,
0100
0010
0100
0010
,
0100
0010
0001
0000
,
1000
0000
0001
0000
,
0100
0000
0010
0000
,
1000
0001
0100
0010
,
1000
0001
1000
0000
,
1001
0000
0010
0000
,
1001
0000
0100
0000
,
1001
0000
0010
0000
,
2000
0000
0000
0000
0002
3003
0000
0000
,
1001
0000
0001
0100
,
1000
0100
0001
1000
,
0001
0000
1000
0100
,
0001
0100
1000
0001
,
1000
0000
0001
0010
,
1000
0010
0001
1000
,
0001
0000
1000
0010
,
0001
0010
1000
0001
,
2000
0000
3001
0000
,
0002
0000
1003
0000
,
0020
0000
0130
0000
,
0001
0010
0100
1000
,
0002
0000
1003
0000
,
2000
0000
3001
0000
,
0200
0000
0310
0000
,
1000
0100
0010
0001
,
1000
0001
1000
0001
,
0100
0010
0100
0010
,
0000
0000
0000
0000
,
1000
0000
0010
1000
,
0100
0000
0010
0001
,
0100
0000
0010
1000
,
0100
0000
0010
0001
,
1001
0000
0001
0100
,
1000
0100
0001
1000
,
0001
0000
1000
0100
,
0001
0100
1000
0001
;

//---------------dance-single - ----------------
#NOTEDATA:;
#CHARTNAME:;
#STEPSTYPE:dance-single;
#DESCRIPTION:;
#CHARTSTYLE:Pad;
#DIFFICULTY:Beginner;
#METER:2;
#RADARVALUES:0.097252,0.131209,0.018399,0.055197,0.000000,74.000000,72.000000,2.000000,6.000000,0.000000,0.000000,0.000000,0.000000,0.000000,0.097252,0.131209,0.018399,0.055197,0.000000,74.000000,72.000000,2.000000,6.000000,0.000000,0.000000,0.000000,0.000000,0.000000;
#CREDIT:Galamoth;
#ATTACKS:Time=:Len=:Mods=:Time=78.641:End=86.214:Mods=*6 Stealth, *6 Dark, *1000 No Alternate, *1000 No Split, *1000 No Cross:Time=79.053:End=86.214:Mods=*1000 110% Drunk, *1000 110% Tipsy, *10000 400% Dizzy, *1000 Mini, *1000 130% Tornado, *1000 -100% Flip, *1000 1x:Time=80.340:Len=0.900:Mods=*1000 Cross:Time=80.441:Len=0.100:Mods=*1000 50% Stealth:Time=80.828:Len=0.300:Mods=*1000 50% Stealth:Time=81.580:Len=0.900:Mods=*1000 Alternate:Time=81.611:Len=0.100:Mods=*1000 50% Stealth:Time=82.021:Len=0.300:Mods=*1000 50% Stealth:Time=82.583:Len=2.000:Mods=*1000 Cross:Time=82.683:Len=0.100:Mods=*1000 50% Stealth:Time=83.179:Len=0.200:Mods=*1000 50% Stealth:Time=83.454:Len=0.020:Mods=*1000 50% Stealth:Time=83.625:Len=0.020:Mods=*1000 50% Stealth:Time=83.922:Len=0.300:Mods=*1000 50% Stealth:Time=85.067:Len=0.100:Mods=*1000 50% Stealth:Time=85.495:Len=0.300:Mods=*1000 50% Stealth:Time=86.214:End=88.544:Mods=*0.44 No Mini, *1.7 No Dizzy, *0.8 No Drunk, *0.8 No Tipsy, *0.44 No Flip:Time=:Len=:Mods=;
#NOTES:
0000
0000
0000
0000
,
0000
0000
0000
0000
,
1000
0000
0001
0000
,
1000
0000
0001
0000
,
0100
0000
0010
0000
,
0100
0000
0010
0000
,
1000
0000
1000
0000
,
1000
0000
1000
0000
,
0001
0000
0001
0000
,
0001
0000
0001
0000
,
1000
0000
0100
0000
,
1000
0000
0001
0000
,
0100
0000
0001
0000
,
1000
0001
1000
0000
,
1001
0000
0001
0000
,
0010
0000
0100
0000
,
1000
0000
0001
0000
,
0100
0000
0010
0000
,
1001
0000
1000
0000
,
0100
0000
0010
0000
,
0001
0000
1000
0000
,
0010
0000
0100
0000
,
0002
0000
0003
0000
,
2000
0000
3000
0000
,
0002
0000
0003
0000
,
1000
0000
0001
0000
,
2000
0000
3000
0000
,
0002
0000
0003
0000
,
2000
0000
3000
0000
,
0001
0000
1000
0000
,
0001
0000
1000
0000
,
0010
0000
0100
0000
,
0000
0000
0000
0000
,
1000
0000
0100
0000
,
0010
0000
0001
0000
,
0010
0000
0100
0000
,
1000
0000
0001
0000
,
1000
0000
0001
0000
,
0100
0000
0010
0000
,
1000
0000
0010
0000
,
0100
0000
0001
1000
;
