#VERSION:0.83;
#TITLE:Let Me Love You;
#SUBTITLE:;
#ARTIST:Ariana Grande;
#TITLETRANSLIT:;
#SUBTITLETRANSLIT:;
#ARTISTTRANSLIT:;
#GENRE:Contemporary R&B;
#ORIGIN:;
#CREDIT:;
#BANNER:bn.png;
#BACKGROUND:bg.png;
#PREVIEWVID:;
#JACKET:jacket.png;
#CDIMAGE:;
#DISCIMAGE:;
#LYRICSPATH:;
#CDTITLE:;
#MUSIC:Let Me Love You.ogg;
#OFFSET:0.000000;
#SAMPLESTART:53.944836;
#SAMPLELENGTH:13.811703;
#SELECTABLE:YES;
#DISPLAYBPM:139;
#BPMS:0.000=139.000,
128.000=278.000,
133.000=139.000,
144.000=278.000,
149.000=139.000,
160.000=278.000,
165.000=139.000,
176.000=278.000,
181.000=139.000,
256.000=278.000,
261.000=139.000,
272.000=278.000,
277.000=139.000,
288.000=278.000,
293.000=139.000,
304.000=278.000,
309.000=139.000;
#STOPS:128.000=0.215,
129.000=0.108,
129.500=0.108,
130.000=0.108,
130.500=0.108,
131.000=0.108,
131.500=0.108,
132.000=0.108,
132.500=0.107,
144.000=0.216,
145.000=0.108,
145.500=0.108,
146.000=0.108,
146.500=0.108,
147.000=0.108,
147.500=0.108,
148.000=0.108,
148.500=0.107,
160.000=0.216,
161.000=0.108,
161.500=0.108,
162.000=0.108,
162.500=0.108,
163.000=0.108,
163.500=0.108,
164.000=0.108,
164.500=0.107,
176.000=0.215,
177.000=0.108,
177.500=0.108,
178.000=0.108,
178.500=0.108,
179.000=0.108,
179.500=0.108,
180.000=0.108,
180.500=0.108,
256.000=0.216,
257.000=0.108,
257.500=0.108,
258.000=0.108,
258.500=0.108,
259.000=0.108,
259.500=0.108,
260.000=0.108,
260.500=0.107,
272.000=0.216,
273.000=0.108,
273.500=0.108,
274.000=0.108,
274.500=0.108,
275.000=0.108,
275.500=0.108,
276.000=0.108,
276.500=0.108,
288.000=0.215,
289.000=0.108,
289.500=0.108,
290.000=0.108,
290.500=0.108,
291.000=0.108,
291.500=0.108,
292.000=0.108,
292.500=0.108,
304.000=0.216,
305.000=0.108,
305.500=0.108,
306.000=0.108,
306.500=0.108,
307.000=0.108,
307.500=0.108,
308.000=0.108,
308.500=0.107;
#DELAYS:;
#WARPS:;
#TIMESIGNATURES:0.000=4=4;
#TICKCOUNTS:0.000=4;
#COMBOS:0.000=1;
#SPEEDS:0.000=1.000=0.000=0;
#SCROLLS:0.000=1.000;
#FAKES:;
#LABELS:0.000=Song Start;
#BGCHANGES:0.000=Let Me Love You.mp4=1.000=1=0=0=StretchNoLoop==CrossFade==,
320.000=bg.png=1.000=1=0=1===CrossFade==,
99999=-nosongbg-=1.000=0=0=0 // don't automatically add -songbackground-
;
#KEYSOUNDS:;
#ATTACKS:
;

//---------------dance-single - ----------------
#NOTEDATA:;
#CHARTNAME:;
#STEPSTYPE:dance-single;
#DESCRIPTION:;
#CHARTSTYLE:Pad;
#DIFFICULTY:Hard;
#METER:12;
#RADARVALUES:0.435253,0.511773,0.379091,0.259748,0.133384,434.000000,380.000000,54.000000,37.000000,0.000000,0.000000,0.000000,0.000000,0.000000,0.435253,0.511773,0.379091,0.259748,0.133384,434.000000,380.000000,54.000000,37.000000,0.000000,0.000000,0.000000,0.000000,0.000000;
#CREDIT:Galamoth;
#DISPLAYBPM:139.000000;
#NOTES:
// measure 0
0000
0000
0000
0000
,  // measure 1
0000
0000
0000
0000
,  // measure 2
0000
0000
0000
0000
,  // measure 3
0000
0000
0000
0000
,  // measure 4
0000
0000
0000
0000
,  // measure 5
0000
0000
0000
0000
,  // measure 6
0000
0000
0000
0000
,  // measure 7
0000
0000
0000
0000
0000
0000
1000
0001
,  // measure 8
0100
0000
0001
0100
0000
0000
0010
0000
1000
0000
0000
0000
0000
0000
0000
0000
,  // measure 9
0001
0000
1000
0100
0000
0000
1000
0000
0001
0000
0100
0000
0010
0000
1000
0000
,  // measure 10
0001
0000
1000
0001
0000
0000
0100
0000
0010
0000
0000
0000
0000
0000
0000
0000
,  // measure 11
1000
0000
0000
0001
0000
0000
0010
0000
0100
0000
1000
0000
0001
0000
0100
0000
,  // measure 12
0010
0000
0000
1000
0000
0000
0001
0000
0010
0000
0000
0000
0000
0000
0000
0000
,  // measure 13
0001
0000
0010
0100
0000
0100
1000
0000
0001
0000
1000
0000
0100
0000
0010
0000
,  // measure 14
0001
0000
0000
0000
0100
0000
0000
0000
0000
0010
0000
0000
1000
0000
0000
0000
0000
0000
0000
0000
0000
0000
0000
0000
,  // measure 15
1000
0000
1000
0000
0000
0000
0001
1000
,  // measure 16
0010
0000
1000
0010
0000
0000
0100
0000
0001
0000
0000
0000
0000
0000
0000
0000
,  // measure 17
1000
0000
0001
0010
0000
0000
0001
0000
1000
0000
0010
0000
0100
0000
0001
0000
,  // measure 18
1000
0000
0001
1000
0000
0000
0010
0000
0100
0000
0000
0000
0000
0000
0000
0000
,  // measure 19
0001
0000
0000
1000
0000
0000
0100
0000
0010
0000
0001
0000
1000
0000
0010
0000
,  // measure 20
0100
0000
0000
0001
0000
0000
1000
0000
0100
0000
0000
0000
0000
0000
0000
0000
,  // measure 21
1000
0000
0100
0010
0000
0010
0001
0000
1000
0000
0001
0000
0010
0000
0100
0000
,  // measure 22
1000
0000
0000
0000
0010
0000
0000
0000
0000
0100
0000
0000
0001
0000
0000
0000
0000
0000
0000
0000
0000
0000
0000
0000
,  // measure 23
0001
0000
0001
0000
0000
0100
0001
1000
,  // measure 24
1002
0000
0013
2000
,  // measure 25
0000
3000
0102
0000
0000
1003
0100
0000
,  // measure 26
0210
0000
0300
1100
1000
0000
0002
0000
,  // measure 27
0000
0003
0110
0000
0000
0010
1000
0001
,  // measure 28
1002
0000
0103
2000
,  // measure 29
0000
3000
0012
0000
0000
1003
0010
0000
,  // measure 30
0120
0000
0030
0101
0101
0000
0002
0000
,  // measure 31
0000
0003
0110
0000
0000
0100
0001
1000
,  // measure 32
1001
0000
1000
1000
1000
1000
1000
1000
,  // measure 33
1000
1000
2000
0000
3020
0000
0030
0000
,  // measure 34
0110
1000
0000
0101
0010
0000
1000
0000
,  // measure 35
0000
0011
1001
0000
0100
0010
1000
0001
,  // measure 36
1001
0000
0001
0001
0001
0001
0001
0001
,  // measure 37
0001
0001
0002
0000
0203
0000
0300
0000
,  // measure 38
0010
0100
0010
0000
0000
0000
1010
0000
0100
0000
0000
0000
0001
0000
0000
0000
,  // measure 39
0000
0000
0000
0000
0000
0000
1001
0000
0000
0000
0000
0000
0010
0000
0100
0000
0100
0000
0001
0000
0000
1000
0000
0000
,  // measure 40
1001
0000
1000
1000
1000
1000
1000
1000
,  // measure 41
1000
1000
2000
0000
3020
0000
0030
0000
,  // measure 42
0110
1000
0000
0101
0010
0000
1000
0000
,  // measure 43
0000
0101
1001
0000
0100
0010
1000
0001
,  // measure 44
1001
0000
0001
0001
0001
0001
0001
0001
,  // measure 45
0001
0001
0002
0000
0203
0000
0300
0000
,  // measure 46
0010
0100
0010
0000
0000
0000
1010
0000
0100
0000
0000
0000
0001
0000
0000
0000
,  // measure 47
0000
0000
0000
0000
0000
0000
1001
0000
0000
0000
0000
0000
0010
0000
0100
0000
0100
0000
0001
0000
0000
1000
0000
0000
,  // measure 48
0010
0000
1000
0010
0000
0000
0100
0000
0001
0000
0000
0000
0000
0000
0000
0000
,  // measure 49
1000
0000
0001
0010
0000
0000
0001
0000
1000
0000
0010
0000
0100
0000
0001
0000
,  // measure 50
1000
0000
0000
0000
0000
0000
0000
0000
0000
0001
0000
0000
0000
0000
0000
0000
0000
0000
0100
0000
0000
0000
0000
0000
0010
0000
0000
0000
0000
0000
0000
0000
0000
0000
0000
0000
0000
0000
0000
0000
0000
0000
0000
0000
0000
0000
1000
0000
,  // measure 51
0000
0001
0000
1000
0000
0100
0000
0000
0000
1000
0000
0000
0001
0000
0000
0100
0000
0000
0001
0000
0000
0010
0000
0000
,  // measure 52
0100
0000
0010
0100
0000
0000
1000
0000
0100
0000
0000
0000
0000
0000
0000
0000
,  // measure 53
1000
0100
0000
0010
0000
0000
0001
0000
1000
0000
0001
0000
0010
0000
0100
0000
,  // measure 54
1000
0000
0000
0000
0010
0000
0000
0000
0000
0100
0000
0000
0001
0000
0000
0000
0000
0000
0000
0000
0000
0000
0000
0000
,  // measure 55
0001
0000
0001
0000
0000
0100
0001
1000
,  // measure 56
1002
0000
0013
2000
,  // measure 57
0000
3000
0102
0000
0000
1003
0100
0000
,  // measure 58
0210
0000
0300
1100
1000
0000
0002
0000
,  // measure 59
0000
0003
0110
0000
0000
0010
1000
0001
,  // measure 60
1002
0000
0103
2000
,  // measure 61
0000
3000
0012
0000
0000
1003
0010
0000
,  // measure 62
0120
0000
0030
0101
0101
0000
0002
0000
,  // measure 63
0000
0003
0110
0000
0000
0100
0001
1000
,  // measure 64
1001
0000
1000
1000
1000
1000
1000
1000
,  // measure 65
1000
1000
2000
0000
3020
0000
0030
0000
,  // measure 66
0110
1000
0000
0101
0010
0000
1000
0000
,  // measure 67
0000
0011
1001
0000
0100
0010
1000
0001
,  // measure 68
1001
0000
0001
0001
0001
0001
0001
0001
,  // measure 69
0001
0001
0002
0000
0203
0000
0300
0000
,  // measure 70
0010
0100
0010
0000
0000
0000
1010
0000
0100
0000
0000
0000
0001
0000
0000
0000
,  // measure 71
0000
0000
0000
0000
0000
0000
1001
0000
0000
0000
0000
0000
0010
0000
0100
0000
0100
0000
0001
0000
0000
1000
0000
0000
,  // measure 72
1001
0000
1000
1000
1000
1000
1000
1000
,  // measure 73
1000
1000
2000
0000
3020
0000
0030
0000
,  // measure 74
0110
1000
0000
0101
0010
0000
1000
0000
,  // measure 75
0000
0101
1001
0000
0100
0010
1000
0001
,  // measure 76
1001
0000
0001
0001
0001
0001
0001
0001
,  // measure 77
0001
0001
0002
0000
0203
0000
0300
0000
,  // measure 78
0010
0100
0010
0000
0000
0000
1010
0000
0100
0000
0000
0000
0001
0000
0000
0000
,  // measure 79
0000
0000
0000
0000
0000
0000
1001
0000
0000
0000
0000
0000
0010
0000
0100
0000
0100
0000
0001
0000
0000
1000
0000
0000
,  // measure 80
0002
0000
0000
0000
,  // measure 81
0003
0000
0000
0000
;

//---------------dance-single - ----------------
#NOTEDATA:;
#CHARTNAME:;
#STEPSTYPE:dance-single;
#DESCRIPTION:;
#CHARTSTYLE:Pad;
#DIFFICULTY:Medium;
#METER:8;
#RADARVALUES:0.288831,0.367332,0.000000,0.063182,0.045631,288.000000,288.000000,0.000000,9.000000,0.000000,0.000000,0.000000,0.000000,0.000000,0.288831,0.367332,0.000000,0.063182,0.045631,288.000000,288.000000,0.000000,9.000000,0.000000,0.000000,0.000000,0.000000,0.000000;
#CREDIT:Galamoth;
#NOTES:
0000
0000
0000
0000
,
0000
0000
0000
0000
,
0000
0000
0000
0000
,
0000
0000
0000
0000
,
0000
0000
0000
0000
,
0000
0000
0000
0000
,
0000
0000
0000
0000
,
0000
0000
0000
0000
,
1000
0000
0001
0000
,
0100
0000
0000
0010
0000
0000
0000
0000
1000
0000
0000
0000
0001
0000
0100
0000
,
0010
0000
1000
0000
,
0010
0000
0000
0100
0000
0000
0000
0000
0001
0000
0000
0000
1000
0000
0001
0000
,
0100
0000
0001
0000
,
1000
0000
0000
0010
0000
0000
0000
0000
0100
0000
0000
0000
0010
0000
1000
0000
,
0001
0000
1000
0000
,
1000
1000
0000
0000
,
0001
0000
1000
0000
,
0010
0000
0000
0100
0000
0000
0000
0000
0001
0000
0000
0000
1000
0000
0010
0000
,
0100
0000
0001
0000
,
0100
0000
0000
0010
0000
0000
0000
0000
1000
0000
0000
0000
0001
0000
1000
0000
,
0010
0000
1000
0000
,
0001
0000
0000
0100
0000
0000
0000
0000
0010
0000
0000
0000
0100
0000
0001
0000
,
1000
0000
0001
0000
,
0001
0000
0001
0000
0000
0000
1000
0001
,
2000
0000
3010
0200
,
0300
0000
0001
0000
0000
1000
0001
0000
,
0100
0000
0000
0100
0010
0000
1000
0000
,
0000
0000
0010
0000
0100
0000
0001
1000
,
0002
0000
0103
0020
,
0030
0000
1000
0000
0000
0001
1000
0000
,
0010
0000
0000
0010
0010
0000
1000
0000
,
0000
0001
0000
1000
,
0001
0000
1000
0001
1000
0001
1000
0001
,
1000
0001
1000
0000
0010
0000
0000
0000
,
0100
0001
0000
1000
0100
0000
1000
0000
,
0000
0001
0001
0000
0100
0000
0001
0000
,
1000
0000
0001
1000
0001
1000
0001
1000
,
0001
1000
0001
0000
0100
0000
0000
0000
,
0001
1000
0000
0000
0000
0000
0001
0000
0001
0000
0000
0000
1000
0000
0000
0000
,
0000
0010
0100
0001
,
1000
0000
0010
0100
0010
0100
0010
0100
,
0010
0100
0010
0000
0100
0000
0000
0000
,
0010
1000
0000
0001
0010
0000
0001
0000
,
0000
1000
1000
0000
0010
0000
1000
0000
,
0001
0000
0100
0010
0100
0010
0100
0010
,
0100
0010
0100
0000
0010
0000
0000
0000
,
1000
0001
0000
0000
0000
0000
1000
0000
1000
0000
0000
0000
0001
0000
0000
0000
,
0000
0100
0010
1000
,
0001
0000
1000
0000
,
0010
0000
0000
0100
0000
0000
0000
0000
0001
0000
0000
0000
1000
0000
0010
0000
,
0100
0000
0001
0000
,
0100
0000
0000
0010
0000
0000
0000
0000
1000
0000
0000
0000
0001
0000
1000
0000
,
0010
0000
1000
0000
,
0001
0000
0000
0100
0000
0000
0000
0000
0010
0000
0000
0000
0100
0000
0001
0000
,
1000
0000
0001
0000
,
0001
0000
0001
0000
0000
0000
1000
0001
,
2000
0000
3010
0200
,
0300
0000
0001
0000
0000
1000
0001
0000
,
0100
0000
0000
0100
0010
0000
1000
0000
,
0000
0000
0010
0000
0100
0000
0001
1000
,
0002
0000
0103
0020
,
0030
0000
1000
0000
0000
0001
1000
0000
,
0010
0000
0000
0010
0010
0000
1000
0000
,
0000
0001
0000
1000
,
0001
0000
1000
0001
1000
0001
1000
0001
,
1000
0001
1000
0000
0010
0000
0000
0000
,
0100
0001
0000
1000
0100
0000
1000
0000
,
0000
0001
0001
0000
0100
0000
0001
0000
,
1000
0000
0001
1000
0001
1000
0001
1000
,
0001
1000
0001
0000
0100
0000
0000
0000
,
0001
1000
0000
0000
0000
0000
0001
0000
0001
0000
0000
0000
1000
0000
0000
0000
,
0000
0010
0100
0001
,
1000
0000
0010
0100
0010
0100
0010
0100
,
0010
0100
0010
0000
0100
0000
0000
0000
,
0010
1000
0000
0001
0010
0000
0001
0000
,
0000
1000
1000
0000
0010
0000
1000
0000
,
0001
0000
0100
0010
0100
0010
0100
0010
,
0100
0010
0100
0000
0010
0000
0000
0000
,
1000
0001
0000
0000
0000
0000
1000
0000
1000
0000
0000
0000
0001
0000
0000
0000
,
0000
0100
0010
1000
,
0002
0000
0003
0000
;

//---------------dance-single - ----------------
#NOTEDATA:;
#CHARTNAME:;
#STEPSTYPE:dance-single;
#DESCRIPTION:;
#CHARTSTYLE:Pad;
#DIFFICULTY:Easy;
#METER:4;
#RADARVALUES:0.145419,0.169011,0.000000,0.063182,0.000000,145.000000,145.000000,0.000000,9.000000,0.000000,0.000000,0.000000,0.000000,0.000000,0.145419,0.169011,0.000000,0.063182,0.000000,145.000000,145.000000,0.000000,9.000000,0.000000,0.000000,0.000000,0.000000,0.000000;
#CREDIT:Galamoth;
#NOTES:
0000
0000
0000
0000
,
0000
0000
0000
0000
,
0000
0000
0000
0000
,
0000
0000
0000
0000
,
0000
0000
0000
0000
,
0000
0000
0000
0000
,
0000
0000
0000
0000
,
0000
0000
0000
0000
,
0001
0000
0001
0000
,
1000
0000
1000
0000
,
0001
0000
0001
0000
,
1000
0000
1000
0000
,
0010
0000
0010
0000
,
0100
0000
0100
0000
,
0001
0000
1000
0000
,
1000
1000
0000
0000
,
1000
0000
1000
0000
,
0001
0000
0001
0000
,
1000
0000
1000
0000
,
0001
0000
0001
0000
,
0100
0000
0100
0000
,
0010
0000
0010
0000
,
1000
0000
0001
0000
,
0001
0001
0000
0000
,
1000
0000
0010
0010
,
0000
0100
0000
0001
,
0001
0000
1000
0010
,
0000
0100
0100
0000
,
0001
0000
0100
0100
,
0000
0010
0000
1000
,
1000
0000
0001
0100
,
0000
0010
0010
0000
,
2000
0000
0000
0000
,
0000
3000
0001
0000
,
0100
0000
0010
0010
,
0000
1000
0001
0000
,
0002
0000
0000
0000
,
0000
0003
1000
0000
,
0010
0000
1000
1000
,
0000
0010
0010
0000
,
2000
0000
0000
0000
,
0000
3000
0001
0000
,
0100
0000
0010
0010
,
0000
1000
0001
0000
,
0002
0000
0000
0000
,
0000
0003
1000
0000
,
0010
0000
1000
1000
,
0000
0010
0010
0000
,
1000
0000
1000
0000
,
0001
0000
0001
0000
,
1000
0000
1000
0000
,
0001
0000
0001
0000
,
0100
0000
0100
0000
,
0010
0000
0010
0000
,
1000
0000
0100
0000
,
0100
0100
0000
0000
,
1000
0000
0010
0010
,
0000
0100
0000
0001
,
0001
0000
1000
0010
,
0000
0100
0100
0000
,
0001
0000
0100
0100
,
0000
0010
0000
1000
,
1000
0000
0001
0100
,
0000
0010
0010
0000
,
2000
0000
0000
0000
,
0000
3000
0001
0000
,
0100
0000
0010
0010
,
0000
1000
0001
0000
,
0002
0000
0000
0000
,
0000
0003
1000
0000
,
0010
0000
1000
1000
,
0000
0010
0010
0000
,
2000
0000
0000
0000
,
0000
3000
0001
0000
,
0100
0000
0010
0010
,
0000
1000
0001
0000
,
0002
0000
0000
0000
,
0000
0003
1000
0000
,
0010
0000
1000
1000
,
0000
0010
0010
0000
,
2000
3000
0000
0000
;

//---------------dance-single - ----------------
#NOTEDATA:;
#CHARTNAME:;
#STEPSTYPE:dance-single;
#DESCRIPTION:;
#CHARTSTYLE:Pad;
#DIFFICULTY:Beginner;
#METER:2;
#RADARVALUES:0.097280,0.140404,0.056162,0.000000,0.000000,97.000000,89.000000,8.000000,0.000000,0.000000,0.000000,0.000000,0.000000,0.000000,0.097280,0.140404,0.056162,0.000000,0.000000,97.000000,89.000000,8.000000,0.000000,0.000000,0.000000,0.000000,0.000000,0.000000;
#CREDIT:Galamoth;
#NOTES:
0000
0000
0000
0000
,
0000
0000
0000
0000
,
0000
0000
0000
0000
,
0000
0000
0000
0000
,
0000
0000
0000
0000
,
0000
0000
0000
0000
,
0000
0000
0000
0000
,
0000
0000
0000
0000
,
1000
0000
0000
0000
,
1000
0000
0000
0000
,
0001
0000
0000
0000
,
0001
0000
0000
0000
,
0100
0000
0000
0000
,
0100
0000
0000
0000
,
0001
0000
0000
0000
,
1000
0000
0000
0000
,
1000
0000
0000
0000
,
1000
0000
0000
0000
,
0001
0000
0000
0000
,
0001
0000
0000
0000
,
0100
0000
0000
0000
,
0100
0000
0000
0000
,
0001
0000
0000
0000
,
1000
0000
0000
0000
,
0001
0000
0001
0000
,
0000
0001
0000
0000
,
1000
0000
1000
0000
,
0000
1000
0000
0000
,
0010
0000
0010
0000
,
0000
0010
0000
0000
,
0100
0000
0100
0000
,
0000
0100
0000
0000
,
1001
0000
0000
0000
,
0000
0000
0001
0000
,
1000
0000
1000
0000
,
0000
0001
0000
0000
,
1001
0000
0000
0000
,
0000
0000
1000
0000
,
0001
0000
0001
0000
,
0000
1000
0000
0000
,
1001
0000
0000
0000
,
0000
0000
0001
0000
,
0100
0000
0100
0000
,
0000
0001
0000
0000
,
1001
0000
0000
0000
,
0000
0000
1000
0000
,
0010
0000
0010
0000
,
0000
1000
0000
0000
,
1000
0000
0000
0000
,
1000
0000
0000
0000
,
0001
0000
0000
0000
,
0001
0000
0000
0000
,
0100
0000
0000
0000
,
0100
0000
0000
0000
,
0001
0000
0000
0000
,
1000
0000
0000
0000
,
0001
0000
0001
0000
,
0000
0001
0000
0000
,
1000
0000
1000
0000
,
0000
1000
0000
0000
,
0010
0000
0010
0000
,
0000
0010
0000
0000
,
0100
0000
0100
0000
,
0000
0100
0000
0000
,
1001
0000
0000
0000
,
0000
0000
0001
0000
,
1000
0000
1000
0000
,
0000
0001
0000
0000
,
1001
0000
0000
0000
,
0000
0000
1000
0000
,
0001
0000
0001
0000
,
0000
1000
0000
0000
,
1001
0000
0000
0000
,
0000
0000
0001
0000
,
0100
0000
0100
0000
,
0000
0001
0000
0000
,
1001
0000
0000
0000
,
0000
0000
1000
0000
,
0010
0000
0010
0000
,
0000
1000
0000
0000
,
0001
0000
0000
0000
;
