#TITLE:Later Bitches;
#SUBTITLE:;
#ARTIST:The Prince Karma;
#TITLETRANSLIT:;
#SUBTITLETRANSLIT:;
#ARTISTTRANSLIT:;
#GENRE:House;
#CREDIT:;
#BANNER:bn.png;
#BACKGROUND:bg.png;
#LYRICSPATH:;
#CDTITLE:;
#MUSIC:Later Bitches.ogg;
#OFFSET:1.497739;
#SAMPLESTART:22.271000;
#SAMPLELENGTH:15.867531;
#LASTBEATHINT:0.947338;
#SELECTABLE:YES;
#BPMS:0.000000=121.004005
,47.000000=120.999001
,48.000000=121.004005
,51.000000=120.999001
,52.000000=121.004005
,54.000000=120.999001
,55.000000=121.004005
,56.000000=120.999001
,57.000000=121.004005
,58.000000=120.999001
,59.000000=121.004005
,60.000000=120.999001
,61.000000=121.004005
,62.000000=120.999001
,63.000000=121.004005
,64.000000=120.999001
,65.000000=121.004005
,66.000000=120.999001
,67.000000=121.004005
,68.000000=120.999001
,69.000000=121.004005
,70.000000=120.999001
,71.000000=121.004005
,72.000000=120.999001
,73.000000=121.004005
,74.000000=120.999001
,75.000000=121.004005
,76.000000=120.999001
,77.000000=121.004005
,78.000000=120.999001
,79.000000=121.004005
,80.000000=120.999001
,81.000000=121.004005
,82.000000=120.999001
,83.000000=121.004005
,84.000000=120.999001
,85.000000=121.004005
,86.000000=120.999001
,87.000000=121.004005
,88.000000=120.999001
,89.000000=121.004005
,90.000000=120.999001
,91.000000=121.004005
,92.000000=120.999001
,93.000000=121.004005
,94.000000=120.999001
,95.000000=121.004005
,96.000000=120.999001
,97.000000=121.004005
,98.000000=120.999001
,100.000000=121.004005
,101.000000=120.999001
,102.000000=121.004005
,103.000000=120.999001
,105.000000=121.004005
,107.000000=120.999001
,109.000000=121.004005
,111.000000=120.999001
,113.000000=121.004005
,115.000000=120.999001
,117.000000=121.004005
,119.000000=120.999001
,121.000000=121.004005
,123.000000=120.999001
,125.000000=121.004005
,127.000000=120.999001
,129.000000=121.004005
,131.000000=120.999001
,133.000000=121.004005
,135.000000=120.999001
,137.000000=121.004005
,139.000000=120.999001
,141.000000=121.004005
,143.000000=120.999001
,145.000000=121.004005
,147.000000=120.999001
,149.000000=121.004005
,151.000000=120.999001
,153.000000=121.004005
,155.000000=120.999001
,157.000000=121.004005
,159.000000=120.999001
,161.000000=121.004005
,163.000000=120.999001
,165.000000=121.004005
,167.000000=120.999001
,169.000000=121.004005
,171.000000=120.999001
,173.000000=121.004005
,175.000000=120.999001
,177.000000=121.004005
,179.000000=120.999001
,181.000000=121.004005
,183.000000=120.999001
,185.000000=121.004005
,187.000000=120.999001
,189.000000=121.004005
,191.000000=120.999001
,193.000000=121.004005
,194.000000=120.992989
,195.000000=120.999001
,196.000000=121.004005
,197.000000=120.999001
,202.000000=121.004005
,203.000000=120.999001
,208.000000=121.004005
,209.000000=120.999001
,214.000000=121.004005
,215.000000=120.999001
,216.000000=121.004005
,217.000000=120.999001
,222.000000=121.004005
,223.000000=120.999001
,228.000000=121.004005
,229.000000=120.999001
,234.000000=121.004005
,235.000000=120.999001
,236.000000=121.004005
,237.000000=120.999001
,242.000000=121.004005
,243.000000=120.999001
,248.000000=121.004005
,249.000000=120.999001
,254.000000=121.004005
,255.000000=120.999001
,256.000000=121.004005
,257.000000=120.999001
;
#STOPS:
;
#BGCHANGES:3.021=Later Bitches.mp4=1.000=1=0=0=StretchNoLoop==CrossFade==,
257.500=bg.png=1.000=1=0=1===CrossFade==,
99999=-nosongbg-=1.000=0=0=0 // don't automatically add -songbackground-
;
#KEYSOUNDS:;
#ATTACKS:;

//---------------dance-single - ----------------
#NOTES:
     dance-single:
     :
     Medium:
     7:
     0.262876,0.328412,0.251642,0.062910,0.003932,234.000000,202.000000,32.000000,8.000000,0.000000,0.000000,0.262876,0.328412,0.251642,0.062910,0.003932,234.000000,202.000000,32.000000,8.000000,0.000000,0.000000:
0000
0000
0000
0000
,
0000
0000
0000
0000
,
0000
0000
0000
0000
,
0000
0000
0000
0000
,
0000
0000
0000
0000
,
1000
0100
1000
0000
0001
0000
1000
0000
,
0001
0000
1000
0010
1000
0000
0000
0000
,
0001
0000
1000
0000
,
0000
0000
0000
1000
,
0001
0100
0001
0000
1000
0000
0001
0000
,
1000
0000
0001
0010
0001
0000
1000
0000
,
0001
1000
0010
0100
,
0000
0000
0000
1001
,
0001
1000
0004
0000
0000
0003
1000
0000
,
0100
0010
0010
1001
,
1000
0010
4000
0000
0000
3000
0010
0000
,
0100
0010
0010
0110
,
0100
0001
0400
0000
0000
0300
0010
0000
,
1000
0001
0001
1001
,
0000
1001
0000
1001
,
1001
1001
0000
0110
,
0100
0010
0400
0000
0000
0300
0001
1000
,
0001
0100
0100
0110
,
0010
0100
0040
0000
0000
0030
1000
0010
,
1000
0001
0100
1001
,
1000
0001
4000
0000
0000
3000
0010
0100
,
0010
1000
0010
0110
,
0000
0110
0000
0110
,
0110
0110
0000
2000
,
0000
0000
0000
3200
,
0000
0000
0000
0320
,
0000
0000
0000
0032
,
0000
0000
0000
0203
,
0000
0000
0000
0320
,
0000
0000
0000
2030
,
0000
0000
0000
3002
,
0000
0000
0000
1003
,
1000
0001
0001
0010
,
0010
0100
0100
1000
,
1000
0001
0001
0100
,
0100
0010
0010
1000
,
1000
0001
0001
0010
,
0010
0100
0100
0010
,
0010
0001
0001
1000
,
1000
0001
0001
0100
,
0100
0010
0100
0000
0100
0010
0100
0000
,
0100
0000
0010
0000
0100
0000
0000
0000
0100
0000
0010
0000
0400
0040
0000
0000
,
0000
0000
0000
0330
,
0000
0000
0000
1001
,
1000
0001
4000
0000
0000
3000
0001
0000
,
0010
0100
0100
1001
,
0001
0100
0004
0000
0000
0003
0100
0000
,
0010
0100
0100
0110
,
0010
1000
0040
0000
0000
0030
0100
0000
,
0001
1000
1000
1001
,
0000
1001
0000
1001
,
1001
1001
0000
0110
,
0010
0100
0040
0000
0000
0030
1000
0001
,
1000
0010
0010
0110
,
0100
0010
0400
0000
0000
0300
0001
0100
,
0001
1000
0010
1001
,
0001
1000
0004
0000
0000
0000
0103
0010
,
0100
0001
0100
0110
,
0000
0110
0000
0110
,
0110
0110
0000
0000
;

//---------------dance-single - ----------------
#NOTES:
     dance-single:
     :
     Hard:
     11:
     0.406671,0.555774,0.165140,0.062910,0.149412,362.000000,341.000000,21.000000,8.000000,8.000000,0.000000,0.406671,0.555774,0.165140,0.062910,0.149412,362.000000,341.000000,21.000000,8.000000,8.000000,0.000000:
// measure 0
0000
0000
0000
0000
,  // measure 1
0000
0000
0000
0000
,  // measure 2
0000
0000
0000
0000
,  // measure 3
0000
0000
0000
0000
,  // measure 4
0000
0000
0000
0000
,  // measure 5
1000
0000
0000
0000
0000
0000
0000
0000
0001
0000
0000
0000
0000
0000
0000
0000
1000
0000
0000
0000
0000
0000
0000
0000
0000
0000
0000
0000
0000
0010
0000
0000
0000
0000
0000
0000
0000
0000
0000
0000
1000
0000
0000
0000
0000
0000
0000
0000
0001
0000
0000
0000
0000
0000
0000
0000
0010
0000
0000
0000
0000
0000
0000
0000
,  // measure 6
0001
0000
0000
0000
0000
0000
0000
0000
0000
0000
0000
0000
0000
0000
0000
0000
0000
0000
0000
0000
0000
0000
0000
0000
1000
0000
0000
0000
0000
0000
0000
0000
0000
0000
0000
0000
0000
0000
0000
0000
0000
0000
0000
0000
0000
0000
0000
0000
0000
0000
0000
0000
0000
0000
0000
0000
0000
0000
0000
0000
0000
0000
0000
0100
0000
0000
0000
0000
0000
0000
0000
0000
0000
0000
0000
0000
0000
0000
0000
0000
0000
0000
0000
0000
0000
0000
0000
0000
1000
0000
0000
0000
0000
0000
0000
0000
0000
0000
0000
0000
0000
0000
0000
0000
0000
0000
0000
0000
0000
0000
0000
0000
0000
0000
0000
0000
0000
0000
0000
0000
0000
0000
0000
0001
0000
0000
0000
0000
0000
0000
0000
0000
0000
0000
0000
0000
0000
0000
0000
0000
0000
0000
0000
0000
0000
0000
0000
0000
0000
0000
0000
0000
0000
0000
0000
0000
0000
0000
0000
0000
0000
0000
0000
0000
0000
0000
0000
0000
0000
0000
0000
0000
0000
0000
0000
0000
0000
0000
0000
0000
0000
0000
0000
0000
0000
0000
0000
0000
0000
0000
0000
0000
,  // measure 7
0000
0000
0000
0000
,  // measure 8
0000
0000
0000
0000
0000
0000
0000
0000
0000
0000
1000
0100
1000
0000
0000
0000
,  // measure 9
1000
0000
0000
0000
0000
0000
0000
0000
0001
0000
0000
0000
0000
0000
0000
0000
1000
0000
0000
0000
0000
0000
0000
0000
0000
0000
0000
0000
0000
0010
0000
0000
0000
0000
0000
0000
0000
0000
0000
0000
1000
0000
0000
0000
0000
0000
0000
0000
0001
0000
0000
0000
0000
0000
0000
0000
0010
0000
0000
0000
0000
0000
0000
0000
,  // measure 10
0001
0000
0000
0000
0000
0000
0000
0000
0000
0000
0000
0000
0000
0000
0000
0000
0000
0000
0000
0000
0000
0000
0000
0000
1000
0000
0000
0000
0000
0000
0000
0000
0000
0000
0000
0000
0000
0000
0000
0000
0000
0000
0000
0000
0000
0000
0000
0000
0000
0000
0000
0000
0000
0000
0000
0000
0000
0000
0000
0000
0000
0000
0000
0100
0000
0000
0000
0000
0000
0000
0000
0000
0000
0000
0000
0000
0000
0000
0000
0000
0000
0000
0000
0000
0000
0000
0000
0000
1000
0000
0000
0000
0000
0000
0000
0000
0000
0000
0000
0000
0000
0000
0000
0000
0000
0000
0000
0000
0000
0000
0000
0000
0000
0000
0000
0000
0000
0000
0000
0000
0000
0000
0000
0001
0000
0000
0000
0000
0000
0000
0000
0000
0000
0000
0000
0000
0000
0000
0000
0000
0000
0000
0000
0000
0000
0000
0000
0000
0000
0000
0000
0000
0000
0000
0000
0000
0000
0000
0000
0000
0000
0000
0000
0000
0000
0000
0000
0000
0000
0000
0000
0000
0000
0000
0000
0000
0000
0000
0000
0000
0000
0000
0000
0000
0000
0000
0000
0000
0000
0000
0000
0000
,  // measure 11
0000
0000
0000
0000
,  // measure 12
0000
0000
0000
1000
,  // measure 13
0001
0100
0010
0010
0010
0010
0100
0010
,  // measure 14
0001
0010
1000
0000
1001
0000
0001
0000
,  // measure 15
0010
0001
1000
1000
1000
1000
0010
0100
,  // measure 16
1000
0000
0100
0000
0001
0000
0000
0000
0001
0000
1000
0001
1000
0000
0000
0000
,  // measure 17
0001
0010
0100
0100
0100
0100
1000
0010
,  // measure 18
0001
0010
1000
0000
1001
0000
0001
0000
,  // measure 19
1000
0100
0001
0000
1000
0010
0001
0000
,  // measure 20
1001
0000
0000
0000
1001
0000
0000
0000
0000
0000
0010
0100
0010
0000
0000
0000
,  // measure 21
1001
0000
0001
0000
1000
0000
1000
0000
1000
0000
1000
0001
0100
0000
0010
0000
,  // measure 22
0001
0000
0010
0000
0100
0000
0000
0000
1001
0000
1000
0001
1000
0000
0000
0000
,  // measure 23
0001
0000
0100
0000
0010
0000
0010
0000
0010
0000
0010
0100
0001
0000
0100
0000
,  // measure 24
1000
0000
0100
0000
0010
0000
0000
0000
0101
0000
0001
1000
0001
0000
0000
0000
,  // measure 25
1000
0000
0001
0000
0010
0000
0010
0000
0010
0000
0010
0001
0100
0000
0010
0000
,  // measure 26
0001
0010
1000
0000
1001
0000
0001
0000
,  // measure 27
1000
0100
0001
0000
1000
0010
0001
0000
,  // measure 28
1001
1001
0000
2000
,  // measure 29
0000
0000
0000
3200
,  // measure 30
0000
0000
0000
0320
,  // measure 31
0000
0000
0000
0032
,  // measure 32
0000
0000
0000
0203
,  // measure 33
0000
0000
0000
0320
,  // measure 34
0000
0000
0000
2030
,  // measure 35
0000
0000
0000
3002
,  // measure 36
0000
0000
0000
1003
,  // measure 37
0001
1000
0100
0100
0100
0000
1000
0010
,  // measure 38
0100
0001
0010
0000
0010
0000
10M0
0000
,  // measure 39
0001
1000
0100
0100
0100
0000
1000
0010
,  // measure 40
0100
0001
0010
0000
0010
0000
10M0
0000
,  // measure 41
0001
1000
0100
0100
0100
0000
1000
0010
,  // measure 42
0100
0001
0010
0000
0010
0000
10M0
0000
,  // measure 43
0001
1000
0100
0100
0100
0000
1000
0010
,  // measure 44
0100
0001
0010
0000
0010
0000
10M0
0000
,  // measure 45
0001
0100
1000
0000
0001
0010
1000
0000
,  // measure 46
0001
0000
0100
0000
1000
0000
0000
0000
0001
0000
0010
0000
1000
0001
1000
0001
,  // measure 47
0100
0010
0100
0010
1000
0001
1000
0001
0100
0010
0100
0010
0000
0000
0000
0000
,  // measure 48
MMMM
0000
0000
0000
0000
0000
0000
0000
0000
0000
0001
0010
0001
0000
0000
0000
,  // measure 49
1000
0000
0010
0000
0100
0000
0100
0000
0100
0000
0100
0001
1000
0000
0010
0000
,  // measure 50
0001
0000
0010
0000
0100
0000
0000
0000
1010
0000
1000
0001
1000
0000
0000
0000
,  // measure 51
0100
0000
1000
0000
0001
0000
0001
0000
0001
0000
0001
0100
0010
0000
0100
0000
,  // measure 52
1000
0000
0100
0000
0001
0000
0000
0000
1010
0000
0010
0100
0010
0000
0000
0000
,  // measure 53
1000
0000
0100
0000
0010
0000
0010
0000
0010
0000
0010
0001
1000
0000
0010
0000
,  // measure 54
0001
0000
0010
0000
1000
0000
0000
0000
1001
0000
0001
0100
0001
0000
0000
0000
,  // measure 55
1000
0100
0001
0000
1000
0010
0001
0000
,  // measure 56
1001
0000
0000
0000
1001
0000
0000
0000
0000
0000
0010
0100
0010
0000
0000
0000
,  // measure 57
1001
0000
0001
0000
1000
0000
1000
0000
1000
0000
1000
0001
0100
0000
0010
0000
,  // measure 58
0001
0000
0010
0000
1000
0000
0100
0000
1001
0000
0001
1000
0001
0000
0010
0000
,  // measure 59
0001
0000
0100
0000
0010
0000
0010
0000
0010
0000
0010
0100
0001
0000
0100
0000
,  // measure 60
1000
0000
0100
0000
0001
0000
0010
0000
1001
0000
1000
0001
1000
0000
0010
0000
,  // measure 61
1000
0000
0001
0000
0010
0000
0010
0000
0010
0000
0010
0001
0100
0000
0010
0000
,  // measure 62
0001
0000
0010
0000
1000
0000
0010
0000
1001
0000
1000
0010
1000
0000
0000
0000
,  // measure 63
0001
0010
1000
0000
0001
0100
1000
0000
,  // measure 64
1001
1001
0000
0000
;

//---------------dance-single - Rolls----------------
#NOTES:
     dance-single:
     Rolls:
     Edit:
     12:
     0.387573,0.556855,0.165140,0.062910,0.165140,345.000000,324.000000,21.000000,8.000000,103.000000,0.000000,0.387573,0.556855,0.165140,0.062910,0.165140,345.000000,324.000000,21.000000,8.000000,103.000000,0.000000:
0000
0000
0000
0000
,
0000
0000
0000
0000
,
0000
0000
0000
0000
,
0000
0000
0000
0000
,
0000
0000
0000
0000
,
1000
0000
0000
0000
0000
0000
0000
0000
0001
0000
0000
0000
0000
0000
0000
0000
1000
0000
0000
0000
0000
0000
0000
0000
0000
0000
0000
0000
0000
0010
0000
0000
0000
0000
0000
0000
0000
0000
0000
0000
1000
0000
0000
0000
0000
0000
0000
0000
0001
0000
0000
0000
0000
0000
0000
0000
0010
0000
0000
0000
0000
0000
0000
0000
,
0001
0000
0000
0000
0000
0000
0000
0000
0000
0000
0000
0000
0000
0000
0000
0000
0000
0000
0000
0000
0000
0000
0000
0000
1000
0000
0000
0000
0000
0000
0000
0000
0000
0000
0000
0000
0000
0000
0000
0000
0000
0000
0000
0000
0000
0000
0000
0000
0000
0000
0000
0000
0000
0000
0000
0000
0000
0000
0000
0000
0000
0000
0000
0100
0000
0000
0000
0000
0000
0000
0000
0000
0000
0000
0000
0000
0000
0000
0000
0000
0000
0000
0000
0000
0000
0000
0000
0000
1000
0000
0000
0000
0000
0000
0000
0000
0000
0000
0000
0000
0000
0000
0000
0000
0000
0000
0000
0000
0000
0000
0000
0000
0000
0000
0000
0000
0000
0000
0000
0000
0000
0000
0000
0001
0000
0000
0000
0000
0000
0000
0000
0000
0000
0000
0000
0000
0000
0000
0000
0000
0000
0000
0000
0000
0000
0000
0000
0000
0000
0000
0000
0000
0000
0000
0000
0000
0000
0000
0000
0000
0000
0000
0000
0000
0000
0000
0000
0000
0000
0000
0000
0000
0000
0000
0000
0000
0000
0000
0000
0000
0000
0000
0000
0000
0000
0000
0000
0000
0000
0000
0000
0000
,
0000
0000
0000
0000
,
0000
0000
0000
0000
0000
0000
0000
0000
0000
0000
1000
0100
1000
0000
0000
0000
,
1000
0000
0000
0000
0000
0000
0000
0000
0001
0000
0000
0000
0000
0000
0000
0000
1000
0000
0000
0000
0000
0000
0000
0000
0000
0000
0000
0000
0000
0010
0000
0000
0000
0000
0000
0000
0000
0000
0000
0000
1000
0000
0000
0000
0000
0000
0000
0000
0001
0000
0000
0000
0000
0000
0000
0000
0010
0000
0000
0000
0000
0000
0000
0000
,
0001
0000
0000
0000
0000
0000
0000
0000
0000
0000
0000
0000
0000
0000
0000
0000
0000
0000
0000
0000
0000
0000
0000
0000
1000
0000
0000
0000
0000
0000
0000
0000
0000
0000
0000
0000
0000
0000
0000
0000
0000
0000
0000
0000
0000
0000
0000
0000
0000
0000
0000
0000
0000
0000
0000
0000
0000
0000
0000
0000
0000
0000
0000
0100
0000
0000
0000
0000
0000
0000
0000
0000
0000
0000
0000
0000
0000
0000
0000
0000
0000
0000
0000
0000
0000
0000
0000
0000
1000
0000
0000
0000
0000
0000
0000
0000
0000
0000
0000
0000
0000
0000
0000
0000
0000
0000
0000
0000
0000
0000
0000
0000
0000
0000
0000
0000
0000
0000
0000
0000
0000
0000
0000
0001
0000
0000
0000
0000
0000
0000
0000
0000
0000
0000
0000
0000
0000
0000
0000
0000
0000
0000
0000
0000
0000
0000
0000
0000
0000
0000
0000
0000
0000
0000
0000
0000
0000
0000
0000
0000
0000
0000
0000
0000
0000
0000
0000
0000
0000
0000
0000
0000
0000
0000
0000
0000
0000
0000
0000
0000
0000
0000
0000
0000
0000
0000
0000
0000
0000
0000
0000
0000
,
0000
0000
0000
0000
,
0000
0000
0000
1000
,
0001
0100
0040
0000
1000
0030
0100
0010
,
0001
0010
1000
0000
1001
0000
0001
0000
,
0010
0001
4000
0000
0001
3000
0010
0100
,
1000
0000
0100
0000
0001
0000
0000
0000
0001
0000
1000
0001
1000
0000
0000
0000
,
0001
0010
0400
0000
0010
0300
1000
0010
,
0001
0010
1000
0000
1001
0000
0001
MMMM
,
1000
0100
0001
MMMM
1000
0010
0001
MMMM
,
1001
0000
MMMM
0000
1001
0000
MMMM
0000
0000
0000
0010
0100
0010
0000
0000
0000
,
1001
0000
0001
0000
4000
0000
0000
0000
0100
0000
3001
0010
0100
0000
0010
0000
,
1000
0000
0010
0000
0001
0000
0000
0000
1001
0000
1000
0001
1000
0000
0000
0000
,
0001
0000
0100
0000
0040
0000
0000
0000
0100
0000
1030
0100
0010
0000
0100
0000
,
0001
0000
0100
0000
1000
0000
0000
0000
0101
0000
0001
1000
0001
0000
0000
0000
,
1000
0000
0001
0000
0040
0000
0000
0000
0100
0000
0031
1000
0010
0000
0100
0000
,
1000
0000
0100
0000
0001
0000
0000
0000
1001
0000
0001
1000
0001
0000
MMMM
0000
,
1000
0000
0100
0000
0001
0000
MMMM
0000
1000
0000
0010
0100
1000
0000
MMMM
0000
,
1001
MMMM
1001
MMMM
0000
0000
2000
0000
,
0000
0000
0000
0200
,
3000
0000
0000
0002
,
0300
0000
0000
0020
,
0003
0000
0000
2000
,
0030
0000
0000
0200
,
3000
0000
0000
0020
,
0300
0000
0000
0002
,
0030
0000
0000
1003
,
0001
1000
0400
0000
0300
0000
1000
0010
,
0100
0001
0010
0000
0010
0000
10M0
0000
,
0001
1000
0400
0000
0300
0000
1000
0010
,
0100
0001
0010
0000
0010
0000
10M0
0000
,
0001
1000
0400
0000
0300
0000
1000
0010
,
0100
0001
0010
0000
0010
0000
10M0
0000
,
0001
1000
0400
0000
0300
0000
1000
0010
,
0100
0001
0010
0000
0010
0000
10M0
MMMM
,
0001
0010
1000
MMMM
0001
0100
1000
MMMM
,
0001
0000
0010
0000
1000
0000
MMMM
0000
0001
0000
0010
0000
1000
0001
1000
0001
,
0100
0010
0100
0010
1000
0001
1000
0001
0100
0010
0100
0010
0000
0000
0000
0000
,
MMMM
0000
0000
0000
0000
0000
0000
0000
0000
0000
0001
0010
0001
0000
0000
0000
,
1000
0000
0010
0000
0400
0000
0000
0000
0001
0000
0310
1000
0001
0000
0100
0000
,
1000
0000
0100
0000
0001
0000
0000
0000
1001
0000
1000
0001
1000
0000
0000
0000
,
0100
0000
1000
0000
0004
0000
0000
0000
1000
0000
0013
0100
1000
0000
0010
0000
,
0001
0000
0010
0000
1000
0000
0000
0000
1001
0000
0001
1000
0001
0000
0000
0000
,
1000
0000
0100
0000
0040
0000
0000
0000
0100
0000
0031
1000
0010
0000
0100
0000
,
1000
0000
0100
0000
0001
0000
0000
0000
1001
0000
1000
0001
1000
0000
MMMM
0000
,
0001
0000
0010
0000
1000
0000
MMMM
0000
0001
0000
0100
0010
0001
0000
MMMM
0000
,
1001
0000
MMMM
0000
1001
0000
MMMM
0000
0000
0000
0100
0010
0100
0000
0000
0000
,
1001
0000
1000
0000
0004
0000
0000
0000
0010
0000
1003
0100
0010
0000
0100
0000
,
0001
0000
0100
0000
1000
0000
0010
0000
1001
0000
0001
1000
0001
0000
0010
0000
,
0001
0000
0100
0000
0040
0000
0000
0000
0100
0000
1030
0100
0010
0000
0100
0000
,
0001
0000
0100
0000
1000
0000
0010
0000
0101
0000
0001
1000
0001
0000
0100
0000
,
0001
0000
1000
0000
0400
0000
0000
0000
0010
0000
1300
0001
0100
0000
0010
0000
,
0001
0000
0010
0000
1000
0000
0100
0000
1001
0000
1000
0001
1000
0000
MMMM
0000
,
0001
0000
0010
0000
1000
0000
MMMM
0000
0001
0000
0100
0010
0001
0000
MMMM
0000
,
1001
MMMM
1001
MM1M
0000
0000
0000
0000
;

//---------------dance-single - ----------------
#NOTES:
     dance-single:
     :
     Easy:
     5:
     0.177497,0.252625,0.094366,0.157276,0.000000,158.000000,146.000000,12.000000,20.000000,0.000000,0.000000,0.177497,0.252625,0.094366,0.157276,0.000000,158.000000,146.000000,12.000000,20.000000,0.000000,0.000000:
0000
0000
0000
0000
,
0000
0000
0000
0000
,
0000
0000
0000
0000
,
0000
0000
0000
0000
,
0000
0000
0000
0000
,
1000
1000
1000
0000
,
0001
0000
1000
0000
,
0010
0000
0100
0000
,
0000
0000
0000
0000
,
0001
0001
0001
0000
,
1000
0000
0001
0000
,
0100
0000
0010
0000
,
0000
0000
0000
1001
,
1000
0002
0003
0000
,
0100
0010
0100
0001
,
1000
0002
0003
0000
,
0100
0010
0100
0001
,
1000
0002
0003
0000
,
0100
0010
0100
0001
,
0000
1001
0000
1000
,
0001
1001
0000
1001
,
0001
2000
3000
0000
,
0010
0100
0010
1000
,
0001
2000
3000
0000
,
0010
0100
0010
1000
,
0001
2000
3000
0000
,
0010
0100
0010
1000
,
0000
1001
0000
0001
,
1000
1001
0000
0002
,
0000
0003
0000
2000
,
0000
3000
0000
0002
,
0000
0003
0000
2000
,
0000
3000
0000
0020
,
0000
0030
0000
0200
,
0000
0300
0000
0002
,
0000
0003
0000
2000
,
0000
3000
0000
0001
,
0000
1000
0000
0001
,
0000
1000
0000
0010
,
0000
0100
0000
0010
,
0000
0100
0000
0001
,
0001
0001
0000
1000
,
1000
1000
0000
0010
,
0010
0010
0000
0100
,
0100
0100
0000
0001
,
0001
1000
1000
0001
,
1000
0010
0100
0001
,
0010
0100
1000
0000
,
0000
0000
0000
1001
,
1000
0002
0003
0000
,
0100
0010
0100
0001
,
1000
0002
0003
0000
,
0100
0010
0100
0001
,
1000
0002
0003
0000
,
0100
0010
0100
0001
,
0000
1001
0000
1000
,
0001
1001
0000
1001
,
0001
2000
3000
0000
,
0010
0100
0010
1000
,
0001
2000
3000
0000
,
0010
0100
0010
1000
,
0001
2000
3000
0000
,
0010
0100
0010
1000
,
0000
1001
0000
0001
,
1000
1001
0000
0000
;

//---------------dance-single - ----------------
#NOTES:
     dance-single:
     :
     Beginner:
     2:
     0.122451,0.176837,0.000000,0.000000,0.000000,109.000000,109.000000,0.000000,0.000000,0.000000,0.000000,0.122451,0.176837,0.000000,0.000000,0.000000,109.000000,109.000000,0.000000,0.000000,0.000000,0.000000:
0000
0000
0000
0000
,
0000
0000
0000
0000
,
0000
0000
0000
0000
,
0000
0000
0000
0000
,
0000
0000
0000
0000
,
1000
0000
0001
0000
,
1000
0000
0001
0000
,
1000
0000
0001
0000
,
0000
0000
0000
1000
,
1000
0000
0001
0000
,
1000
0000
0001
0000
,
1000
0000
0001
0000
,
0000
0000
0000
1000
,
1000
0000
0001
0000
,
1000
0000
0001
0000
,
0100
0000
0010
0000
,
0100
0000
0010
0000
,
1000
0000
0001
0000
,
1000
0000
0001
0000
,
0100
0000
0001
1000
,
1000
1000
0000
0001
,
0001
0000
1000
0000
,
0001
0000
1000
0000
,
0010
0000
0100
0000
,
0010
0000
0100
0000
,
0001
0000
1000
0000
,
0001
0000
1000
0000
,
0010
0000
0010
1000
,
1000
1000
0000
0001
,
0000
0000
0000
1000
,
0000
0000
0000
0010
,
0000
0000
0000
0100
,
0000
0000
0000
0001
,
0000
0000
0000
1000
,
0000
0000
0000
0010
,
0000
0000
0000
0100
,
0000
0000
0000
0001
,
0000
0000
0000
0001
,
0000
0000
0000
1000
,
0000
0000
0000
1000
,
0000
0000
0000
0010
,
0000
0000
0000
0010
,
0000
0000
0000
0100
,
0000
0000
0000
0100
,
0000
0000
0000
0001
,
0000
1000
0000
0001
,
0000
1000
0000
0010
,
0010
0010
0010
0000
,
0000
0000
0000
1000
,
1000
0000
0001
0000
,
1000
0000
0001
0000
,
0100
0000
0010
0000
,
0100
0000
0010
0000
,
1000
0000
0001
0000
,
1000
0000
0001
0000
,
0100
0000
0001
1000
,
1000
1000
0000
0001
,
0001
0000
1000
0000
,
0001
0000
1000
0000
,
0010
0000
0100
0000
,
0010
0000
0100
0000
,
0001
0000
1000
0000
,
0001
0000
1000
0000
,
0010
0000
0010
1000
,
1000
1000
0000
0000
;
