#VERSION:0.83;
#TITLE:Istanbul;
#SUBTITLE:Not Constantinople;
#ARTIST:They Might Be Giants;
#TITLETRANSLIT:;
#SUBTITLETRANSLIT:;
#ARTISTTRANSLIT:;
#GENRE:Alternative Dance;
#ORIGIN:;
#CREDIT:;
#BANNER:bn.png;
#BACKGROUND:bg.png;
#PREVIEWVID:;
#JACKET:jacket.png;
#CDIMAGE:;
#DISCIMAGE:;
#LYRICSPATH:;
#CDTITLE:;
#MUSIC:Instanbul.ogg;
#OFFSET:0.000000;
#SAMPLESTART:18.892006;
#SAMPLELENGTH:16.237400;
#SELECTABLE:YES;
#BPMS:0.000=114.007,
2.000=113.222,
4.000=114.007,
6.000=113.067,
7.000=115.274,
8.000=113.533,
9.000=114.899,
10.000=114.894,
11.000=115.269,
12.000=114.476,
14.000=114.338,
15.000=114.333,
16.000=114.650,
17.000=115.758,
19.000=114.007,
20.000=113.067,
21.000=115.758,
22.000=113.149,
23.000=114.595,
24.000=115.733,
25.000=114.032,
26.000=113.212,
27.000=114.704,
28.000=115.814,
29.000=114.436,
30.000=115.814,
31.000=114.734,
32.000=115.647,
33.000=115.652,
34.000=114.973,
35.000=113.855,
37.000=112.754,
38.000=114.973,
39.000=114.160,
40.000=114.081,
42.000=115.596,
43.000=114.160,
44.000=115.354,
45.000=114.042,
46.000=115.941,
47.000=113.694,
48.000=115.139,
49.000=113.611,
50.000=115.723,
51.000=113.904,
52.000=114.585,
54.000=115.274,
55.000=114.318,
56.000=114.313,
57.000=114.973,
58.000=114.969,
59.000=114.635,
60.000=114.640,
61.000=114.007,
62.000=115.596,
63.000=114.476,
65.000=114.635,
66.000=114.640,
67.000=54.137,
67.500=56.505,
68.000=60.254,
68.500=57.223,
69.000=54.168,
69.500=53.388,
70.000=57.093,
71.000=69.351,
71.500=114.476,
72.500=115.094,
73.000=115.104,
73.500=116.718,
75.500=115.526,
76.000=115.536,
76.500=114.754,
77.500=113.445,
78.500=112.071,
79.000=112.066,
80.000=112.071,
80.500=113.300,
81.000=113.309,
81.500=115.920,
82.500=114.160,
84.500=114.954,
85.000=114.964,
85.500=115.435,
86.500=114.081,
87.000=114.076,
88.000=114.071,
88.500=115.596,
89.500=113.290,
90.000=113.280,
90.500=115.485,
91.000=115.475,
91.500=115.809,
92.000=115.799,
94.000=115.809,
94.500=113.572,
95.000=113.562,
95.500=113.963,
97.000=113.958,
98.000=113.953,
98.500=114.160,
99.500=115.114,
100.000=115.104,
100.500=114.954,
101.500=115.435,
102.000=115.425,
102.500=113.846,
103.500=113.377,
104.000=113.368,
104.500=114.635,
105.500=114.954,
106.000=114.959,
107.000=114.944,
107.500=115.435,
108.500=113.377,
109.000=113.372,
110.000=113.368,
110.500=115.596,
112.000=115.586,
112.500=113.533,
113.500=115.274,
114.000=115.269,
114.500=114.081,
115.500=114.042,
116.000=114.032,
116.500=115.294,
117.500=112.309,
118.500=115.043,
119.000=115.038,
120.000=115.033,
120.500=115.274,
121.000=115.264,
121.500=114.003,
122.500=114.476,
123.000=114.466,
123.500=114.794,
124.500=114.635,
125.500=115.354,
126.000=115.344,
126.500=114.150,
127.500=58.452,
128.500=54.593,
129.500=59.290,
130.500=57.937,
132.000=115.435,
133.000=114.471,
134.000=113.067,
135.000=113.062,
136.000=115.860,
137.000=115.854,
138.000=115.860,
139.000=113.188,
141.000=114.635,
142.000=115.591,
143.000=114.635,
144.000=114.630,
145.000=114.954,
146.000=114.635,
147.000=114.630,
148.000=113.684,
149.000=115.799,
151.000=113.806,
152.000=113.802,
153.000=114.954,
154.000=115.880,
155.000=113.782,
157.000=114.003,
158.000=113.998,
159.000=115.274,
161.000=114.318,
162.000=114.630,
163.000=114.635,
164.000=114.313,
165.000=114.954,
166.000=114.949,
167.000=114.318,
168.000=115.591,
169.000=113.533,
170.000=113.528,
171.000=114.635,
172.000=114.630,
173.000=113.846,
174.000=114.954,
175.000=115.511,
176.000=114.116,
178.000=115.114,
179.000=113.689,
180.000=115.997,
182.000=114.003,
183.000=114.630,
184.000=114.003,
185.000=115.596,
186.000=114.471,
188.000=114.954,
189.000=114.949,
190.000=114.635,
191.000=114.630,
192.000=114.635,
193.000=114.313,
194.000=114.003,
195.000=114.794,
196.000=115.834,
197.000=114.121,
198.000=114.689,
200.000=114.476,
201.000=114.471,
202.000=114.318,
203.000=114.630,
204.000=115.435,
205.000=115.430,
206.000=114.635,
207.000=113.372,
208.000=114.635,
210.000=114.630,
211.000=113.841,
212.000=114.954,
213.000=114.003,
214.000=113.998,
215.000=114.397,
216.000=115.551,
218.000=113.689,
219.000=115.274,
220.000=115.915,
221.000=113.924,
222.000=113.919,
223.000=114.630,
224.000=115.114,
225.000=115.109,
226.000=113.689,
227.000=113.684,
228.000=114.476,
229.000=114.471,
230.000=114.003,
231.000=115.269,
232.000=113.377,
233.000=115.591,
234.000=115.920,
235.000=114.665,
236.000=114.660,
239.000=114.665,
240.000=114.660,
243.000=114.665,
244.000=114.660,
247.000=114.665;
#STOPS:114.000=1.562,
127.000=1.064;
#DELAYS:;
#WARPS:;
#TIMESIGNATURES:0.000=4=4;
#TICKCOUNTS:0.000=4;
#COMBOS:0.000=1;
#SPEEDS:0.000=1.000=0.000=0;
#SCROLLS:0.000=1.000;
#FAKES:;
#LABELS:0.000=Song Start;
#BGCHANGES:0.000=Instanbul.mp4=1.000=1=0=0=StretchNoLoop==CrossFade==,
245.000=bg.png=1.000=1=0=1===CrossFade==,
99999=-nosongbg-=1.000=0=0=0 // don't automatically add -songbackground-
;
#KEYSOUNDS:;
#ATTACKS:
;

//---------------dance-single - ----------------
#NOTEDATA:;
#CHARTNAME:;
#STEPSTYPE:dance-single;
#DESCRIPTION:;
#CHARTSTYLE:Pad;
#DIFFICULTY:Hard;
#METER:13;
#RADARVALUES:0.572021,0.738448,0.116909,0.131523,0.763565,548.000000,532.000000,16.000000,18.000000,2.000000,0.000000,0.000000,0.000000,0.000000,0.572021,0.738448,0.116909,0.131523,0.763565,548.000000,532.000000,16.000000,18.000000,2.000000,0.000000,0.000000,0.000000,0.000000;
#CREDIT:Gradi;
#NOTES:
// measure 0
0000
0000
0000
0000
,  // measure 1
2000
0000
3200
0000
,  // measure 2
0320
0000
0032
0000
,  // measure 3
2003
0000
3200
0000
,  // measure 4
0320
0000
0032
0000
,  // measure 5
2003
3200
0320
0032
,  // measure 6
0203
0000
0000
0000
0000
0320
0000
0000
,  // measure 7
0230
0000
0302
0000
0000
0000
0000
1003
,  // measure 8
0001
0010
0100
1000
0020
0000
0000
0000
1030
0000
0001
0000
1000
0000
0001
0000
,  // measure 9
1001
0000
1000
0000
0010
0000
1000
0100
0000
0010
0000
0001
0010
0001
1000
0100
,  // measure 10
1000
0000
0001
0000
0100
0000
0001
0010
0000
0100
0000
1000
0100
1000
0001
0100
,  // measure 11
0001
0000
1000
0000
0001
0000
0000
0100
0000
0010
0000
1000
0001
1000
0010
0100
,  // measure 12
0010
1000
0001
0010
0000
0000
0100
1000
0001
0010
0000
0001
0000
0000
0000
0000
,  // measure 13
1001
0000
0001
0000
0100
0000
0001
0010
0000
0100
0000
1000
0100
1000
0010
0100
,  // measure 14
0001
0000
0010
0000
0100
0000
1000
0010
0000
0100
0000
0001
0010
0001
1000
0010
,  // measure 15
1000
0000
0010
0100
0000
0000
0001
0010
0000
0100
0000
1000
0100
0010
0100
1000
,  // measure 16
0001
0010
0001
0000
0100
0000
0010
0000
1001
0000
0000
0000
1000
0100
1000
0000
,  // measure 17
0001
0000
1000
0000
0000
0001
0010
0100
1000
0010
0100
0000
0000
0000
1001
0000
,  // measure 18
1001
0000
1001
0000
1000
0100
0000
0100
0000
0010
0001
0000
0000
0000
0000
0000
,  // measure 19
0000
0000
0000
0000
0000
0000
1000
1001
,  // measure 20
0001
0000
0100
0000
0001
0010
0000
0100
0000
1000
0100
1000
0001
0010
0001
0000
,  // measure 21
1000
0000
0010
0000
1000
0100
0000
0010
0000
0001
0010
0001
1000
0010
1000
0000
,  // measure 22
0001
0000
1000
0000
0000
0010
0000
0100
0000
0001
1000
0001
0100
0010
0100
0000
,  // measure 23
0001
0100
0010
1000
0010
0100
0001
0000
0000
0000
0000
0000
0001
0000
1001
0000
,  // measure 24
1000
0010
0100
0010
1000
0001
1000
0000
0001
0000
1000
0000
0001
0000
1000
0000
,  // measure 25
0001
0000
1000
0000
0001
0000
1001
0000
1000
0000
1000
0000
0000
1000
0000
1000
,  // measure 26
0000
1000
0100
0010
0001
0100
0010
0000
0010
0000
0010
0000
0000
0010
0000
0010
,  // measure 27
0000
0010
0100
0001
1000
0001
0100
0000
0100
0000
0100
0000
0000
0100
0000
0100
,  // measure 28
0000
0100
0010
1000
0100
0010
0001
0001
0001
0000
1001
0000
0001
0000
0001
0000
,  // measure 29
0000
0001
0000
0001
0000
0001
0010
0100
1000
0010
0100
0000
0100
0000
0100
0000
,  // measure 30
0000
0100
0000
0100
0000
0100
0010
1000
0001
1000
0010
0000
0010
0000
0010
0000
,  // measure 31
0000
0010
0000
0010
0000
0010
0100
0001
0010
0100
1000
1000
1000
0000
0001
0010
,  // measure 32
0001
0000
1000
0000
0001
0000
0000
1000
0100
0010
0001
0100
0010
0000
0000
0000
,  // measure 33
1001
0000
1001
0000
1001
0000
0001
0010
0000
0010
0000
0100
1000
0000
0000
0000
,  // measure 34
0000
0000
0000
0000
,  // measure 35
1001
0000
1000
0000
0010
0000
1000
0100
0000
0010
0000
0001
0010
0001
1000
0100
,  // measure 36
1000
0000
0001
0000
0100
0000
0001
0010
0000
0100
0000
1000
0100
1000
0001
0100
,  // measure 37
0001
0000
1000
0000
0001
0000
0000
0100
0000
0010
0000
1000
0001
1000
0010
0100
,  // measure 38
0010
0000
1000
0010
0100
0001
0010
0001
1000
0000
0000
0000
0000
0000
0001
0000
,  // measure 39
1000
0000
0001
0010
0100
0010
0001
0100
0010
0000
1000
0000
0001
0000
1000
0000
,  // measure 40
0001
0000
1000
0000
0001
0000
1000
0000
0001
1000
0010
0100
0001
0000
0000
1000
,  // measure 41
0100
0010
0001
0000
0100
0000
0010
0000
1000
0001
0010
0100
1000
0000
0000
0001
,  // measure 42
0100
0010
1000
0000
0010
0000
0100
0000
0001
0000
1000
0000
0001
0010
0001
0010
,  // measure 43
0001
0010
0001
0010
0001
0010
0001
0010
0001
0010
0001
0010
0001
0010
0001
0010
,  // measure 44
0001
0010
0001
0010
0001
0010
0001
0010
0001
1000
0010
0100
0001
0000
0000
1000
,  // measure 45
0100
0010
0001
0000
0100
0000
0010
0000
1000
0001
0010
0100
1000
0000
0000
0001
,  // measure 46
0100
0010
1000
0000
0010
0000
0100
0000
0001
1000
0001
1000
0001
1000
0001
1000
,  // measure 47
0001
1000
0001
1000
0001
1000
0001
1000
0001
0000
0000
0000
0001
0000
0000
0001
,  // measure 48
0010
0000
0001
0000
0001
0000
0001
0000
1001
0000
1000
0010
1000
0000
0001
0010
,  // measure 49
0001
0000
1000
0010
1000
0000
0001
0010
0001
0000
1000
0010
1000
0000
0001
0010
,  // measure 50
0001
0000
1000
0010
1000
0000
0001
0010
0001
0000
0001
0000
0001
0100
0000
0010
,  // measure 51
0000
0010
0000
0010
1000
0000
0001
0000
1000
0001
1000
0000
0001
1000
0001
0000
,  // measure 52
1000
0001
1000
0001
1000
0001
1000
0001
1000
0000
0001
0000
0100
0000
0001
0010
,  // measure 53
0000
0100
0000
1000
0100
1000
0001
0010
0001
0000
1000
0000
0010
0000
1000
0100
,  // measure 54
0000
0010
0000
0001
0010
0001
1000
0010
1000
0000
0001
0000
1000
0000
0000
0010
,  // measure 55
0000
0100
0000
0001
1000
0001
0100
0010
0100
0000
0001
0100
0010
1000
0100
1000
,  // measure 56
0001
0000
0000
0000
0000
0000
1000
0000
0001
0000
0000
0000
1000
0010
1000
0000
,  // measure 57
0001
0000
1000
0000
0010
0000
0100
0010
1000
0000
0001
0000
1000
0000
0001
0000
,  // measure 58
1000
0000
0000
0000
0000
0000
0001
0000
0000
0000
0000
0000
1000
0000
0000
0000
0000
0000
0001
0000
0000
0000
0000
0000
0100
0000
0000
0100
0000
0000
0100
0000
0000
0000
0000
0000
0000
0000
0010
0000
0000
0000
0000
0000
0000
0000
0000
0000
,  // measure 59
0100
0000
0000
0000
0000
0000
0000
0000
0000
0000
0000
0000
0000
0000
0000
0000
0000
0000
0000
0000
0000
0000
0000
0000
0000
0000
0000
0000
0000
0000
0000
0000
0000
0000
0000
0000
0000
0000
0000
0000
0020
0000
0000
0000
0000
0000
0000
0000
0000
0000
0000
0000
0000
0000
0000
0000
0000
0000
0000
0000
0000
0000
0000
0000
0000
0000
0000
0000
0000
0000
0000
0000
0000
0000
0000
0000
0000
0000
0000
0000
0000
0000
0000
0000
0000
0000
0000
0000
0000
0000
0000
0000
0000
0000
0000
0000
0000
0000
0000
0000
0000
0000
0000
0000
0000
0000
0000
0000
0000
0000
0000
0000
0000
0000
0000
0000
0000
0000
000M
0000
0000
0000
0000
0000
0000
0000
0000
0000
0000
0000
0000
0000
0000
0000
0000
0000
0000
0000
0000
0000
0000
0000
0000
0000
0000
0000
0000
0000
0000
0000
0000
0000
0000
0000
0000
0000
0000
0000
0000
0000
0000
0000
0000
0000
0000
0000
0000
0000
0000
0000
0000
0000
0000
0000
0000
0000
0000
0000
0000
0000
0000
0000
0000
0000
0000
0000
0000
0000
0000
0000
0000
0000
,  // measure 60
0000
0000
0000
0000
0000
0000
0000
0000
0000
0000
0000
0000
0000
0000
0000
0000
0000
0000
0000
0000
0000
0000
M000
0000
0000
0000
0000
0000
0000
0000
0000
0000
0000
0000
0000
0000
0000
0000
0000
0000
0000
0000
0000
0000
0000
0000
0000
0000
0000
0000
0000
0000
0000
0000
0000
0000
0000
0000
0000
0000
0000
0000
0000
0000
0000
0000
0000
0000
0000
0000
0000
0000
0000
0000
0000
0000
0000
0000
0000
0000
0000
0000
0000
0000
0000
0000
0000
0000
0000
0000
0000
0000
0000
0000
0000
0000
0000
0000
0000
0000
0000
0000
0000
0000
0000
0000
0000
0000
0000
0000
0000
0000
0000
0000
0000
0000
0000
0000
0000
0000
0000
0000
0000
0000
0000
0000
0000
0000
0000
0000
0000
0000
0000
0000
0000
0000
0000
0000
0000
0000
0000
0000
0000
0000
0000
0000
0000
0000
0000
0000
0000
0000
0000
0000
0000
0000
0000
0000
0000
0000
0000
0000
0000
0000
0000
0000
0000
0000
0000
0000
0000
0000
0000
0000
0000
0000
0000
0000
0000
0000
0000
0000
0000
0000
0000
0000
0000
0000
0000
0000
0000
0000
,  // measure 61
0000
0000
0000
0000
0000
0030
1001
0000
0000
0000
0000
0000
0000
0000
0000
0000
0000
0000
0000
0000
0000
0000
0000
0000
;

//---------------dance-single - ----------------
#NOTEDATA:;
#CHARTNAME:;
#STEPSTYPE:dance-single;
#DESCRIPTION:;
#CHARTSTYLE:Pad;
#DIFFICULTY:Medium;
#METER:9;
#RADARVALUES:0.293318,0.358035,0.021921,0.241126,0.157097,281.000000,278.000000,3.000000,33.000000,0.000000,0.000000,0.000000,0.000000,0.000000,0.293318,0.358035,0.021921,0.241126,0.157097,281.000000,278.000000,3.000000,33.000000,0.000000,0.000000,0.000000,0.000000,0.000000;
#CREDIT:Galamoth;
#NOTES:
0000
0000
0000
0000
,
2000
0000
3200
0000
,
0320
0000
0032
0000
,
2003
0000
3200
0000
,
0320
0000
0032
0000
,
2003
3200
0320
0032
,
0203
0000
0000
0000
0000
0320
0000
0000
,
0230
0000
0302
0000
0000
0000
0000
1003
,
0200
0000
0000
0000
1300
0001
1000
0100
,
1000
0000
0001
0000
1000
0000
0000
0010
0000
0010
0000
0000
0100
0000
0010
0000
,
1000
0000
0001
0000
1000
0000
0000
0100
0000
0100
0000
0000
0010
0000
0001
0000
,
1000
0000
0001
0000
0100
0000
0000
0010
0000
0010
0000
0000
0100
0000
0000
0000
,
0001
0000
0000
1000
0000
0000
0000
0000
,
0001
0000
1000
0000
0001
0000
0000
0100
0000
0100
0000
0000
0010
0000
0100
0000
,
0001
0000
1000
0000
0001
0000
0000
0010
0000
0010
0000
0000
0100
0000
1000
0000
,
0001
0000
0000
0000
1000
0000
0000
0100
0000
0100
0000
0000
0010
0000
0000
0000
,
0001
0000
1000
0001
1000
0000
0000
2000
,
3000
0002
0003
0200
0300
0020
0030
1000
,
1000
1000
0001
0000
0000
0100
0000
0000
,
0000
0000
0000
0000
0000
0000
0000
0001
,
1000
0000
0001
0000
0000
0100
0000
0100
0000
0000
0010
0000
0100
0000
0001
0000
,
1000
0000
0001
0000
0000
0010
0000
0010
0000
0000
0100
0000
1000
0000
0001
0000
,
1000
0000
0010
0000
0000
0100
0000
0100
0000
0000
0010
0000
0000
0000
1000
0000
,
0100
0010
0001
1000
0000
0000
0000
0010
,
0000
0100
0000
0002
0000
0000
0000
0000
,
0000
0000
0003
0000
0000
0000
1000
0000
0001
0000
1000
0000
0000
0001
0000
0001
,
0000
0000
1000
0000
0001
0000
0100
0000
0010
0000
0100
0000
0000
0010
0000
0010
,
0000
0000
0100
0000
0010
0000
1000
0000
0001
0000
1000
0000
0000
0001
0000
0001
,
0000
0100
0000
0110
0000
0001
1000
0001
,
0000
1000
0000
1000
0000
0000
0001
0000
1000
0000
0010
0000
0100
0000
0010
0000
,
0000
0100
0000
0100
0000
0000
0010
0000
0100
0000
0001
0000
1000
0000
0001
0000
,
0000
1000
0000
1000
0000
0000
0010
0000
0000
0000
1001
0000
0000
0000
0000
0000
,
2000
3000
0002
0003
0200
0300
0020
0030
,
1000
1000
1000
0001
0000
0000
0100
0000
,
0000
0000
0000
0000
,
0001
0000
1000
0000
0001
0000
0000
0100
0000
0100
0000
0000
0010
0000
0100
0000
,
0001
0000
1000
0000
0001
0000
0000
0010
0000
0010
0000
0000
0100
0000
1000
0000
,
0001
0000
1000
0000
0010
0000
0000
0100
0000
0100
0000
0000
0010
0000
0000
0000
,
1000
0100
0010
0001
1000
0000
0000
0000
,
0010
0100
0002
0000
,
0000
0000
0003
0000
1000
0001
1000
0000
,
0001
0100
0001
0000
1000
0100
1000
0000
,
0001
1000
0001
0000
0100
0000
0001
0010
,
0001
0010
0001
0010
0001
0010
0001
0010
,
0001
0010
0001
0010
0001
0000
1000
0000
,
0001
1000
0001
0000
0100
0000
0010
0000
,
1000
0001
1000
0000
0001
0010
0001
0010
,
0001
1000
0001
1000
0001
0000
0010
0000
,
0100
1000
0002
0003
,
2000
3000
0020
0030
,
0200
0000
0000
0000
0300
0000
0000
0000
0001
0000
0001
0000
0001
0000
0000
0100
,
0000
0010
1000
1000
,
0000
0000
0000
0000
0000
0000
0000
0000
1000
0000
0001
0000
1000
0000
0000
0010
,
0000
0010
0000
0000
0100
0000
0010
0000
1000
0000
0001
0000
1000
0000
0000
0100
,
0000
0100
0000
0000
0010
0000
0001
0000
1000
0000
0001
0000
0100
0000
0000
0010
,
0000
0010
0000
0000
0100
0000
0000
0000
0001
0000
0010
0000
0100
0000
1000
0000
,
0001
0000
1000
0001
,
0100
0010
2000
0000
,
0000
3000
1001
0001
,
0100
0020
0000
0000
,
0000
0000
0000
0000
,
0000
1030
0000
0000
;

//---------------dance-single - ----------------
#NOTEDATA:;
#CHARTNAME:;
#STEPSTYPE:dance-single;
#DESCRIPTION:;
#CHARTSTYLE:Pad;
#DIFFICULTY:Easy;
#METER:5;
#RADARVALUES:0.183715,0.201395,0.007307,0.109603,0.000000,176.000000,175.000000,1.000000,15.000000,0.000000,0.000000,0.000000,0.000000,0.000000,0.183715,0.201395,0.007307,0.109603,0.000000,176.000000,175.000000,1.000000,15.000000,0.000000,0.000000,0.000000,0.000000,0.000000;
#CREDIT:Galamoth;
#NOTES:
0000
0000
0000
0000
,
2000
3000
0002
0003
,
0200
0300
0020
0030
,
2000
3000
0002
0003
,
0200
0300
0020
0030
,
1000
1000
0001
0001
,
2000
3000
0002
0003
,
0100
0100
0010
0010
,
2000
0000
3000
0000
,
0001
0001
1000
1000
,
0001
0001
1000
1000
,
0010
0010
0100
0100
,
0001
0000
0000
1000
0000
0000
0000
0000
,
0010
0010
1000
1000
,
0001
0001
1000
1000
,
0010
0010
0100
0100
,
0001
0000
1000
0000
1000
0000
0000
0001
,
0000
0001
0000
0001
0000
0001
0000
1000
,
0000
0000
0000
0010
0000
0000
0000
0000
,
0000
0000
0000
0000
0000
0000
0000
0010
,
0000
0010
0000
1000
0000
1000
0000
0001
,
0000
0001
0000
1000
0000
1000
0000
0010
,
0000
0010
0000
0100
0000
0100
0000
0001
,
0000
0010
0000
0100
0000
0000
0000
1000
,
0000
0000
0000
0002
0000
0000
0000
0000
,
0003
0000
0000
0001
0000
0001
0000
0100
,
0000
0100
0000
0010
0000
0010
0000
1000
,
0000
1000
0000
0100
0000
0100
0000
0010
,
0000
0010
0000
0001
0000
1000
0000
1000
,
0000
0010
0000
0010
0000
0100
0000
0100
,
0000
0001
0000
0001
0000
0010
0000
0010
,
0000
0100
0000
0100
0000
1000
0000
0000
,
0001
0001
0001
0001
,
1000
0000
0010
0000
,
0000
0000
0000
0000
,
0001
0001
1000
1000
,
0001
0001
1000
1000
,
0010
0010
0100
0100
,
0001
0010
0100
0000
,
1000
0000
0002
0000
,
0000
0003
0000
0000
1000
0000
0000
0000
,
0100
0000
0010
0000
,
0001
0000
0100
0000
,
0001
0010
0001
0010
,
0001
0010
0001
0000
,
1000
0000
0001
0000
,
0100
0000
0010
0100
,
0010
0100
0010
0010
,
0100
0000
0001
0000
,
0001
0000
0001
0000
,
0001
0000
1000
0000
,
0010
0000
0100
0100
,
0000
0000
0001
0001
,
1000
1000
0001
0001
,
1000
1000
0010
0010
,
0100
0100
0001
0010
,
0100
0000
1000
1000
,
0001
0001
0200
0000
,
0000
0300
0000
0000
1001
0000
1000
0000
,
0001
2000
0000
0000
,
0000
0000
0000
0000
,
0000
3100
0000
0000
;

//---------------dance-single - ----------------
#NOTEDATA:;
#CHARTNAME:;
#STEPSTYPE:dance-single;
#DESCRIPTION:;
#CHARTSTYLE:Pad;
#DIFFICULTY:Beginner;
#METER:3;
#RADARVALUES:0.132567,0.156640,0.007307,0.007307,0.000000,127.000000,126.000000,1.000000,1.000000,0.000000,0.000000,0.000000,0.000000,0.000000,0.132567,0.156640,0.007307,0.007307,0.000000,127.000000,126.000000,1.000000,1.000000,0.000000,0.000000,0.000000,0.000000,0.000000;
#CREDIT:Galamoth;
#NOTES:
0000
0000
0000
0000
,
1000
0000
1000
0000
,
0001
0000
0001
0000
,
1000
0000
1000
0000
,
0001
0000
0001
0000
,
1000
0000
0100
0000
,
0010
0000
0001
0000
,
0100
0000
0010
0000
,
1000
0000
0001
0000
,
1000
1000
1000
0000
,
0001
0001
0001
0000
,
1000
0000
0010
0000
,
0100
0000
0001
0000
,
1000
1000
1000
0000
,
0001
0001
0001
0000
,
1000
0000
0010
0000
,
0100
0000
0000
0000
0001
0000
0000
1000
,
0000
0000
0000
1000
0000
0000
0000
1000
,
0000
0000
0000
0000
0000
0000
0000
0001
,
0000
0000
0000
0000
0000
0000
0000
1000
,
0000
1000
0000
1000
0000
0000
0000
0001
,
0000
0001
0000
0001
0000
0000
0000
1000
,
0000
0000
0000
0010
0000
0000
0000
0100
,
0000
0000
0000
0001
0000
0000
0000
1000
,
0000
0000
0000
0001
0000
0000
0000
1000
,
0000
0000
0000
1000
0000
1000
0000
1000
,
0000
0000
0000
0001
0000
0001
0000
0001
,
0000
0000
0000
1000
0000
0000
0000
0010
,
0000
0000
0000
0100
0000
0001
0000
0001
,
0000
0001
0000
0000
0000
1000
0000
1000
,
0000
1000
0000
0000
0000
0001
0000
0000
,
0000
0100
0000
0000
0000
0010
0000
0000
,
1000
0000
1000
0000
,
0001
0000
1000
0000
,
0000
0000
0000
0000
,
0001
0001
0001
0000
,
1000
1000
1000
0000
,
0001
0000
0100
0000
,
0010
0000
1000
0000
,
0001
0000
0100
0000
,
0001
0000
1000
0000
,
0001
0000
1000
0000
,
0001
0000
0010
0000
,
0001
0000
0010
0000
,
0001
0000
1000
0000
,
0010
0000
1000
0000
,
0001
0000
1000
0000
,
0100
0000
0010
0000
,
0000
0000
0001
0000
,
0000
0000
0001
0000
,
0000
0000
1000
0000
,
0001
0000
0100
0100
,
0000
0000
0001
0001
,
0001
0000
1000
1000
,
1000
0000
0001
0000
,
0100
0000
0010
0000
,
1000
0000
0001
0000
,
0010
0000
0001
0000
,
1000
0000
0001
0000
,
0000
2000
0000
0000
,
0000
0000
0000
3000
,
0000
1001
0000
0000
;
