#VERSION:0.83;
#TITLE:Homicide;
#SUBTITLE:;
#ARTIST:Logic, Eminem;
#TITLETRANSLIT:;
#SUBTITLETRANSLIT:;
#ARTISTTRANSLIT:;
#GENRE:Hip-Hop;
#ORIGIN:;
#CREDIT:;
#BANNER:bn.png;
#BACKGROUND:bg.png;
#PREVIEWVID:;
#JACKET:jacket.png;
#CDIMAGE:;
#DISCIMAGE:;
#LYRICSPATH:;
#CDTITLE:;
#MUSIC:Homicide.ogg;
#OFFSET:0.000000;
#SAMPLESTART:61.702286;
#SAMPLELENGTH:13.714283;
#SELECTABLE:YES;
#BPMS:0.000=140.000;
#STOPS:;
#DELAYS:;
#WARPS:;
#TIMESIGNATURES:0.000=4=4;
#TICKCOUNTS:0.000=4;
#COMBOS:0.000=1;
#SPEEDS:0.000=1.000=0.000=0;
#SCROLLS:0.000=1.000;
#FAKES:;
#LABELS:0.000=Song Start;
#BGCHANGES:0.000=Homicide.mp4=1.000=1=0=0=StretchNoLoop==CrossFade==,
462.000=bg.png=1.000=1=0=1===CrossFade==,
99999=-nosongbg-=1.000=0=0=0 // don't automatically add -songbackground-
;
#KEYSOUNDS:;
#ATTACKS:
;

//---------------dance-single - ----------------
#NOTEDATA:;
#CHARTNAME:;
#STEPSTYPE:dance-single;
#DESCRIPTION:;
#CHARTSTYLE:Pad;
#DIFFICULTY:Hard;
#METER:18;
#RADARVALUES:0.942529,0.989708,0.060345,0.005029,1.367817,1312.000000,1300.000000,12.000000,1.000000,2.000000,0.000000,0.000000,0.000000,0.000000,0.942529,0.989708,0.060345,0.005029,1.367817,1312.000000,1300.000000,12.000000,1.000000,2.000000,0.000000,0.000000,0.000000,0.000000;
#CREDIT:Galamoth;
#NOTES:
// measure 0
0000
0000
0000
0000
,  // measure 1
0000
0000
0000
0000
,  // measure 2
0000
0000
0000
0000
,  // measure 3
0000
0000
0000
0000
,  // measure 4
0000
0000
0000
0000
,  // measure 5
0000
0000
0000
0000
,  // measure 6
0000
0000
0000
0000
,  // measure 7
0000
0000
0000
0000
,  // measure 8
0101
0000
1100
0000
0001
0100
0001
0010
0100
1000
0010
1000
0001
0100
0010
1000
,  // measure 9
0010
0100
0001
0010
0100
1000
0100
0010
0001
1000
0010
0100
0010
1000
0001
0100
,  // measure 10
0001
0000
0001
0000
0001
0010
0100
1000
0001
0000
1000
0001
0100
0010
1000
0010
,  // measure 11
0100
0001
1000
0100
0010
0100
1000
0000
0001
0100
0010
0100
0001
0000
0100
0000
,  // measure 12
0010
0000
1000
0000
0010
1000
0010
0100
0001
0010
0001
1000
0010
0100
0010
1000
,  // measure 13
0100
0000
0000
0010
0000
0000
0001
0000
0000
0100
0000
0000
0010
0000
0000
0000
0000
0000
0100
0000
0000
0001
0000
0000
0010
0000
0000
0000
0000
0000
0100
0000
0000
1000
0000
0000
0000
0010
0000
0000
0000
0000
1000
0000
0000
0001
0000
0000
,  // measure 14
1000
0000
1000
0100
0010
0100
1000
0001
0010
0100
0010
0100
0010
0100
0010
0000
,  // measure 15
0001
0000
0000
0000
0000
0000
0010
0000
0000
0001
0000
0000
0000
0000
1000
0000
0000
0000
0010
0000
0000
1000
0000
0000
0001
0000
0000
0100
0000
0000
0010
0000
0000
1000
0000
0000
0010
0000
0000
0000
0000
0000
1000
0000
0000
0001
0000
0000
,  // measure 16
0100
0010
0100
0001
1000
0100
1000
0001
0100
0010
1000
0010
0100
0001
1000
0010
,  // measure 17
1000
0100
0010
0001
1000
0001
0010
0100
1000
0000
0010
1000
0100
0000
0010
0001
,  // measure 18
0100
0000
0010
1000
0001
1000
0010
1000
0100
0010
0001
0100
0010
1000
0010
0100
,  // measure 19
0001
0000
1000
0000
0001
0010
0001
1000
0010
0100
0010
1000
0001
1000
0100
0010
,  // measure 20
0001
0010
0100
1000
0001
0100
0010
1000
0001
0100
0010
1000
0001
0000
0010
0001
,  // measure 21
0100
0000
0010
1000
0100
0000
1000
0000
0001
0000
0100
0000
0001
0000
0010
0000
,  // measure 22
0200
0000
0000
0000
0000
0000
0000
0000
0000
0300
0010
0000
0000
0000
0000
0000
0000
0000
0000
0000
0000
0000
0000
0000
0000
0000
0000
0000
0000
0000
0001
0000
0000
0010
0000
0000
0001
0000
0000
1000
0000
0000
0010
0000
0000
1000
0000
0000
,  // measure 23
0100
0000
0000
0010
0000
0000
0001
0000
0000
1000
0000
0000
0010
0000
0000
0100
0000
0000
0001
0000
0000
1000
0000
0000
0010
0000
0000
0000
0000
0000
0000
0000
0000
0000
0000
0000
0000
0000
0100
0000
0000
0000
0000
0000
0000
0000
0000
0000
,  // measure 24
0001
0100
0010
0100
0001
0000
1000
0100
0010
0000
0001
0010
0100
0000
1000
0010
,  // measure 25
0100
0000
0000
0000
0001
0000
0000
0000
1000
0000
0000
0000
0010
0000
0100
0000
0001
0000
0010
0000
0001
0000
0100
0000
0000
0010
0000
0000
0000
0100
0000
0000
,  // measure 26
0001
0000
0001
1000
0001
0000
1000
0001
0010
0000
0100
1000
0010
0100
0001
0010
,  // measure 27
0001
1000
0010
0100
0001
1000
0001
0000
0100
0001
1000
0010
1000
0100
0010
0100
,  // measure 28
1000
0001
0010
0000
0001
0000
0100
0000
0100
0000
0010
0100
0010
0000
0100
0001
,  // measure 29
0100
0010
1000
0000
0010
0000
1000
0000
0100
0010
0001
0000
0010
0000
0100
1000
,  // measure 30
0100
0000
0100
1000
0010
0000
0100
0001
1000
0000
0001
0000
0010
0000
0010
0001
,  // measure 31
0100
0000
0001
0000
1000
0000
0001
1000
0100
0000
1000
0001
0010
0100
1000
0100
,  // measure 32
0010
0100
1000
0000
0001
0000
0010
0000
0100
0010
0001
0000
1000
0000
0100
0000
,  // measure 33
0010
0000
0100
0000
0010
0000
0100
0000
0010
0100
1000
0000
0001
0000
0100
0010
,  // measure 34
0100
0000
0000
0000
0000
0000
0001
0000
0000
1000
0000
0000
0100
0000
0000
0000
0000
0000
1000
0000
0000
0001
0000
0000
0100
0000
0000
0001
0000
0000
0000
0000
0010
0000
0000
0000
0000
0000
0000
0100
0000
0000
0000
0000
0000
0000
0000
0000
,  // measure 35
1000
0000
0000
0100
0000
0000
0010
0000
0000
0001
0000
0000
0100
0000
0000
0000
0000
0000
0010
0000
0000
0000
0000
0000
1000
0000
0000
0000
0000
0000
0001
0000
0000
1000
0000
0000
0000
0000
0010
0000
0000
0000
0000
0000
0000
0000
0000
0000
,  // measure 36
0101
0000
1100
0000
0001
0100
0001
0010
0100
1000
0010
1000
0001
0100
0010
1000
,  // measure 37
0010
0100
0001
0010
0100
1000
0100
0010
0001
1000
0010
0100
0010
1000
0001
0100
,  // measure 38
0001
0000
0001
0000
0001
0010
0100
1000
0001
0000
1000
0001
0100
0010
1000
0010
,  // measure 39
0100
0001
1000
0100
0010
0100
1000
0000
0001
0100
0010
0100
0001
0000
0100
0000
,  // measure 40
0010
0000
1000
0000
0010
1000
0010
0100
0001
0010
0001
1000
0010
0100
0010
1000
,  // measure 41
0100
0000
0000
0010
0000
0000
0001
0000
0000
0100
0000
0000
0010
0000
0000
0000
0000
0000
0100
0000
0000
0001
0000
0000
0010
0000
0000
0000
0000
0000
0100
0000
0000
0000
1000
0000
0000
0000
0010
0000
0000
0000
1000
0000
0000
0001
0000
0000
,  // measure 42
1000
0000
1000
0100
0010
0100
1000
0001
0010
0100
0010
0100
0010
0100
0010
0100
,  // measure 43
0010
0100
0010
0100
0010
0100
0010
0100
0010
0100
0010
0000
0010
0000
0001
1000
,  // measure 44
0010
0000
0000
0000
0100
0000
0000
0000
0010
0000
0000
0000
1000
0000
0000
0000
0000
0000
0000
0000
0000
0000
0000
0000
0001
0000
0000
0000
0000
0100
0000
0000
0000
0001
0000
0000
1000
0000
0000
0000
0001
0000
0000
0000
0100
0000
0000
0000
,  // measure 45
0000
0010
0000
0000
0000
0000
0000
0000
0000
0000
0000
0000
0100
0000
0000
0000
0000
0010
0000
0000
0000
1000
0000
0000
0001
0000
0000
0000
0000
0000
0010
0000
0000
0000
0010
0000
0000
0000
0010
0000
0000
0000
0001
0000
0000
1000
0000
0000
,  // measure 46
0001
0000
0000
0000
0000
0000
0000
0000
0000
0000
0000
0000
1000
0000
0000
0000
0100
0000
0000
0000
0000
1000
0000
0000
0001
0000
0000
0000
0010
0000
0000
0000
0000
0001
0000
0000
1000
0000
0000
0000
0000
0000
0000
0000
0000
0000
0000
0000
,  // measure 47
0001
0000
0100
0000
0001
0000
1000
0000
0010
0000
1000
0000
0001
0000
0000
0000
0000
0000
1000
0000
0000
0100
0000
0000
,  // measure 48
0010
0001
1000
0100
0001
0000
1000
0100
,  // measure 49
0001
0000
0000
0000
0000
0000
0010
0000
0000
0000
0000
0000
0001
0000
0000
0000
0000
0000
0100
0000
0000
0000
0000
0000
0010
0000
0000
0000
0000
0000
0000
0000
0000
0000
0000
0000
1000
0000
0000
0000
0100
0000
0000
0010
0000
0000
0000
0000
,  // measure 50
0100
1000
0001
0100
0000
0000
0010
1000
0001
0010
0100
1000
,  // measure 51
0001
0000
0000
0000
0000
0000
0100
0000
0000
0010
0000
0000
1000
0000
0000
0000
0100
0000
0000
0000
1000
0000
0000
0000
0001
0000
0000
0000
1000
0000
0000
0000
0010
0000
0000
0000
0100
0000
0000
0000
0001
0000
0000
0000
0010
0000
0000
0000
,  // measure 52
0100
0000
0000
0010
0001
0100
0010
0000
0100
0010
1000
0100
,  // measure 53
0010
0000
0000
0000
0000
0000
0000
0000
0000
0001
0000
0000
0100
0000
0000
0000
0010
0000
0000
0000
1000
0000
0000
0000
0100
0000
0000
0000
0000
1000
0000
0000
0010
0000
0000
0000
0100
0000
0000
0000
0000
0000
0000
0000
0000
0000
0000
0000
,  // measure 54
0001
0001
0100
0001
0001
1000
0100
0010
0001
0100
0000
0000
,  // measure 55
0010
1000
0010
0100
0000
0000
0001
0100
0010
1000
0100
1000
,  // measure 56
0010
0000
0000
0000
0000
0000
0000
0000
0000
0000
0000
0000
0001
0000
0000
0100
0000
0000
0000
0000
0010
0000
0000
0000
1000
0000
0000
0000
0100
0000
0000
0000
0010
0000
0000
0000
0100
0000
0000
0000
0000
0000
0000
0000
0000
0000
0000
0000
,  // measure 57
0001
0100
0010
1000
0100
0010
0100
0000
0000
0001
0100
0010
,  // measure 58
0101
0000
1100
0000
0001
0100
0001
0010
0100
1000
0010
1000
0001
0100
0010
1000
,  // measure 59
0010
0100
0001
0010
0100
1000
0100
0010
0001
1000
0010
0100
0010
1000
0001
0100
,  // measure 60
0001
0000
0001
0000
0001
0010
0100
1000
0001
0000
1000
0001
0100
0010
1000
0010
,  // measure 61
0100
0001
1000
0100
0010
0100
1000
0000
0001
0100
0010
0100
0001
0000
0100
0000
,  // measure 62
0010
0000
1000
0000
0010
1000
0010
0100
0001
0010
0001
1000
0010
0100
0010
1000
,  // measure 63
0100
0000
0000
0010
0000
0000
0001
0000
0000
0100
0000
0000
0010
0000
0000
0000
0000
0000
0100
0000
0000
0001
0000
0000
0010
0000
0000
0000
0000
0000
0100
0000
0000
0000
1000
0000
0000
0000
0010
0000
0000
0000
1000
0000
0000
0001
0000
0000
,  // measure 64
1000
0000
1000
0100
0010
0100
1000
0001
0010
0100
0010
0100
0010
0100
0010
0100
,  // measure 65
0010
0100
0010
0100
0010
0100
0010
0100
0010
0100
0010
0000
0010
0000
0001
0000
,  // measure 66
1000
0001
1000
0001
1000
0001
1000
0001
1000
0001
1000
0000
0010
0000
0100
0000
,  // measure 67
0001
1000
0100
0000
1000
0010
0100
0010
1000
0001
0010
0000
0100
0000
1000
0000
,  // measure 68
1000
0010
1000
0000
0001
1000
0001
1000
0001
1000
0010
0000
0100
0000
0001
0000
,  // measure 69
0010
0000
0000
0000
0000
0000
0000
0000
0000
0000
0000
0000
0000
0000
0000
0000
0000
0000
0000
0000
0000
0000
0000
0000
0100
0000
0000
0000
0000
0000
0000
0000
0000
0000
0000
0000
0000
0000
0000
0000
0000
0000
0000
0000
0000
0000
0000
0000
1000
0000
0000
0000
0000
0000
0000
0000
0000
0000
0000
0000
0000
0000
0000
0000
0001
0000
0000
0000
0000
0000
0000
0000
0000
0000
0000
0000
0000
0000
1000
0000
0000
0000
0000
0000
0000
0000
0000
0000
0000
0000
0000
0000
0000
0000
0000
0000
0001
0000
0000
0000
0000
0000
0000
0000
0000
0000
0000
0000
0100
0000
0000
0000
0000
0000
0000
0000
0000
0000
0000
0000
0010
0000
0000
0000
0000
0000
0000
0000
0000
0000
0000
0000
0000
0000
0000
0000
0000
0000
0000
0000
0000
0000
0000
0000
1000
0000
0000
0000
0000
0000
0000
0000
0000
0000
0000
0000
0000
0000
0000
0000
0000
0000
0000
0000
0000
0000
0000
0000
0010
0000
0000
0000
0000
0000
0000
0000
0000
0000
0000
0000
0000
0000
0000
0000
0000
0000
0000
0000
0000
0000
0000
0000
,  // measure 70
0100
0000
0001
0000
0010
0100
1000
0000
0010
0100
0001
0000
1000
0000
0001
0000
,  // measure 71
0010
0000
0100
0000
0010
0000
0001
1000
0001
0100
0010
1000
0100
0000
0010
0001
,  // measure 72
0010
0100
0010
0001
1000
0000
0100
0000
1000
0000
0010
0000
1000
0100
0010
0000
,  // measure 73
0001
0000
0000
0000
0000
0000
0100
0000
0000
0001
0000
0000
1000
0000
0000
0000
0000
0000
0010
0000
0000
0000
0000
0000
0100
0000
0000
0001
0000
0000
1000
0000
0000
0000
0000
0000
0010
0000
0000
0000
0000
0000
0000
0100
0000
0000
0000
0000
,  // measure 74
0110
0000
0000
1001
0000
0000
1000
0100
0010
0001
0000
0000
,  // measure 75
1000
0000
0000
0000
0010
0000
0000
0000
0100
0000
0000
0000
0001
0000
0000
0000
0010
0000
0000
0000
0100
0000
0000
0000
1000
0000
0000
0000
0010
0000
0000
0000
0100
0000
0000
0000
0001
0000
0000
0000
0000
0000
1000
0000
0000
0001
0000
0000
,  // measure 76
1000
0010
1000
0100
1000
0001
0010
0100
1000
0000
1000
0010
0100
0000
0001
1000
,  // measure 77
0010
0000
0000
0000
0000
0000
0000
0000
0000
0100
0000
0000
0000
0000
0000
0100
0000
0000
0001
0000
0000
0000
0000
0000
0010
0000
0000
0000
0100
0000
0000
0000
1000
0000
0000
0000
0001
0000
0000
0000
0000
0000
0100
0000
0000
0010
0000
0000
,  // measure 78
1000
0000
0000
0000
0000
0000
0000
0000
0000
0001
0000
0000
0000
0000
0000
0000
0000
0000
0010
0000
0000
0100
0000
0000
1000
0000
0000
0000
0001
0000
0000
0000
0100
0000
0000
0000
0010
0000
0000
0000
0100
0000
0000
0000
0001
0000
0000
0000
,  // measure 79
1000
0000
0000
0000
0000
0000
0000
0000
0000
0001
0000
0000
0000
0000
0000
0000
1000
0000
0000
0000
0100
0000
0000
0000
0010
0000
0000
0000
0000
0000
0001
0000
0000
1000
0000
0000
0010
0000
0000
0000
0000
0000
1000
0000
0000
0000
0000
0000
,  // measure 80
1001
0000
0000
1000
0000
0000
1100
0000
0001
0000
0010
0000
0100
0000
0010
0000
0001
0000
1000
0000
0000
0000
0001
0000
,  // measure 81
1000
0000
0000
0000
0001
0000
0000
0000
0010
0000
0000
0000
0100
0000
0000
0000
0000
0000
1000
0000
0000
0010
0000
0000
0100
0000
0000
0000
0001
0000
0000
0000
1000
0000
0000
0000
0100
0000
0000
0000
0000
0000
0000
0000
0000
0000
0000
0000
,  // measure 82
0010
0000
0010
0000
0010
0001
1000
0001
0010
0100
1000
0001
1000
0100
0010
0001
,  // measure 83
0100
0000
0000
0000
0000
0000
0010
0000
0000
0000
0000
0000
1000
0000
0000
0001
0000
0000
0100
0000
0000
0010
0000
0000
1000
0000
0000
0000
0000
0000
0010
0000
0000
0000
0000
0000
1000
0000
0001
0000
0100
0000
0001
0000
0000
1000
0000
0000
,  // measure 84
0001
0000
0001
1000
0001
0010
0100
1000
0001
0000
0010
0000
0001
1000
0100
1000
,  // measure 85
0001
0000
1000
0000
0001
1000
0010
1000
0001
0000
0100
0000
0001
0100
0010
1000
,  // measure 86
0100
0000
0000
0000
0000
0000
1000
0000
0000
0010
0000
0000
0100
0000
0000
0000
0000
0000
0100
0000
0000
0000
0000
0000
0010
0000
0000
0000
1000
0000
0001
0000
0000
0000
0000
0000
1000
0000
0000
0001
0000
0000
0010
0000
0000
0000
0000
0000
,  // measure 87
0100
0000
0000
0000
0000
0000
0010
0000
0000
0001
0000
0000
0100
0000
0000
0000
0000
0000
0001
0000
0000
0000
0000
0000
0010
0000
0000
0100
0000
0000
1000
0000
0000
0000
0000
0000
0010
0000
0000
0000
0100
0000
0001
0000
0000
0000
0000
0000
,  // measure 88
0001
0000
0001
1000
0100
0000
0010
0000
0100
1000
0001
0000
0100
0010
0100
0001
,  // measure 89
1000
0100
0010
0001
0100
0000
0010
0000
1000
0001
0010
0000
0001
0000
0000
0000
,  // measure 90
0100
0000
0010
0000
1000
0000
0010
0000
0100
0000
0001
0000
0010
0000
0001
0000
0100
0000
0000
0000
0000
0001
0000
0000
1000
0000
0100
0000
0010
0000
0000
0000
,  // measure 91
0001
0100
0010
0000
1000
0000
0001
0010
0100
0000
1000
0001
0100
0000
0010
0000
,  // measure 92
0010
0100
0010
1000
0010
0000
1000
0010
0100
0000
0001
0000
0010
0001
0100
0010
,  // measure 93
1000
0100
1000
0010
0100
0001
0100
0010
1000
0000
0001
0010
0100
0000
1000
0000
,  // measure 94
0010
0000
0100
0001
0010
0000
0001
1000
0100
0010
0001
0000
1000
0000
0001
0010
,  // measure 95
0100
1000
0001
0000
1000
0000
0010
0000
0100
0000
0001
0000
0010
0000
0100
0010
,  // measure 96
0100
1000
0100
0010
0100
0000
0010
0000
0001
0000
0100
0000
0010
0000
1000
0000
,  // measure 97
0001
0000
0000
0100
0000
0000
0010
0000
0000
1000
0000
0000
0100
0000
0000
0000
0000
0000
1000
0000
0000
0000
0000
0000
0010
0000
0000
0000
0000
0000
0100
0000
0000
0000
0000
0000
0001
0000
0000
0000
1000
0000
0000
0000
0000
0000
1000
0000
,  // measure 98
0100
0000
0000
0000
0000
0000
0000
0000
0010
0000
0000
0000
0001
0000
0000
0000
0000
0000
0100
0000
0000
0000
0000
0000
0000
0000
0000
0000
0000
0000
0001
0000
0000
0000
0000
0000
1000
0000
0000
0000
0000
0000
0001
0000
0000
1000
0000
0000
,  // measure 99
0001
0000
0000
0100
0000
0000
0010
0000
0000
1000
0000
0000
0001
0000
0000
1000
0000
0000
0010
0000
0000
0100
0000
0000
0001
0000
0000
1000
0000
0001
0000
0100
0000
0010
0000
0000
1000
0000
0000
0100
0000
0000
0010
0000
0000
0001
0000
0000
,  // measure 100
0010
0000
0000
0100
0000
0000
1000
0000
0000
0010
0000
0000
0100
0000
0000
0000
0000
0001
0000
1000
0000
0000
0001
0000
0010
0000
0100
0000
0000
0000
1000
0000
0000
0010
0000
0000
0100
0000
0000
0010
0000
0000
0100
0000
0000
0001
0000
0000
,  // measure 101
0010
0001
0100
0010
1000
0001
0100
0010
1000
0100
0010
0100
1000
0001
0100
0001
,  // measure 102
1000
0010
0100
0001
0100
0010
1000
0001
0100
0010
1000
0001
0010
0001
1000
0100
,  // measure 103
0010
0100
0010
0001
1000
0010
0100
0001
0010
0001
0100
0010
1000
0100
1000
0010
,  // measure 104
0100
0001
1000
0100
0010
0001
1000
0010
0100
0010
1000
0001
0010
0100
0010
0001
,  // measure 105
1000
0000
0001
0000
1000
0100
0010
0001
1000
0001
0010
0100
1000
0000
0001
0000
,  // measure 106
0110
0000
0000
0000
1001
0000
0000
0000
1000
0000
0010
0000
0100
0000
0001
0000
0010
0000
0100
0000
1000
0001
1000
0000
0100
0000
0000
0000
0010
0000
0001
0000
,  // measure 107
1000
0000
0100
1000
0001
0100
0010
0000
0100
0001
1000
0001
0010
0000
0100
1000
,  // measure 108
0100
0000
0010
0000
0100
0000
0000
0000
0100
0000
1000
0001
1000
0000
0000
0000
0010
0000
0000
0000
0100
0000
0001
0000
0010
0000
0000
0000
0100
0000
1000
0000
,  // measure 109
0010
0100
0001
0000
1000
0000
0001
0010
0100
1000
0001
0100
0001
1000
0100
0000
,  // measure 110
1000
0000
0000
0000
0000
0000
0000
0000
0000
0000
0000
0000
0010
0000
0000
0000
0000
0000
0000
0000
0000
0000
0000
0000
1000
0000
0000
0000
0000
0000
0000
0000
0000
0000
0000
0000
0001
0000
0000
0000
0000
0000
0100
0000
0000
0000
0000
0000
0001
0000
0000
0000
0000
0000
0000
0000
1000
0000
0000
0000
0000
0000
0000
0000
0000
0000
0001
0000
0000
0000
0000
0000
1000
0000
0000
0000
0000
0000
0000
0000
0000
0000
0000
0000
0010
0000
0000
0000
0000
0000
0000
0000
0000
0000
0000
0000
1000
0000
0000
0000
0000
0000
0000
0000
0000
0000
0000
0000
0000
0000
0000
0000
0000
0000
0000
0000
0000
0000
0000
0000
0001
0000
0000
0000
0000
0000
0000
0000
0000
0000
0000
0000
0010
0000
0000
0000
0000
0000
0000
0000
0000
0000
0000
0000
0100
0000
0000
0000
0000
0000
0000
0000
0000
0000
0000
0000
1000
0000
0000
0000
0000
0000
0000
0000
0000
0000
0000
0000
0001
0000
0000
0000
0000
0000
0000
0000
0000
0000
0000
0000
0000
0000
0000
0000
0000
0000
0000
0000
0000
0000
0000
0000
,  // measure 111
0100
0000
0000
0000
0000
0000
0000
0000
0000
0000
0000
0000
0000
0000
0000
0000
0010
0000
0000
0000
0000
0000
0000
0000
0000
0000
0000
0000
0000
0000
0000
0000
0100
0000
0000
0000
0000
0000
0000
0000
0000
0000
0000
0000
0000
0000
0000
0000
0000
0000
0000
0000
0000
0000
0000
0000
0010
0000
0000
0000
0000
0000
0000
0000
0000
0000
0000
0000
0000
0000
0000
0000
0100
0000
0000
0000
0000
0000
0000
0000
0000
0000
0000
0000
0001
0000
0000
0000
0000
0000
0000
0000
0000
0000
0000
0000
1000
0000
0000
0000
0000
0000
0000
0000
0000
0000
0000
0000
0001
0000
0000
0000
0000
0000
1000
0000
0000
0000
0000
0000
0001
0000
0000
0000
0000
0000
0000
0000
0000
0000
0000
0000
0100
0000
0000
0000
0000
0000
0000
0000
0000
0000
0000
0000
0001
0000
0000
0000
0000
0000
0000
0000
0000
0000
0000
0000
1000
0000
0000
0000
0000
0000
0000
0000
0000
0000
0000
0000
0100
0000
0000
0000
0000
0000
0000
0000
0000
0000
0000
0000
0000
0000
0000
0000
0000
0000
0000
0000
0000
0000
0000
0000
,  // measure 112
0100
0010
0100
0000
1000
0001
0010
0000
0100
1000
0010
0100
0001
0000
0001
1000
,  // measure 113
0010
0000
0100
0001
0010
0100
1000
0000
0001
0000
1000
0001
1000
0000
0010
0000
,  // measure 114
1000
0001
0100
0000
0001
0000
0010
0100
1000
0000
0010
0000
0100
0001
0010
0000
,  // measure 115
0001
0000
0000
0000
0000
0000
0100
0000
0000
0010
0000
0000
1000
0000
0000
0000
0000
0000
0000
0000
0000
0000
0000
0000
0000
0000
0000
000M
0000
0000
0000
0000
0000
0000
0000
0000
0000
0M00
0000
0000
0000
0000
0000
0000
0000
0000
0000
0000
;

//---------------dance-single - ----------------
#NOTEDATA:;
#CHARTNAME:;
#STEPSTYPE:dance-single;
#DESCRIPTION:;
#CHARTSTYLE:Pad;
#DIFFICULTY:Medium;
#METER:13;
#RADARVALUES:0.511495,0.523869,0.005029,0.165948,0.022629,712.000000,711.000000,1.000000,33.000000,2.000000,0.000000,0.000000,0.000000,0.000000,0.511495,0.523869,0.005029,0.165948,0.022629,712.000000,711.000000,1.000000,33.000000,2.000000,0.000000,0.000000,0.000000,0.000000;
#CREDIT:Galamoth;
#NOTES:
0000
0000
0000
0000
,
0000
0000
0000
0000
,
0000
0000
0000
0000
,
0000
0000
0000
0000
,
0000
0000
0000
0000
,
0000
0000
0000
0000
,
0000
0000
0000
0000
,
0000
0000
0000
0000
,
0001
1000
0001
0010
0100
1000
0010
0100
,
0001
0010
0001
0100
0010
1000
0001
0010
,
0010
0010
0010
0001
0100
0010
1000
0001
,
0010
0100
1000
0001
0100
0010
1000
0001
,
0100
0010
0100
0100
0001
0010
1000
0010
,
0001
0100
0010
0000
1000
0000
0001
0010
,
0010
0010
0100
1000
0020
0000
1030
1000
,
0001
0010
0001
0100
0010
1000
1000
0001
,
2000
3000
0020
0030
,
0002
0003
0200
0300
,
2000
3000
0020
0030
,
0002
0003
0200
0300
,
2000
3000
0200
0300
,
0002
0003
0020
0030
,
2000
3000
0200
0300
,
0020
0030
0002
0003
,
1000
0100
1000
0001
0100
0010
1000
0100
,
0010
0001
0100
0001
0010
0100
1000
0010
,
0010
0010
0010
0100
0001
1000
0010
0010
,
0100
0100
0001
0001
1000
1000
0100
0100
,
0010
0001
0010
0010
0001
1000
0100
1000
,
0010
0100
0001
0100
0010
1000
0100
0010
,
0010
0010
0001
0100
0010
0100
0001
0001
,
0010
0100
0010
0001
1000
0100
0100
1000
,
0100
0010
0100
1000
0001
0010
0001
0100
,
0010
0100
0010
1000
0001
0010
0100
1000
,
2000
3000
0002
0003
,
2000
3000
0002
0003
,
0001
1000
0001
0010
0100
1000
0010
0100
,
0001
0010
0001
0100
0010
1000
0001
0010
,
0010
0010
0010
0001
0100
0010
1000
0001
,
0010
0100
1000
0001
0100
0010
1000
0001
,
0100
0010
0100
0100
0001
0010
1000
0010
,
0001
0100
0010
0000
1000
0000
0001
0010
,
0010
0010
0100
1000
0020
0000
0100
0100
,
0000
0000
0000
0000
0000
0100
0130
0000
,
0002
0003
2000
3000
,
0020
0030
0200
0300
,
0001
0000
1000
0100
0010
0001
1000
0000
,
0001
0010
0100
1000
0001
0000
0100
0000
,
0010
0000
1000
0000
,
0001
0000
1000
0001
,
1000
0001
1000
0000
0010
0100
0001
0010
,
0100
1000
0010
0100
0001
1000
0001
0100
,
0100
0100
0100
0010
1000
0000
0001
0100
,
0010
0000
1000
0100
0010
0001
0100
0000
,
0010
0000
0010
0010
1000
0001
0010
0000
,
0100
1000
0001
0000
0100
0010
1000
0100
,
0200
0300
2000
3000
,
0002
0003
2000
3000
,
0001
1000
0001
0010
0100
1000
0010
0100
,
0001
0010
0001
0100
0010
1000
0001
0010
,
0010
0010
0010
0001
0100
0010
1000
0001
,
0010
0100
1000
0001
0100
0010
1000
0001
,
0100
0010
0100
0100
0001
0010
1000
0010
,
0001
0100
0010
0000
1000
0000
0001
0010
,
0010
0010
0100
1000
0020
0000
0100
0100
,
0000
0000
0000
0000
0000
0100
0100
0000
,
0230
0000
0010
0000
0000
0301
1000
0100
,
1000
0000
0010
0000
0000
0100
0000
0000
0010
0000
1000
0000
0001
0000
0010
0000
,
0010
0010
0020
0000
0000
0130
1000
0001
,
0100
0010
1000
0001
0010
0100
1000
0010
,
0100
0001
0100
0100
0010
1000
0001
0010
,
0100
1000
0001
0100
0010
0100
0001
1000
,
1000
1000
0001
0100
0000
0000
0000
0010
,
1000
0001
0010
0001
1000
0010
1000
0001
,
1000
0000
0000
1001
0000
0000
1000
0100
1000
0100
0000
0000
,
0010
0001
0100
0010
1000
0001
0010
0001
,
0001
0001
0001
0000
1000
0010
0100
0000
,
0001
0100
0010
1000
0010
0100
0001
1000
,
0100
0010
0100
1000
0001
0010
0100
1000
,
0010
0100
0001
0100
0010
1000
0001
1000
,
1000
1000
1000
0000
0010
0100
0001
0000
,
1000
0100
0010
0001
0100
0010
1000
0000
,
0001
0001
0001
1000
0010
0100
0001
1000
,
0100
0000
0010
0000
0001
0000
1000
0000
0010
0000
0100
0000
0001
1000
0001
0000
,
0001
0001
0001
0100
0010
1000
0100
0010
,
0001
1000
0001
0010
0100
0010
0001
0100
,
0010
1000
0010
0010
1000
0100
0010
0001
,
0100
0010
1000
0001
1000
0010
0100
0001
,
0001
0001
0010
0100
1000
0010
0100
0100
,
0001
1000
0010
1000
0001
0100
0010
0000
,
1000
0100
1000
0001
0100
0010
1000
0010
,
0100
0001
0010
0100
1000
0010
0100
0001
,
0001
0001
0001
1000
0100
1000
0010
0100
,
0001
1000
0010
0100
0001
0010
0100
0010
,
0001
0000
1000
0100
0010
0001
0100
0010
,
1000
0001
0100
0010
1000
0001
0010
0100
,
0100
0100
0100
1000
0001
1000
0010
0100
,
0001
1000
0100
0010
0001
0100
0010
0000
,
0010
0000
1000
0000
,
0001
0000
0010
0000
0100
0000
1000
0000
0001
1000
0001
0000
0100
0000
0010
0000
,
1000
0010
0100
0001
1000
0100
1000
1000
,
0001
0001
0100
0010
1000
0001
0010
0100
,
1000
0001
0100
0010
1000
0010
0100
0001
,
0010
0100
0010
0001
1000
0010
0100
0010
,
1000
0001
0100
0010
1000
0100
1000
0010
,
0100
0001
0010
0001
1000
0100
0010
0001
,
1000
0010
1000
0001
0100
0010
1000
0001
,
0100
0001
0010
0100
1000
0010
0100
0001
,
0001
0000
0001
0000
0001
1000
0001
0000
0100
0000
0010
0000
1000
0000
0100
0000
,
0010
0100
1000
0001
0100
0010
1000
0010
,
0100
0000
0001
0000
0100
0010
0100
0000
0010
0000
1000
0000
0001
0000
0010
0000
,
0100
0000
1000
0000
0001
0000
0000
0000
1000
0001
1000
0000
0010
0000
0100
0000
,
0100
0100
0001
0010
0100
1000
0010
0010
,
0100
0001
0010
0100
1000
0001
0001
0100
,
0001
1000
0001
0010
0100
1000
0010
0100
,
0010
0000
1000
0000
0001
0000
0000
0000
0000
00M0
0000
0000
0M00
0000
0000
0000
;

//---------------dance-single - ----------------
#NOTEDATA:;
#CHARTNAME:;
#STEPSTYPE:dance-single;
#DESCRIPTION:;
#CHARTSTYLE:;
#DIFFICULTY:Easy;
#METER:6;
#RADARVALUES:0.252874,0.261934,0.005029,0.020115,0.000000,352.000000,351.000000,1.000000,4.000000,1.000000,0.000000,0.000000,0.000000,0.000000,0.252874,0.261934,0.005029,0.020115,0.000000,352.000000,351.000000,1.000000,4.000000,1.000000,0.000000,0.000000,0.000000,0.000000;
#CREDIT:Galamoth;
#NOTES:
0000
0000
0000
0000
,
0000
0000
0000
0000
,
0000
0000
0000
0000
,
0000
0000
0000
0000
,
0000
0000
0000
0000
,
0000
0000
0000
0000
,
0000
0000
0000
0000
,
0000
0000
0000
0000
,
1000
1000
0010
0100
,
0001
1000
0100
0010
,
0001
0001
0100
0010
,
1000
0001
0100
0010
,
1000
1000
0001
0010
,
0100
1000
0010
0100
,
0001
1000
0200
0300
,
1000
0001
0100
0010
,
1000
0000
0001
0000
,
0100
0000
0010
0000
,
1000
0000
0100
0000
,
0010
0010
0001
0001
,
1000
1000
0010
0010
,
0100
0100
0001
1000
,
0001
0000
0100
0000
,
0010
0000
1000
0000
,
0001
0001
1000
0100
,
0010
0001
0100
0010
,
1000
1000
0010
0100
,
0001
1000
0100
0010
,
0001
0001
0010
0100
,
1000
0001
0100
0010
,
1000
0010
0100
0000
,
0010
0000
0100
0000
,
0001
0010
0001
0000
,
0100
0100
0001
0000
,
1000
0000
0000
0000
,
0000
0000
0000
0000
,
1000
1000
0010
0100
,
0001
1000
0100
0010
,
0001
0001
0100
0010
,
1000
0001
0100
0010
,
1000
1000
0001
0010
,
0100
1000
0010
0100
,
0001
1000
0200
0000
,
0000
0000
0000
0300
,
1000
0000
0000
0000
,
0000
0000
0000
0000
,
0001
0100
0010
1000
,
0010
0100
0001
0000
,
0000
0000
0000
0000
,
0000
0000
0000
0000
,
1000
1000
0001
0100
,
0010
0100
0001
0010
,
0100
0100
1000
0001
,
0100
0010
1000
0001
,
0010
0010
0001
0100
,
0010
1000
0001
1000
,
0001
0000
0000
0000
,
0000
0000
0000
0000
,
1000
1000
0010
0100
,
0001
1000
0100
0010
,
0001
0001
0100
0010
,
1000
0001
0100
0010
,
1000
1000
0001
0010
,
0100
1000
0010
0100
,
0001
1000
0200
0000
,
0000
0000
0000
0300
,
2000
0000
0000
0000
0000
3000
0001
0000
,
0100
0010
1000
0010
,
0100
0100
0001
0010
,
0100
0010
0001
1000
,
0010
0010
0100
0001
,
1000
0100
0010
0001
,
1000
0010
0100
0000
,
0001
1000
0001
0100
,
0001
1001
1000
0000
,
0001
0000
0100
0000
,
0001
0000
1000
0000
,
0100
0000
1000
0000
,
0010
0000
0100
0000
,
0001
0000
1000
0000
,
0100
0000
0010
0000
,
0001
0000
0100
0000
,
0010
0010
1000
0001
,
0010
0100
1000
0010
,
1000
1000
0001
0100
,
0010
1000
0100
0010
,
0001
0001
1000
0010
,
0100
0001
1000
0100
,
0010
0001
0010
0100
,
1000
0001
0100
0000
,
0001
0001
1000
0010
,
0100
0001
0100
0010
,
1000
1000
0001
0010
,
0100
1000
0100
0010
,
0001
0001
0100
0010
,
1000
0010
0100
0001
,
1000
1000
0000
0000
,
0001
0100
0001
1000
,
0100
0000
1000
0000
,
0001
0100
0001
0100
,
0010
1000
0010
1000
,
0001
0010
0100
1000
,
0100
0001
0100
1000
,
0010
0001
0010
1000
,
0001
0100
0010
1000
,
0001
0010
0100
1000
,
0001
0001
0100
0010
,
1000
0010
0100
0001
,
1000
1000
0100
0010
,
0001
1000
0010
0100
,
0001
0001
1000
0100
,
0010
0100
1000
0001
,
0100
0010
1000
0010
,
0100
0001
1000
0010
,
0100
0100
0001
0010
,
0100
1000
0000
000M
;

//---------------dance-single - ----------------
#NOTEDATA:;
#CHARTNAME:;
#STEPSTYPE:dance-single;
#DESCRIPTION:;
#CHARTSTYLE:Pad;
#DIFFICULTY:Beginner;
#METER:4;
#RADARVALUES:0.132902,0.145519,0.000000,0.000000,0.000000,185.000000,185.000000,0.000000,0.000000,1.000000,0.000000,0.000000,0.000000,0.000000,0.132902,0.145519,0.000000,0.000000,0.000000,185.000000,185.000000,0.000000,0.000000,1.000000,0.000000,0.000000,0.000000,0.000000;
#CREDIT:Galamoth;
#NOTES:
0000
0000
0000
0000
,
0000
0000
0000
0000
,
0000
0000
0000
0000
,
0000
0000
0000
0000
,
0000
0000
0000
0000
,
0000
0000
0000
0000
,
0000
0000
0000
0000
,
0000
0000
0000
0000
,
1000
0000
0001
0000
,
1000
0000
0001
0000
,
0100
0000
0010
0000
,
0100
0000
0010
0000
,
1000
0000
0100
0000
,
1000
0000
0100
0000
,
0010
0000
0001
0000
,
1000
0000
0001
0000
,
0100
0000
0000
0000
,
0010
0000
0000
0000
,
1000
0000
0000
0000
,
0001
0000
1000
0000
,
0001
0000
0010
0000
,
0100
0000
1000
0000
,
0001
0000
0000
0000
,
1000
0000
0000
0000
,
0001
0000
1000
0000
,
0010
0000
0100
0000
,
0001
0000
0010
0000
,
0100
0000
1000
0000
,
0100
0000
0010
0000
,
0001
0000
1000
0000
,
0010
0000
0100
0000
,
0001
0000
0100
0000
,
0010
0000
0010
0000
,
1000
0000
0001
0000
,
1000
0000
0000
0000
,
0000
0000
0000
0000
,
1000
0000
0001
0000
,
1000
0000
0001
0000
,
0100
0000
0010
0000
,
0100
0000
0010
0000
,
1000
0000
0100
0000
,
1000
0000
0100
0000
,
0010
0000
0001
0000
,
0000
0000
0000
0000
,
1000
0000
0000
0000
,
0001
0000
0000
0000
,
1000
0000
0001
0000
,
0100
0000
0010
0000
,
0000
0000
0000
0000
,
0000
0000
0000
0000
,
1000
0000
0100
0000
,
0010
0000
0001
0000
,
0010
0000
0100
0000
,
1000
0000
0010
0000
,
0100
0000
0001
0000
,
1000
0000
0100
0000
,
1000
0000
0000
0000
,
0000
0000
0000
0000
,
1000
0000
0001
0000
,
1000
0000
0001
0000
,
0100
0000
0010
0000
,
0100
0000
0010
0000
,
1000
0000
0100
0000
,
1000
0000
0100
0000
,
0010
0000
0001
0000
,
0000
0000
0000
0000
,
1000
0000
0000
0000
,
0001
0000
1000
0000
,
0010
0000
0100
0000
,
0001
0000
0010
0000
,
0100
0000
1000
0000
,
0010
0000
0100
0000
,
0001
0000
1000
0000
,
0010
0000
0100
0000
,
0001
0000
1000
0000
,
0001
0000
0000
0000
,
1000
0000
0000
0000
,
0010
0000
0000
0000
,
0100
0000
0000
0000
,
0001
0000
0000
0000
,
1000
0000
0000
0000
,
0100
0000
0000
0000
,
1000
0000
0001
0000
,
0100
0000
0010
0000
,
1000
0000
0001
0000
,
0010
0000
0100
0000
,
1000
0000
0001
0000
,
0100
0000
0010
0000
,
1000
0000
0100
0000
,
0010
0000
0001
0000
,
0010
0000
0100
0000
,
1000
0000
0001
0000
,
0100
0000
0010
0000
,
1000
0000
0010
0000
,
0100
0000
0001
0000
,
1000
0000
0100
0000
,
0010
0000
0100
0000
,
1000
0000
0001
0000
,
0100
0000
0010
0000
,
0100
0000
0001
0000
,
1000
0000
0100
0000
,
0010
0000
0001
0000
,
1000
0000
0001
0000
,
0010
0000
0100
0000
,
1000
0000
0001
0000
,
0100
0000
0000
0000
,
0001
0000
1000
0000
,
0010
0000
0100
0000
,
0001
0000
0010
0000
,
0100
0000
1000
0000
,
0010
0000
0100
0000
,
0001
0000
1000
0000
,
0100
0000
0010
0000
,
0001
0000
0100
0000
,
0010
0000
1000
0000
,
0001
0000
0000
0M00
;
