#TITLE:Heart Attack;
#SUBTITLE:;
#ARTIST:Enrique Iglesias;
#TITLETRANSLIT:;
#SUBTITLETRANSLIT:;
#ARTISTTRANSLIT:;
#GENRE:Electropop;
#CREDIT:;
#BANNER:bn.png;
#BACKGROUND:bg.png;
#LYRICSPATH:;
#CDTITLE:;
#MUSIC:Heart Attack.ogg;
#OFFSET:0.000000;
#SAMPLESTART:37.210999;
#SAMPLELENGTH:12.467564;
#SELECTABLE:YES;
#DISPLAYBPM:154.000000;
#BPMS:0.000000=154.007004
,1.000000=153.998001
,5.000000=154.007004
,6.000000=153.998001
,10.000000=154.007004
,11.000000=153.998001
,16.000000=154.007004
,17.000000=153.998001
,21.000000=154.007004
,22.000000=153.998001
,27.000000=154.007004
,28.000000=153.998001
,32.000000=154.007004
,33.000000=153.998001
,37.000000=154.007004
,38.000000=153.998001
,43.000000=154.007004
,44.000000=153.998001
,48.000000=154.007004
,49.000000=153.998001
,53.000000=154.007004
,54.000000=153.998001
,59.000000=154.007004
,60.000000=153.998001
,66.000000=154.007004
,67.000000=153.998001
,74.000000=154.007004
,75.000000=153.998001
,82.000000=154.007004
,83.000000=153.998001
,90.000000=154.007004
,91.000000=153.998001
,98.000000=154.007004
,99.000000=153.998001
,106.000000=154.007004
,107.000000=153.998001
,114.000000=154.007004
,115.000000=153.998001
,122.000000=154.007004
,123.000000=153.998001
,126.000000=154.007004
,127.000000=153.998001
,130.000000=154.007004
,131.000000=153.998001
,134.000000=154.007004
,135.000000=151.772003
,136.000000=153.998001
,138.000000=154.007004
,139.000000=153.998001
,142.000000=154.007004
,143.000000=153.998001
,146.000000=154.007004
,147.000000=153.998001
,150.000000=154.007004
,151.000000=153.998001
,154.000000=154.007004
,155.000000=153.998001
,158.000000=154.007004
,159.000000=153.998001
,162.000000=154.007004
,163.000000=153.998001
,166.000000=154.007004
,167.000000=153.998001
,170.000000=154.007004
,171.000000=153.998001
,174.000000=154.007004
,175.000000=153.998001
,178.000000=154.007004
,179.000000=153.998001
,182.000000=154.007004
,183.000000=153.998001
,186.000000=154.007004
,187.000000=153.998001
,190.000000=154.007004
,191.000000=153.516006
,192.000000=153.998001
,194.000000=154.007004
,195.000000=153.998001
,198.000000=154.007004
,199.000000=153.998001
,202.000000=154.007004
,203.000000=153.998001
,206.000000=154.007004
,207.000000=153.998001
,210.000000=154.007004
,211.000000=153.998001
,214.000000=154.007004
,215.000000=153.998001
,218.000000=154.007004
,219.000000=153.998001
,222.000000=154.007004
,223.000000=153.998001
,226.000000=154.007004
,227.000000=153.998001
,230.000000=154.007004
,231.000000=153.998001
,234.000000=154.007004
,235.000000=153.998001
,238.000000=154.007004
,239.000000=153.998001
,242.000000=154.007004
,243.000000=153.998001
,260.000000=153.988998
,261.000000=153.998001
;
#STOPS:
;
#BGCHANGES:0.000=Heart Attack.mp4=1.000=1=0=0=StretchNoLoop==CrossFade==,
264.000=bg.png=1.000=1=0=1===CrossFade==,
99999=-nosongbg-=1.000=0=0=0 // don't automatically add -songbackground-
;
#KEYSOUNDS:;
#ATTACKS:;

//---------------dance-single - ----------------
#NOTES:
     dance-single:
     :
     Hard:
     13:
     0.591891,0.697909,0.240327,0.269166,0.134583,431.000000,406.000000,25.000000,28.000000,0.000000,0.000000,0.591891,0.697909,0.240327,0.269166,0.134583,431.000000,406.000000,25.000000,28.000000,0.000000,0.000000:
0000
0000
0000
0000
,
0000
0000
0000
0000
,
0001
1000
0100
0010
1002
0000
0013
0000
,
0001
0100
0100
0010
2001
0000
3001
0000
,
0001
0000
0001
0000
1001
0000
0001
1000
,
0001
0100
0100
0000
0110
0000
0010
0000
,
1000
0100
1000
0001
1020
0000
0130
0000
,
0001
1000
1000
0010
0201
0000
0301
0000
,
0001
0000
0001
0000
1001
0000
1000
0010
,
1000
0001
0001
0000
0011
0000
0001
0000
,
1000
0000
0010
0000
0110
0100
0010
1000
,
0001
0010
0010
0000
0110
0000
0100
1000
,
0001
0000
1000
0000
0011
0001
1000
0001
,
0100
0000
0010
0000
0010
0000
0000
0000
1001
0000
0000
0001
1000
0001
0010
0000
,
0100
1000
0010
0100
1002
0000
0013
0000
,
0001
0100
0100
0010
2001
0000
3100
1000
,
0001
0000
0001
0000
1001
0000
0001
0100
,
0000
0010
0010
0100
1001
0001
1000
0010
,
0200
0000
0000
0301
0020
0000
0001
0000
,
0031
0000
0001
0000
0001
0000
0001
0010
,
0100
1000
0010
0100
0000
0010
0000
2000
,
0000
3000
0000
0100
1000
0001
1000
0010
,
0200
0000
0300
0001
0020
0000
0001
0000
,
0031
0000
0001
0000
0001
0000
0001
1000
,
0010
0010
0100
0100
0001
0001
1000
1000
,
0100
0100
0010
0010
0001
1000
0000
0000
,
1001
0000
0000
0000
1000
1000
1000
1000
,
0011
0000
0000
0000
0001
0000
1000
0001
0100
0000
0100
0000
0100
0010
0100
0010
,
1000
0000
0100
0000
0010
0000
0001
0000
0100
0000
0010
0000
1000
0001
1000
0001
,
0010
0000
0100
0000
0010
0000
0001
1000
0001
0000
0000
0000
0000
0000
0000
0000
,
1001
0000
0000
0000
0010
0010
0010
0010
,
1100
0000
0000
0000
0000
0000
0010
0100
0001
0000
0001
0000
0001
0100
0001
0100
,
0010
0000
1000
0000
0001
0000
0010
0000
0100
0000
1000
0000
0010
0100
0010
0100
,
0001
0000
1000
0000
0100
0000
1000
0010
1000
0000
0000
0000
0000
0000
0000
0000
,
1001
0000
0001
0000
0001
0100
0001
0010
,
0100
1000
0100
0010
,
0001
0000
0001
0000
0001
0100
0010
1000
,
0100
0000
0010
0000
0100
0000
1000
0001
,
1000
0000
0001
0000
1000
0010
0100
0010
,
1000
0000
0010
0000
0100
0000
0001
0010
,
0001
0001
0001
0001
,
0001
0000
0001
0100
0010
0100
0001
1000
,
0100
1000
0010
0100
0001
0100
0010
1000
,
0001
0010
0001
1000
0100
0010
0001
0100
,
0010
0000
0100
0000
0001
0000
0100
0000
0010
0000
1000
0000
0001
0000
0100
0010
,
0100
0010
1000
0100
1000
0001
1000
0010
,
0100
0001
1000
0001
0010
0001
1000
0001
,
0010
0000
0100
0000
1000
0000
0010
0000
0100
0000
0001
0000
1000
0000
0010
1000
,
0001
0001
1000
1000
0010
0010
0100
0100
,
0000
0000
0000
0000
,
1001
0000
0000
0000
0001
0001
0001
0001
,
1100
0000
0000
0000
1000
0000
0001
1000
0010
0000
0010
0000
0010
0100
0010
0100
,
0001
0000
0010
0000
0100
0000
1000
0000
0010
0000
0100
0000
0001
1000
0001
1000
,
0100
0000
0010
0000
0100
0000
1000
0001
1000
0000
0000
0000
0000
0000
0000
0000
,
1001
0000
0000
0000
0100
0100
0100
0100
,
0011
0000
0000
0000
0000
0000
0100
0010
1000
0000
1000
0000
1000
0010
1000
0010
,
0100
0000
0001
0000
1000
0000
0100
0000
0010
0000
0001
0000
0100
0010
0100
0010
,
1000
0000
0001
0000
0010
0000
0001
0100
0002
0000
0000
0000
0000
0000
0003
0000
,
2000
3200
0302
0023
,
2030
3200
0302
0023
,
0031
1000
0010
1000
0100
0010
0001
1000
,
0000
0010
0010
0000
0100
0010
1000
0001
,
2000
3200
0302
0023
,
2030
3200
0302
0023
,
1030
0010
0100
0001
0010
0001
0100
0100
,
0000
0010
0010
0000
1000
0010
0100
0001
,
1000
0000
0000
0000
;

//---------------dance-single - ----------------
#NOTES:
     dance-single:
     :
     Medium:
     9:
     0.328218,0.507570,0.076905,0.326845,0.000000,239.000000,231.000000,8.000000,34.000000,0.000000,0.000000,0.328218,0.507570,0.076905,0.326845,0.000000,239.000000,231.000000,8.000000,34.000000,0.000000,0.000000:
0000
0000
0000
0000
,
0000
0000
0000
0000
,
0001
1000
0010
0000
1000
0000
0100
0000
,
1000
0001
0010
0000
0001
0000
0100
0000
,
0001
0000
0000
0000
1000
0000
0000
0001
,
0000
1000
1000
0000
0001
0000
0000
0000
,
1000
0001
0100
0000
0001
0000
0010
0000
,
0001
1000
0100
0000
1000
0000
0010
0000
,
1000
0000
0000
0000
0001
0000
0000
1000
,
0000
0001
0001
0000
1000
0000
0000
0000
,
0002
0000
1003
0000
0010
0100
0001
1000
,
0000
0001
0001
0000
1000
0000
0100
0000
,
2000
0000
3001
0000
0100
0010
1000
0001
,
0000
1000
1000
0000
0001
0000
0100
0000
,
0001
0100
0001
0100
0001
0000
1000
0000
,
0100
1000
0100
1000
0100
0000
1000
0000
,
0001
0000
0000
0000
1000
0000
0000
0001
,
0000
1000
1000
0000
0001
0000
0000
0000
,
2002
0000
0000
0000
,
0000
0000
3003
0000
,
0000
0000
0000
0000
,
0000
0000
0000
0000
,
1000
1000
1000
1000
,
0001
0001
0001
0001
,
1000
0001
1000
0001
1000
0001
1000
0001
,
1000
0001
1000
0001
1000
0010
0000
0000
,
0220
0000
0000
0330
1000
0001
1000
0001
,
0200
0000
0000
0300
0010
0100
0010
0100
,
0020
0000
0000
0000
1030
0000
0001
1000
,
0200
0000
1300
0001
,
2002
0000
0000
3003
0100
0010
0100
0010
,
2000
0000
0000
0000
3001
1000
0001
1000
,
0020
0000
0000
0000
0130
0000
0001
1000
,
0200
0000
1300
0000
,
1001
0000
0000
0000
1000
0010
0100
0000
,
0001
0100
0001
0010
,
0100
0000
0000
0000
0010
0001
0100
0000
,
0010
1000
0001
0100
,
0001
0000
0000
0000
0100
0001
0010
0000
,
0001
0100
0010
1000
,
0001
0000
0000
0000
,
0000
0010
0110
0000
,
2002
0000
0000
0000
,
0000
0000
3003
0000
,
0000
0000
0000
0000
,
0000
0000
0000
0000
,
1000
1000
1000
1000
,
0001
0001
0001
0001
,
1000
0001
1000
0001
1000
0001
1000
0001
,
1000
0000
0000
0000
,
0220
0000
0000
0330
1000
0001
1000
0001
,
0200
0000
0000
0300
0010
0100
0010
0100
,
0020
0000
0000
0000
1030
0000
0001
1000
,
0200
0000
1300
0001
,
2002
0000
0000
3003
0100
0010
0100
0010
,
2000
0000
0000
0000
3001
1000
0001
1000
,
0020
0000
0000
0000
0130
0000
0001
1000
,
0200
0000
1300
0000
,
2000
0000
3200
0000
,
0302
0000
0023
0000
,
1030
0001
1000
0000
0010
0000
1000
1000
,
0000
0001
0001
0000
0100
0000
0000
0000
,
0002
0000
0203
0000
,
2300
0000
3020
0000
,
0031
1000
0001
0000
0100
0000
0001
0001
,
0000
1000
1000
0000
0010
0000
0000
0000
,
0100
0000
0000
0000
;

//---------------dance-single - ----------------
#NOTES:
     dance-single:
     :
     Easy:
     5:
     0.245820,0.317231,0.105744,0.115357,0.000000,179.000000,168.000000,11.000000,12.000000,0.000000,0.000000,0.245820,0.317231,0.105744,0.115357,0.000000,179.000000,168.000000,11.000000,12.000000,0.000000,0.000000:
0000
0000
0000
0000
,
0000
0000
0000
0000
,
1000
0001
1000
0000
,
0001
1000
0001
0000
,
0100
0000
0010
0000
,
0100
0000
0010
0000
,
1000
0001
1000
0000
,
0001
1000
0001
0000
,
0100
0000
0010
0000
,
0100
0000
0010
0000
,
1000
0010
1000
0010
,
1000
0000
0000
0000
,
0001
0010
0001
0010
,
0001
0000
0000
0000
,
1000
0001
1000
0000
,
0001
1000
0001
0000
,
0010
0000
0100
0000
,
0010
0000
0100
0000
,
2002
0000
0000
0000
,
3003
0000
0000
0000
,
1000
0000
0000
0000
,
0001
0000
0000
0000
,
1000
1000
0001
0001
,
1000
1000
0001
0001
,
1000
0010
0100
0001
,
1000
0010
0100
0000
,
1001
0000
0010
0010
,
1001
0000
1000
0000
,
0001
0100
0001
0100
,
0010
1000
0010
1000
,
1001
0000
0010
0010
,
1001
0000
0100
0000
,
0001
0010
0001
0010
,
0100
1000
0100
1000
,
0001
0000
1000
0000
,
0001
0000
0100
0000
,
0010
0000
1000
0000
,
0001
0000
0010
0000
,
0100
0000
1000
0000
,
0001
0000
0100
0000
,
0010
0000
1000
0000
,
0001
1000
1001
0000
,
2002
0000
0000
0000
,
3003
0000
0000
0000
,
1000
0000
0000
0000
,
0001
0000
0000
0000
,
1000
1000
0001
0001
,
1000
1000
0001
0001
,
1000
0010
0100
0001
,
1000
0000
0000
0000
,
1001
0000
0010
0010
,
1001
0000
1000
0000
,
0001
0100
0001
0100
,
0010
1000
0010
1000
,
1001
0000
0010
0010
,
1001
0000
0100
0000
,
0001
0010
0001
0010
,
0100
1000
0100
1000
,
0002
0003
2000
3000
,
0002
0003
2000
3000
,
0001
1000
0001
1000
,
0010
0100
0010
0100
,
0002
0003
2000
3000
,
0002
0003
2000
3000
,
0010
0100
0010
0100
,
0001
1000
0001
1000
,
0001
0000
0000
0000
;

//---------------dance-single - ----------------
#NOTES:
     dance-single:
     :
     Beginner:
     3:
     0.174409,0.285508,0.096131,0.000000,0.000000,127.000000,117.000000,10.000000,0.000000,0.000000,0.000000,0.174409,0.285508,0.096131,0.000000,0.000000,127.000000,117.000000,10.000000,0.000000,0.000000,0.000000:
// measure 0
0000
0000
0000
0000
,  // measure 1
0000
0000
0000
0000
,  // measure 2
0001
0000
0001
0000
,  // measure 3
1000
0000
1000
0000
,  // measure 4
0010
0000
0000
0000
,  // measure 5
0100
0000
0000
0000
,  // measure 6
0001
0000
0001
0000
,  // measure 7
1000
0000
1000
0000
,  // measure 8
0010
0000
0000
0000
,  // measure 9
0100
0000
0000
0000
,  // measure 10
0001
0000
0001
0000
,  // measure 11
0001
0000
1000
0000
,  // measure 12
0010
0000
0010
0000
,  // measure 13
0010
0000
1000
0000
,  // measure 14
0001
0000
0001
0000
,  // measure 15
1000
0000
1000
0000
,  // measure 16
0010
0000
0010
0000
,  // measure 17
0100
0000
0100
0000
,  // measure 18
1001
0000
0000
0000
,  // measure 19
0000
0000
0000
0000
,  // measure 20
1000
0000
0000
0000
,  // measure 21
0001
0000
0000
0000
,  // measure 22
1000
0000
1000
0000
,  // measure 23
0001
0000
0001
0000
,  // measure 24
1000
1000
1000
1000
,  // measure 25
0001
0001
0001
0000
,  // measure 26
1001
0000
0100
0000
,  // measure 27
1001
0000
0010
0000
,  // measure 28
1000
0000
0100
0000
,  // measure 29
0010
0000
0001
0000
,  // measure 30
1001
0000
0010
0000
,  // measure 31
1001
0000
0100
0000
,  // measure 32
0001
0000
0010
0000
,  // measure 33
0100
0000
1000
0000
,  // measure 34
0001
0000
1000
0000
,  // measure 35
1000
0000
1000
0000
,  // measure 36
1000
0000
0001
0000
,  // measure 37
0001
0000
0001
0000
,  // measure 38
0001
0000
0100
0000
,  // measure 39
0100
0000
0010
0000
,  // measure 40
0010
0000
0000
0000
,  // measure 41
0000
1000
1000
0000
,  // measure 42
1001
0000
0000
0000
,  // measure 43
0000
0000
0000
0000
,  // measure 44
1000
0000
0000
0000
,  // measure 45
0001
0000
0000
0000
,  // measure 46
1000
0000
1000
0000
,  // measure 47
0001
0000
0001
0000
,  // measure 48
1000
1000
0001
0001
,  // measure 49
0000
0000
0000
0000
,  // measure 50
1001
0000
0100
0000
,  // measure 51
1001
0000
0010
0000
,  // measure 52
1000
0000
0100
0000
,  // measure 53
0010
0000
0001
0000
,  // measure 54
1001
0000
0010
0000
,  // measure 55
1001
0000
0100
0000
,  // measure 56
0001
0000
0010
0000
,  // measure 57
0100
0000
1000
0000
,  // measure 58
0001
0000
0100
0000
,  // measure 59
1000
0000
0010
0000
,  // measure 60
1000
0000
0100
0000
,  // measure 61
0010
0000
0001
0000
,  // measure 62
1000
0000
0100
0000
,  // measure 63
0001
0000
0010
0000
,  // measure 64
0001
0000
0010
0000
,  // measure 65
0100
0000
1000
0000
,  // measure 66
0001
0000
0000
0000
;
