#TITLE:Guns and Ships;
#SUBTITLE:Hamilton (Original Broadway Cast);
#ARTIST:Leslie Odom Jr., Daveed Diggs;
#TITLETRANSLIT:;
#SUBTITLETRANSLIT:;
#ARTISTTRANSLIT:;
#GENRE:Hip-Hop Musical;
#CREDIT:;
#BANNER:bn.png;
#BACKGROUND:bg.jpg;
#LYRICSPATH:;
#CDTITLE:;
#MUSIC:Guns and Ships.ogg;
#OFFSET:0.000000;
#SAMPLESTART:59.098000;
#SAMPLELENGTH:13.913000;
#SELECTABLE:YES;
#BPMS:0.000000=138.009995
,1.000000=137.996994
,2.000000=138.009995
,3.000000=137.996994
,4.000000=138.009995
,5.000000=137.996994
,6.000000=138.009995
,7.000000=137.996994
,9.000000=138.009995
,10.000000=137.996994
,11.000000=138.009995
,12.000000=137.996994
,13.000000=138.009995
,14.000000=137.996994
,16.000000=138.009995
,17.000000=137.996994
,18.000000=138.009995
,19.000000=137.996994
,20.000000=138.009995
,21.000000=137.996994
,22.000000=138.009995
,23.000000=137.996994
,25.000000=138.009995
,26.000000=137.996994
,27.000000=138.009995
,28.000000=137.996994
,29.000000=138.009995
,30.000000=137.996994
,32.000000=138.009995
,33.000000=137.996994
,34.000000=138.009995
,35.000000=137.996994
,36.000000=138.009995
,37.000000=137.996994
,39.000000=138.009995
,40.000000=137.996994
,41.000000=138.009995
,42.000000=137.996994
,43.000000=138.009995
,44.000000=137.996994
,45.000000=138.009995
,46.000000=137.996994
,48.000000=138.009995
,49.000000=137.996994
,50.000000=138.003998
,51.000000=137.996994
,52.000000=138.003998
,53.000000=137.996994
,55.000000=138.003998
,56.000000=137.996994
,57.000000=138.003998
,58.000000=137.996994
,59.000000=138.003998
,60.000000=137.996994
,62.000000=138.003998
,63.000000=137.996994
,64.000000=138.003998
,65.000000=137.996994
,66.000000=138.003998
,67.000000=137.996994
,69.000000=138.003998
,70.000000=137.996994
,71.000000=138.003998
,72.000000=137.996994
,73.000000=138.003998
,74.000000=137.996994
,75.000000=138.003998
,76.000000=137.996994
,78.000000=138.003998
,79.000000=137.996994
,80.000000=138.003998
,81.000000=137.996994
,82.000000=138.003998
,83.000000=137.996994
,85.000000=138.003998
,86.000000=137.996994
,87.000000=138.003998
,88.000000=137.996994
,89.000000=138.003998
,90.000000=137.996994
,91.000000=138.003998
,92.000000=137.996994
,94.000000=138.003998
,95.000000=137.996994
,96.000000=138.003998
,97.000000=137.996994
,98.000000=138.003998
,99.000000=137.996994
,101.000000=138.003998
,102.000000=137.996994
,103.000000=138.003998
,104.000000=137.996994
,105.000000=138.003998
,106.000000=137.996994
,108.000000=138.003998
,109.000000=137.996994
,110.000000=138.003998
,111.000000=137.996994
,112.000000=138.003998
,113.000000=137.996994
,115.000000=138.003998
,116.000000=137.996994
,117.000000=138.003998
,118.000000=137.996994
,119.000000=138.003998
,120.000000=137.996994
,121.000000=138.003998
,122.000000=137.996994
,124.000000=138.003998
,125.000000=137.996994
,126.000000=138.003998
,127.000000=137.996994
,128.000000=138.003998
,129.000000=137.996994
,131.000000=138.003998
,132.000000=137.996994
,133.000000=138.003998
,134.000000=137.996994
,135.000000=138.003998
,136.000000=137.996994
,138.000000=138.003998
,139.000000=137.996994
,140.000000=138.003998
,141.000000=137.996994
,142.000000=138.003998
,143.000000=137.996994
,144.000000=138.003998
,145.000000=137.996994
,147.000000=138.003998
,148.000000=137.996994
,149.000000=138.003998
,150.000000=137.996994
,151.000000=138.003998
,152.000000=137.996994
,154.000000=138.003998
,155.000000=137.996994
,156.000000=138.003998
,157.000000=137.996994
,158.000000=138.003998
,159.000000=137.996994
,161.000000=138.003998
,162.000000=137.996994
,163.000000=138.003998
,164.000000=137.996994
,165.000000=138.003998
,166.000000=137.996994
,167.000000=138.003998
,168.000000=137.996994
,170.000000=138.003998
,171.000000=137.996994
,172.000000=138.003998
,173.000000=137.996994
,174.000000=138.003998
,175.000000=137.996994
,177.000000=138.003998
,178.000000=137.996994
,179.000000=138.003998
,180.000000=137.996994
,181.000000=138.003998
,182.000000=137.996994
,183.000000=130.404999
,184.000000=136.119003
,186.000000=133.500000
,187.000000=133.494003
,188.000000=135.102997
,189.000000=135.097000
,190.000000=134.679993
,191.000000=134.673996
,192.000000=134.718002
,193.000000=134.712006
,194.000000=133.897003
,195.000000=133.891006
,196.000000=133.104996
,197.000000=133.098999
,198.000000=134.692993
,200.000000=132.322998
,201.000000=132.315994
,202.000000=135.509995
,203.000000=135.503998
,204.000000=130.011002
,205.000000=130.005005
,206.000000=137.162003
,207.000000=137.156006
,208.000000=133.897003
,209.000000=133.891006
,210.000000=131.164993
,211.000000=131.158997
,212.000000=138.216003
,213.000000=138.209000
,214.000000=133.104996
,215.000000=133.098999
,216.000000=134.291000
,217.000000=136.746002
,218.000000=133.401001
,219.000000=133.395004
,222.000000=135.509995
,223.000000=135.503998
,224.000000=135.509995
,225.000000=135.503998
,226.000000=134.097000
,227.000000=134.091003
,228.000000=134.097000
,229.000000=134.091003
,230.000000=133.395004
,233.000000=133.389008
,234.000000=133.031998
,235.000000=133.024994
,238.000000=133.136002
,241.000000=133.130005
,242.000000=137.274002
,243.000000=137.279999
,244.000000=137.274002
,247.000000=136.324997
,248.000000=132.322998
,249.000000=132.315994
,250.000000=132.322998
,251.000000=132.315994
,252.000000=130.778000
,253.000000=136.330994
,254.000000=130.022995
,255.000000=134.097000
,256.000000=134.091003
,257.000000=134.097000
,258.000000=134.091003
,259.000000=131.542999
,260.000000=127.813011
,261.000000=117.158997
,262.000000=105.591003
,263.000000=83.198997
,264.000000=83.200996
,265.000000=83.198997
,266.000000=76.417000
,267.000000=70.657997
,268.000000=63.480999
,269.000000=58.462002
,270.000000=49.535999
,271.000000=44.341999
,272.000000=36.932999
;
#STOPS:
;
#BGCHANGES:0.000=Guns And Ships.mp4=1.000=1=0=0=StretchNoLoop==CrossFade==,
272.000=bg.jpg=1.000=1=0=1===CrossFade==,
99999=-nosongbg-=1.000=0=0=0 // don't automatically add -songbackground-
;
#KEYSOUNDS:;
#ATTACKS:;

//---------------dance-single - ----------------
#NOTES:
     dance-single:
     :
     Challenge:
     14:
     0.529992,0.833261,0.370207,0.259933,0.315070,471.000000,424.000000,47.000000,33.000000,15.000000,0.000000,0.529992,0.833261,0.370207,0.259933,0.315070,471.000000,424.000000,47.000000,33.000000,15.000000,0.000000:
0000
0000
0000
0000
,
0000
0000
0000
0000
0000
0000
0000
0001
,
2000
0010
0000
0010
0010
0000
0010
0010
,
3000
0010
0010
0000
0010
0010
0000
1000
,
0002
0100
0000
0100
0100
0000
0100
0100
,
0003
0100
0100
0000
0100
0100
0000
0010
,
2000
0001
0000
0001
0001
0000
0001
0001
,
3000
0001
0001
0000
0001
0001
0000
0100
,
0002
1000
0000
1000
1000
0000
1003
1000
,
0200
0010
0010
0000
0010
0010
0300
0010
,
0002
1000
M000
0000
2003
0100
0100
0100
,
0000
0001
0001
0000
3010
0010
1000
0010
,
0200
0010
0000
0001
0001
0000
0010
0010
,
0300
0001
0001
0000
1000
1000
0000
0001
,
1001
1001
0000
0101
0101
0000
1100
1100
,
0000
1010
1010
0000
0011
0011
1001
1001
,
0200
00M0
000M
M000
00M0
000M
00M0
M000
,
000M
00M0
M000
000M
00M0
000M
M300
0000
,
1000
0000
0100
0000
0001
0000
1000
0000
0010
1000
0001
0000
0010
0000
0100
1000
,
0001
0000
0100
0001
0010
0000
0100
0000
0010
0001
0100
0010
0000
0000
1000
0000
,
0001
0000
0100
0000
1000
0000
0001
0100
0010
1000
0001
0100
1000
0100
0001
1000
,
0010
0100
1000
0100
0001
0010
0100
1000
0010
0100
0010
1000
0100
0000
1000
0000
,
0001
0000
0100
0000
1000
0000
0000
0000
0001
0000
1000
0001
0100
0000
0100
1000
,
0000
0000
0000
0000
0000
0000
1000
0000
0000
0000
0000
0000
0000
0000
0000
0000
0000
0000
0000
0000
0000
0000
0000
0000
0010
0000
0000
0000
0000
0000
0000
0000
0000
0000
0000
0000
0000
0000
0000
0000
0000
0000
0000
0000
0000
0000
0000
0000
0010
0000
0000
0000
0000
0000
0000
0000
0000
0000
0000
0000
0001
0000
0000
0000
0000
0000
0000
0000
0000
0000
0000
0000
0000
0000
0000
0000
0001
0000
0000
0000
0000
0000
0000
0000
0000
0000
0000
0000
0000
0000
0000
0000
0000
0000
0000
0000
0100
0000
0000
0000
0000
0000
0000
0000
0000
0000
0000
0000
0000
0000
0000
0000
0000
0000
0000
0000
0000
0000
0000
0000
0000
0000
0000
0000
0000
0000
0000
0000
0000
0000
0000
0000
0100
0000
0000
0000
0000
0000
0000
0000
0000
0000
0000
0000
0010
0000
0000
0000
0000
0000
0000
0000
0000
0000
0000
0000
0000
0000
0000
0000
0000
0000
0000
0000
0000
0000
0000
0000
1000
0000
0000
0000
0000
0000
0000
0000
0000
0000
0000
0000
0000
0000
0000
0000
0000
0000
0000
0000
0000
0000
0000
0000
,
0001
0000
0000
0000
0000
0000
0100
0000
0000
0000
0000
0000
1000
0000
0000
0000
0010
0000
0100
0000
0000
0001
0000
0000
0010
0000
0000
0000
0000
0000
0001
0000
0000
1000
0000
0000
0000
0000
0000
0000
0000
0000
0010
0000
0000
0000
0000
0000
,
1000
0000
0000
0000
0000
0000
0000
0000
0000
0000
0000
0000
0000
0000
0000
0000
0000
0000
0000
0000
0000
0000
0000
0000
0100
0000
0000
0000
0000
0000
0000
0000
0000
0000
0000
0000
0000
0000
0000
0000
0000
0000
0000
0000
0000
0000
0000
0000
0001
0000
0000
0000
0000
0000
0000
0000
0000
0000
0000
0000
0000
0000
0000
0000
1000
0000
0000
0000
0000
0000
0000
0000
0000
0000
0000
0000
0000
0000
0010
0000
0000
0000
0000
0000
0000
0000
0000
0000
0000
0000
0000
0000
0000
0000
0000
0000
0100
0000
0000
0000
0000
0000
0000
0000
0000
0000
0000
0000
0000
0000
0000
0000
0000
0000
0000
0000
0000
0000
0000
0000
0001
0000
0000
0000
0000
0000
0000
0000
0000
0000
0000
0000
1000
0000
0000
0000
0000
0000
0000
0000
0000
0000
0000
0000
0000
0000
0000
0000
0000
0000
0000
0000
0000
0000
0000
0000
0000
0000
0000
0000
0000
0000
0000
0000
0000
0000
0000
0000
2001
0000
0000
0000
0000
0000
0000
0000
0000
0000
0000
0000
0000
0000
0000
0000
0000
0000
0000
0000
0000
0000
0000
0000
,
0000
0010
0001
0010
,
0001
0010
0001
0010
,
3002
0100
1000
0100
,
1000
0100
1000
0100
,
2003
0010
0100
0010
,
3002
0100
0010
0103
,
1001
0110
1001
0110
,
0101
0100
0110
0010
1010
0000
0000
0000
,
1001
0000
1001
0000
1001
0000
1000
0010
0100
0000
0100
0010
1000
0000
0001
0010
,
0100
0000
0100
0010
1000
0010
0100
1000
0100
0010
0001
0100
0010
0000
0100
0010
,
1001
0000
1001
0000
1001
0000
0001
0100
0010
0100
1000
0100
0010
0100
0001
0010
,
0000
0010
0100
0000
0010
0001
0100
0001
0010
0100
1000
0010
0000
0100
0010
0000
,
1001
0000
0000
1001
0000
0000
1001
0000
0000
0001
0000
0010
0000
0100
0000
1000
0000
0100
0000
0001
0000
0100
0000
0010
,
0000
0001
0000
0001
0000
0100
0000
0010
0000
0010
0000
1000
0000
0100
0000
0100
0000
1000
0001
0000
0100
0010
0000
0000
,
1001
0000
1001
0000
1001
0000
0001
1000
0100
0000
0100
1000
0001
0000
0010
0000
,
1001
0000
1001
0000
1001
0000
0001
0100
0010
0000
1000
0000
0001
0000
0100
0000
,
0001
0000
1000
0000
0000
0000
0010
0100
0010
0000
1000
0000
0001
0000
0100
0000
,
0000
0100
0010
1000
0001
1000
0010
0100
0010
0000
1000
0000
0001
0000
0100
0000
,
0010
1000
0100
0010
0001
1000
0001
0100
1000
0100
0001
0010
1000
0010
0100
1000
,
0001
0010
0001
1000
0010
1000
0001
0100
0010
0000
1000
0000
0001
0000
0100
0000
,
0010
0000
0010
0000
,
0010
0000
0010
0000
,
0100
0000
0100
0000
,
0100
0000
0100
0000
,
0001
0000
0001
0000
,
0001
0000
0001
0000
,
1000
0000
1000
0000
,
0100
0010
0100
1000
,
2001
0000
0010
0000
0001
0010
0000
0010
,
3001
0002
0203
2300
,
3020
0000
1000
0000
0100
1000
0000
1000
,
0130
2000
3020
0032
,
0203
0000
0010
0000
0001
0010
0000
0010
,
0301
2000
3020
0032
,
0203
2300
3020
0032
,
0203
0000
2300
0000
3002
0000
1003
0100
,
0110
0010
0001
0100
0101
0001
1000
0010
,
1010
1000
0001
0010
0011
0001
1000
0100
,
1100
1000
0001
0100
0101
0001
1000
0010
,
1010
0101
1100
0011
,
2001
0000
0000
0000
,
0000
0000
0000
0000
0000
3000
0000
0000
0001
0000
0000
0000
0010
0000
0000
0000
,
0100
1000
0000
0000
;

//---------------dance-single - ----------------
#NOTES:
     dance-single:
     :
     Hard:
     13:
     0.471479,0.752623,0.220549,0.259933,0.240241,419.000000,391.000000,28.000000,33.000000,22.000000,0.000000,0.471479,0.752623,0.220549,0.259933,0.240241,419.000000,391.000000,28.000000,33.000000,22.000000,0.000000:
// measure 0
0000
0000
0000
0000
,  // measure 1
0000
0000
0000
0000
,  // measure 2
2000
0010
3000
1000
1000
0000
0010
0010
,  // measure 3
0000
0100
0100
0000
0001
0001
0000
0010
,  // measure 4
0002
0100
0003
0001
0001
0000
0100
0100
,  // measure 5
0000
0010
0010
0000
1000
1000
0000
0010
,  // measure 6
2000
0100
3000
1000
1000
0000
0100
0100
,  // measure 7
0000
0010
0010
0000
0001
0001
0000
0100
,  // measure 8
0002
0010
0003
0001
0001
0000
1000
1000
,  // measure 9
0200
0010
0310
0000
0100
0100
0000
1000
,  // measure 10
0002
0100
0003
0000
0020
0001
0031
0001
,  // measure 11
0000
0010
0010
0000
0100
0100
1000
0010
,  // measure 12
0200
0010
0300
0100
0100
0000
0001
0001
,  // measure 13
0000
1000
1000
0000
0100
0100
0000
1000
,  // measure 14
1001
1001
0000
0101
0101
0000
1100
1100
,  // measure 15
0000
1010
1010
0000
0011
0011
1001
1001
,  // measure 16
0200
00M0
000M
M000
00M0
000M
00M0
M000
,  // measure 17
000M
00M0
M000
000M
00M0
000M
M300
0000
,  // measure 18
1000
0000
1000
0000
1000
0000
0001
0000
1000
0010
1000
0000
0001
0000
0010
0001
,  // measure 19
0010
0000
0100
0010
0100
0000
0010
0000
0100
1000
0100
1000
0000
0000
0001
0000
,  // measure 20
1000
0000
1000
0000
1000
0000
0001
0100
0001
0100
0001
0000
1000
0000
0010
1000
,  // measure 21
0010
1000
0010
0000
0100
0001
0100
0000
0010
0000
1000
0100
1000
0000
0001
0000
,  // measure 22
1000
0000
1000
0000
1000
0000
0000
0000
0001
0000
0001
1000
0001
0000
0001
0100
,  // measure 23
0000
0100
0010
0000
0010
1000
0000
1000
0100
0000
0100
0010
0000
0000
0001
0000
,  // measure 24
1000
0000
1000
0000
1000
0000
0001
0100
0001
0000
0001
1000
0000
0000
0010
0000
,  // measure 25
1000
0000
1000
0000
1000
0000
0010
0000
0100
0000
0000
0010
0000
0000
2001
0000
,  // measure 26
0000
0001
0001
0001
,  // measure 27
0010
0010
0010
0010
,  // measure 28
3002
1000
1000
1000
,  // measure 29
0100
0100
0100
0100
,  // measure 30
2003
0010
0001
0010
,  // measure 31
3002
0100
1000
0103
,  // measure 32
1000
1000
1000
1000
,  // measure 33
1000
0100
0010
0001
1000
0000
0000
0000
,  // measure 34
1001
0000
0001
0000
1001
0000
1000
0100
1000
0000
0001
0100
0001
0000
1000
0100
,  // measure 35
0010
0000
0001
0100
0001
0100
0010
1000
0010
0000
0000
0100
0000
0000
0010
0000
,  // measure 36
1001
0000
1000
0000
1001
0000
0001
0010
0001
0010
0100
1000
0100
1000
0001
1000
,  // measure 37
0000
0001
1000
0000
0010
0100
0010
0100
0010
0000
0000
0100
0000
0000
0010
0000
,  // measure 38
1001
0000
0000
0001
0000
0000
1001
0000
0000
1000
0000
0100
0000
0010
0000
0100
0000
1000
0000
0001
0000
0100
0000
0001
,  // measure 39
0000
1000
0000
0010
0000
1000
0000
0001
0000
0010
0000
0001
0000
1000
0000
0100
0000
1000
0001
0000
0000
0010
0000
0000
,  // measure 40
1001
1000
1001
00M0
0M00
00M0
0M00
0000
,  // measure 41
1001
0001
1001
0M00
00M0
0M00
00M0
0000
,  // measure 42
0001
0000
1000
0000
0000
0000
0010
0100
0010
0000
1000
0000
0001
0000
0100
0000
,  // measure 43
0000
0000
0010
1000
0010
1000
0001
0100
0001
0000
1000
0000
0001
0000
0100
0000
,  // measure 44
0001
0000
1000
0100
0010
0001
0010
0100
1000
0001
1000
0001
0100
0010
0100
0010
,  // measure 45
1000
0100
1000
0001
0100
0001
1000
0000
0010
0000
1000
0000
0001
0000
0100
0000
,  // measure 46
0010
0000
0010
0000
,  // measure 47
0010
0000
0010
0000
,  // measure 48
0100
0000
0100
0000
,  // measure 49
0100
0000
0100
0000
,  // measure 50
0001
0000
0001
0000
,  // measure 51
0001
0000
0001
0000
,  // measure 52
1000
0000
1000
0000
,  // measure 53
0100
0010
0100
1000
,  // measure 54
2000
0000
0010
0000
0010
0010
0000
0010
,  // measure 55
3010
0002
0023
0230
,  // measure 56
0320
0000
0001
0000
0001
0001
0000
0001
,  // measure 57
0031
2000
3002
0023
,  // measure 58
0230
0000
1000
0000
1000
1000
0000
1000
,  // measure 59
1300
0002
0023
0230
,  // measure 60
2300
3002
0203
0320
,  // measure 61
2030
0000
3002
0000
0023
0000
0031
0100
,  // measure 62
1000
0100
0001
0010
1000
0010
0001
0100
,  // measure 63
1000
0100
0001
0010
1000
0010
0001
0100
,  // measure 64
1000
0100
0001
0010
1000
0010
0001
1000
,  // measure 65
1010
0101
1100
0011
,  // measure 66
2001
0000
0000
0000
,  // measure 67
0000
0000
0000
0000
0000
3000
0000
0000
0001
0000
0000
0000
0010
0000
0000
0000
,  // measure 68
0100
1000
0000
0000
;

//---------------dance-single - ----------------
#NOTES:
     dance-single:
     :
     Medium:
     9:
     0.312819,0.430070,0.094521,0.196919,0.023630,278.000000,266.000000,12.000000,25.000000,22.000000,0.000000,0.312819,0.430070,0.094521,0.196919,0.023630,278.000000,266.000000,12.000000,25.000000,22.000000,0.000000:
0000
0000
0000
0000
,
0000
0000
0000
0000
,
2000
0000
0000
0010
0000
0000
0010
0000
,
3000
0010
0000
0000
0100
0000
0010
0000
,
0002
0000
0000
0100
0000
0000
0100
0000
,
0003
0100
0000
0000
0100
0000
0010
0000
,
2000
0000
0000
0001
0000
0000
0001
0000
,
3000
0001
0000
0000
0001
0000
0100
0000
,
0002
0000
0000
1000
0000
0000
1000
0000
,
2003
0010
0000
0000
0010
0000
0000
0000
,
3002
0100
0003
0000
0001
1000
0001
1000
,
0000
0001
0100
0000
0001
0100
0000
0001
,
1000
0001
0000
1000
0100
0000
1000
0100
,
0000
1000
0100
0000
1000
0100
0000
1000
,
0001
1000
0000
0001
0100
0000
1000
0100
,
0000
0001
0100
0000
1000
0100
0010
0001
,
0200
00M0
000M
M000
00M0
000M
00M0
M000
,
000M
00M0
M000
000M
00M0
000M
M300
0000
,
2000
0000
3000
0001
0100
0001
0100
0010
,
1000
0010
1000
0001
0010
0100
1000
0001
,
2000
0000
3000
0001
0100
0001
0100
0010
,
0100
0010
1000
0010
1000
0100
0010
0001
,
2000
0000
0000
0000
3000
0000
0000
0000
0001
0000
0000
0100
0000
0000
0001
0000
,
0000
1000
0000
0000
0100
0000
0000
1000
0000
0000
0001
0000
0000
0000
0000
0000
,
2000
0000
0000
0000
3000
0000
0001
0000
0100
0000
0000
0010
0000
0000
1000
0000
,
2000
0000
0000
0000
3000
0000
0001
0000
1000
0000
0000
1000
0000
0000
2001
0000
,
0000
0000
0001
0000
,
0010
0000
0001
0000
,
3002
0000
1000
0000
,
0100
0000
1000
0000
,
2003
0000
0010
0000
,
3002
0000
0100
0003
,
1000
0001
1000
0001
,
1000
0100
0010
0001
1000
0000
0000
0000
,
0002
0000
0003
1000
0010
0100
0001
0010
,
0001
0100
0001
1000
0100
0010
0001
1000
,
0002
0000
0003
1000
0100
0010
0001
0100
,
0010
1000
0010
0100
0001
1000
0100
0010
,
0002
0000
0003
1000
0001
1000
0100
0010
,
0001
1000
0001
0100
0001
0010
0001
0000
,
0002
0000
0003
00M0
0M00
00M0
0M00
0000
,
0002
0000
0003
0M00
00M0
0M00
00M0
0000
,
0001
1000
0000
0010
0010
1000
0001
0100
,
0000
0001
1000
0010
0010
1000
0001
0100
,
0001
1000
0100
0010
0001
0100
0010
1000
,
0001
0000
0000
0100
0000
0000
0010
0000
0010
0000
0100
0000
0001
0000
1000
0000
,
0010
0000
0010
0000
,
0010
0000
0010
0000
,
0100
0000
0100
0000
,
0100
0000
0100
0000
,
0001
0000
0001
0000
,
0001
0000
0001
0000
,
1000
0000
1000
0000
,
0100
0010
0100
1000
,
2000
0000
0010
0000
0000
0010
0000
0010
,
3000
1000
0100
0010
,
0002
0000
0100
0000
0000
0100
0000
0100
,
0003
0001
0010
0100
,
2000
0000
0100
0000
0000
0100
0000
0100
,
3000
1000
0100
0010
,
0001
0100
0010
1000
,
0001
0000
0100
0000
0010
0000
1000
0001
,
1001
1000
1100
0001
,
0101
1000
1100
0001
,
0101
1000
1100
0001
,
0101
0101
1100
1100
,
2001
0000
0000
0000
,
0000
0000
0000
0000
0000
3000
0000
0000
0001
0000
0000
0000
0010
0000
0000
0000
,
0100
1000
0000
0000
;

//---------------dance-single - ----------------
#NOTES:
     dance-single:
     :
     Easy:
     5:
     0.205921,0.322553,0.078767,0.133905,0.003938,183.000000,173.000000,10.000000,17.000000,9.000000,0.000000,0.205921,0.322553,0.078767,0.133905,0.003938,183.000000,173.000000,10.000000,17.000000,9.000000,0.000000:
0000
0000
0000
0000
,
0000
0000
0000
0000
,
2000
0000
0001
0000
,
3000
0000
0001
0000
,
0002
0000
1000
0000
,
0003
0000
1000
0000
,
2000
0000
0001
0000
,
3000
0000
0001
0000
,
0002
0000
1000
0000
,
2003
0000
3001
0000
,
2000
3000
0002
0000
,
0000
0000
1000
0000
,
2003
0000
0001
0000
,
3000
0000
0001
0000
,
0001
0000
0000
1000
0000
0000
0001
0000
,
0000
1000
0000
0000
0001
0000
0001
0000
,
0002
00M0
0000
0000
00M0
0000
00M0
0000
,
0000
00M0
0000
0000
00M0
0000
0003
0000
,
0000
0000
1001
1000
,
0010
0100
0001
0010
,
0000
0000
0001
0100
,
0010
1000
0010
0100
,
0000
0000
0001
1000
,
0000
0100
0000
0000
0010
0000
0000
0001
,
0000
0000
0100
0010
,
1000
0000
0000
0000
0000
0000
0000
0000
1000
0000
0000
0001
0000
0000
2000
0000
,
0000
0000
0001
0000
,
0001
0000
0001
0000
,
3002
0000
1000
0000
,
1000
0000
1000
0000
,
2003
0000
0001
0000
,
3002
0000
1000
0003
,
1000
0001
1000
0001
,
1000
0001
1000
0001
1000
0000
0000
0000
,
1001
0000
1000
0100
,
0010
0001
0100
0010
,
1001
0000
0001
0010
,
0100
1000
0010
0100
,
1001
0000
1000
0100
,
1000
0001
0100
0001
,
1001
0000
0000
00M0
0000
00M0
0000
0000
,
1001
0000
0M00
0M00
,
1000
0000
0001
0001
,
0000
0100
0001
0001
,
0000
1000
0100
0010
,
0001
0100
0001
0001
,
0010
0000
0010
0000
,
0010
0000
0010
0000
,
0100
0000
0100
0000
,
0100
0000
0100
0000
,
1000
0000
1000
0000
,
1000
0000
1000
0000
,
0001
0000
0001
0000
,
0100
0010
0100
0001
,
2000
0000
0010
0000
0000
0010
0000
0010
,
3000
1000
0100
0010
,
0002
0000
0100
0000
0000
0100
0000
0100
,
0003
0001
0010
0100
,
2000
0000
0100
0000
0000
0100
0000
0100
,
3000
1000
0100
0010
,
0001
0100
0010
1000
,
0001
0100
0010
1000
,
1001
0001
1000
0010
,
0100
0001
0010
0100
,
1000
0001
0100
0010
,
0110
1000
1001
0001
,
2001
0000
0000
0000
,
0000
0000
0000
0000
0000
3000
0000
0000
0001
0000
0000
0000
0010
0000
0000
0000
,
0100
1000
0000
0000
;

//---------------dance-single - ----------------
#NOTES:
     dance-single:
     :
     Beginner:
     3:
     0.144032,0.215035,0.047260,0.094521,0.000000,128.000000,122.000000,6.000000,12.000000,7.000000,0.000000,0.144032,0.215035,0.047260,0.094521,0.000000,128.000000,122.000000,6.000000,12.000000,7.000000,0.000000:
0000
0000
0000
0000
,
0000
0000
0000
0000
,
2000
0000
0000
0000
,
3000
0000
0001
0000
,
0002
0000
0000
0000
,
0003
0000
1000
0000
,
2000
0000
0000
0000
,
3000
0000
0001
0000
,
0002
0000
0003
0000
,
2000
0000
3000
0000
,
2000
3000
0002
0000
,
0000
0000
0000
0000
,
2003
0000
0000
0000
,
3000
0000
0001
0000
,
0001
0000
1000
0001
,
0000
1000
1000
1000
,
0001
00M0
0000
0000
00M0
0000
00M0
0000
,
0000
00M0
0000
0000
00M0
0000
0000
0000
,
0000
0000
0001
0001
,
0001
0000
0100
0000
,
0010
0000
1000
1000
,
1000
0000
0010
0000
,
0100
0000
0001
0001
,
0000
1000
1000
0000
,
0010
0000
1000
1000
,
0100
0000
0001
0001
,
1000
0000
0001
0000
,
1000
0000
0001
0000
,
0100
0000
0010
0000
,
0100
0000
0010
0000
,
1000
0000
0001
0000
,
1000
0000
0001
0000
,
1000
0000
1000
0000
,
1000
0001
1000
0000
,
1001
0000
1000
1000
,
1000
0000
0010
0000
,
1001
0000
0001
0001
,
0001
0000
0100
0000
,
1001
0000
1000
0000
,
0000
0010
0000
1000
,
1001
0000
0000
00M0
0000
0000
0000
0000
,
1001
0000
0M00
0000
,
1000
0000
0001
0000
,
1000
0000
0001
0000
,
1000
1000
1000
0000
,
0001
0001
0010
0010
,
0010
0000
0010
0000
,
0010
0000
0010
0000
,
0100
0000
0100
0000
,
0100
0000
0100
0000
,
1000
0000
1000
0000
,
1000
0000
1000
0000
,
0001
0000
0001
0000
,
0100
0000
0100
0000
,
0002
0000
0000
0000
,
0003
0000
0010
0000
,
2000
0000
0000
0000
,
3000
0000
0100
0000
,
0002
0000
0000
0000
,
0003
0000
0100
0000
,
0001
0000
1000
0000
,
0001
0000
1000
0000
,
1001
0000
1000
0000
,
0010
0000
0100
0000
,
0001
0000
0010
0000
,
0001
0000
1000
0000
,
0002
0000
0000
0003
,
0000
0000
0001
0010
,
0100
1000
0000
0000
;
