#VERSION:0.83;
#TITLE:Carry On Wayward Son;
#SUBTITLE:;
#ARTIST:Kansas;
#TITLETRANSLIT:;
#SUBTITLETRANSLIT:;
#ARTISTTRANSLIT:;
#GENRE:Rock;
#ORIGIN:;
#CREDIT:;
#BANNER:bncmod.png;
#BACKGROUND:bg.png;
#PREVIEWVID:;
#JACKET:jacketcmod.png;
#CDIMAGE:;
#DISCIMAGE:;
#LYRICSPATH:;
#CDTITLE:;
#MUSIC:Carry On Wayward Son.ogg;
#OFFSET:-0.290594;
#SAMPLESTART:100.947372;
#SAMPLELENGTH:13.266678;
#SELECTABLE:YES;
#DISPLAYBPM:*;
#BPMS:0.000=127.009,
4.000=126.995,
5.000=127.009,
10.000=126.995,
11.000=127.001,
12.000=127.009,
13.000=127.001,
14.000=127.009,
15.000=127.001,
16.000=127.009,
17.000=126.995,
18.000=127.001,
19.000=127.009,
20.000=127.001,
21.000=127.009,
22.000=127.001,
23.000=126.995,
24.000=127.001,
26.000=127.009,
27.000=127.001,
28.000=126.995,
29.000=127.001,
31.000=127.009,
32.000=127.001,
33.000=126.995,
34.000=106.320,
34.500=115.570,
35.000=129.194,
36.000=111.300,
37.000=114.118,
38.000=127.001,
39.000=117.695,
40.000=124.202,
42.000=121.514,
43.000=123.515,
44.000=128.445,
45.000=124.886,
46.000=125.234,
47.000=125.239,
48.000=119.576,
49.000=124.886,
50.000=121.514,
51.000=125.578,
52.000=121.514,
53.000=122.841,
54.000=122.174,
55.000=125.583,
56.000=129.194,
57.000=124.197,
58.000=123.515,
59.000=124.191,
60.000=124.197,
61.000=119.845,
62.000=117.705,
63.000=127.518,
64.000=126.794,
66.000=128.445,
67.000=135.920,
67.667=126.332,
68.000=131.606,
68.667=124.015,
69.000=128.974,
70.000=127.518,
71.000=133.581,
72.000=120.482,
72.667=119.136,
73.000=122.647,
74.000=123.999,
75.000=137.654,
76.000=128.245,
77.000=130.470,
78.000=127.518,
79.000=128.239,
80.000=128.145,
80.667=130.790,
81.000=125.660,
82.000=126.794,
83.000=135.186,
84.000=128.239,
85.000=131.231,
86.000=126.794,
88.000=118.614,
88.667=122.982,
89.000=121.735,
90.000=127.784,
91.000=137.234,
92.000=120.030,
93.000=127.158,
94.000=123.999,
95.000=125.381,
96.000=126.794,
97.000=122.647,
98.000=124.004,
99.000=121.324,
100.000=126.794,
101.000=125.381,
102.000=129.718,
103.000=121.324,
104.000=120.035,
105.000=128.239,
107.000=125.381,
108.000=120.035,
109.000=123.999,
111.000=126.794,
112.000=125.381,
113.000=123.999,
114.000=124.004,
115.000=125.381,
116.000=128.239,
117.000=121.483,
118.000=120.810,
119.000=124.379,
120.000=135.694,
120.667=126.241,
121.000=122.982,
122.000=125.381,
123.000=131.231,
124.000=132.786,
125.000=129.718,
126.000=128.239,
127.000=129.718,
128.000=127.804,
128.667=112.202,
129.000=115.463,
130.000=135.689,
131.000=126.794,
132.000=125.250,
133.000=137.862,
133.667=140.886,
134.000=150.825,
134.333=133.333,
135.000=144.993,
135.667=150.000,
136.000=144.928,
136.333=139.342,
137.000=126.761,
138.000=126.766,
139.000=126.761,
140.000=126.763,
141.000=126.761,
142.000=126.763,
143.000=126.761,
144.000=126.763,
145.000=132.347,
146.000=121.622,
147.000=117.522,
148.000=125.381,
149.000=113.951,
150.000=118.763,
151.000=115.122,
152.000=113.951,
153.000=120.030,
154.000=115.117,
155.000=122.647,
156.000=121.330,
157.000=118.139,
158.000=120.674,
159.000=115.709,
160.000=117.522,
161.000=118.768,
162.000=131.231,
163.000=111.137,
164.000=117.522,
165.000=121.324,
166.000=115.714,
167.000=121.294,
168.000=117.493,
169.000=118.110,
171.000=120.643,
172.000=119.363,
173.000=120.000,
174.000=128.205,
175.000=113.350,
176.000=127.479,
177.000=121.622,
178.000=122.951,
179.000=122.616,
180.000=127.841,
182.000=125.348,
183.000=127.479,
184.000=128.940,
185.000=125.348,
186.000=126.050,
187.000=128.205,
188.000=126.050,
189.000=125.348,
190.000=128.940,
191.000=126.050,
192.000=122.283,
193.000=124.309,
194.000=129.310,
195.000=125.000,
196.000=130.058,
197.000=125.698,
198.000=125.000,
199.000=124.654,
200.000=130.435,
201.000=127.841,
202.000=126.404,
203.000=124.309,
204.000=126.404,
205.000=128.571,
206.000=130.814,
207.000=129.310,
208.000=121.622,
209.000=141.509,
210.000=120.321,
211.000=119.681,
212.000=127.841,
213.000=123.626,
214.000=129.310,
215.000=127.841,
216.000=126.404,
218.000=126.402,
219.000=125.000,
220.000=127.841,
221.000=126.404,
222.000=129.310,
223.000=133.929,
224.000=132.353,
225.000=127.841,
226.000=122.283,
227.000=117.187,
228.000=127.841,
230.000=130.814,
231.000=127.841,
232.000=130.814,
233.000=134.529,
234.000=123.035,
236.000=130.058,
237.000=123.626,
238.000=121.622,
240.000=125.698,
241.000=123.626,
242.000=124.309,
243.000=123.626,
244.000=125.000,
245.000=127.119,
246.000=125.698,
247.000=126.582,
248.000=122.616,
249.000=120.482,
250.000=125.348,
251.000=124.309,
252.000=127.119,
253.000=125.000,
254.000=123.288,
255.000=125.000,
256.000=128.205,
257.000=127.119,
258.000=125.348,
259.000=128.571,
260.000=123.288,
261.000=124.138,
262.000=120.805,
263.000=120.968,
264.000=128.571,
265.000=125.698,
266.000=125.000,
267.000=126.404,
268.000=125.000,
269.000=130.814,
270.000=125.000,
272.000=127.119,
273.000=126.404,
275.000=120.321,
276.000=134.731,
277.000=127.841,
278.000=121.622,
279.000=126.404,
280.000=129.310,
281.000=125.698,
282.000=121.622,
283.000=132.353,
284.000=125.698,
285.000=127.841,
286.000=125.000,
287.000=126.404,
288.000=130.058,
289.000=127.841,
290.000=128.571,
291.000=131.579,
293.000=125.000,
294.000=127.119,
295.000=133.136,
296.000=119.681,
297.000=124.309,
298.000=128.571,
299.000=125.000,
300.000=123.626,
301.000=130.058,
302.000=124.309,
303.000=125.698,
304.000=128.571,
305.000=122.951,
306.000=130.058,
307.000=126.404,
308.000=130.058,
309.000=126.404,
310.000=129.310,
311.000=128.571,
312.000=125.000,
313.000=124.309,
314.000=130.058,
315.000=127.841,
316.000=127.119,
317.000=125.000,
318.000=129.310,
319.000=127.119,
320.000=130.814,
321.000=131.579,
322.000=135.542,
323.000=131.579,
324.000=137.195,
325.000=121.085,
326.000=126.990,
327.000=118.421,
328.000=125.698,
329.000=130.814,
330.000=127.119,
331.000=128.205,
332.000=126.761,
333.000=129.310,
334.000=127.119,
335.000=122.951,
336.000=130.814,
337.000=126.404,
338.000=127.119,
339.000=127.841,
340.000=143.312,
341.000=138.889,
342.000=120.321,
343.000=122.283,
344.000=130.814,
345.000=127.841,
346.000=130.058,
347.000=129.310,
348.000=132.353,
349.000=130.058,
350.000=128.646,
353.000=128.640,
354.000=128.646,
355.000=118.734,
356.000=126.404,
358.000=129.310,
359.000=126.404,
361.000=126.402,
362.000=130.814,
363.000=125.000,
364.000=132.353,
365.000=129.305,
366.000=129.310,
367.000=126.404,
368.000=125.000,
369.000=126.404,
370.000=130.814,
371.000=130.435,
372.000=126.761,
373.000=127.208,
374.000=129.218,
375.000=127.119,
376.000=124.309,
377.000=125.698,
378.000=127.841,
379.000=130.814,
380.000=127.841,
381.000=126.404,
382.000=130.814,
383.000=122.951,
384.000=131.579,
385.000=123.626,
386.000=125.000,
388.000=130.814,
389.000=125.698,
390.000=125.000,
391.000=127.119,
392.000=127.841,
393.000=125.698,
394.000=131.965,
395.000=116.679,
396.000=125.583,
397.000=125.698,
398.000=129.310,
399.000=124.309,
400.000=136.364,
401.000=118.421,
402.000=130.246,
404.000=131.579,
405.000=125.000,
406.000=127.119,
407.000=122.951,
408.000=127.841,
409.000=129.310,
410.000=128.571,
411.000=126.404,
412.000=130.814,
413.000=128.571,
414.000=130.058,
415.000=125.698,
416.000=128.571,
417.000=127.841,
418.000=135.542,
419.000=125.000,
420.000=129.310,
421.000=127.119,
422.000=131.579,
423.000=125.348,
424.000=129.683,
425.000=125.698,
426.000=125.348,
427.000=128.205,
428.000=128.940,
429.000=124.654,
430.000=129.683,
431.000=126.050,
432.000=129.310,
433.000=128.023,
434.000=127.298,
435.000=123.967,
436.000=122.117,
437.000=123.796,
438.000=134.731,
439.000=126.404,
440.000=125.698,
441.000=123.626,
442.000=129.310,
443.000=114.796,
444.000=126.404,
445.000=127.119,
446.000=125.000,
447.000=129.310,
448.000=125.000,
449.000=133.136,
450.000=131.579,
451.000=122.283,
452.000=125.698,
453.000=123.626,
454.000=119.681,
455.000=125.000,
456.000=126.404,
457.000=120.968,
458.000=125.000,
459.000=127.841,
461.000=126.404,
462.000=125.000,
463.000=120.968,
464.000=127.841,
465.000=123.626,
466.000=127.841,
467.000=123.626,
470.000=125.000,
471.000=127.841,
473.000=120.968,
474.000=129.310,
475.000=122.283,
476.000=126.404,
477.000=125.000,
479.000=126.404,
480.000=125.000,
482.000=126.404,
483.000=123.626,
484.000=129.310,
485.000=126.404,
486.000=129.310,
487.000=123.626,
488.000=127.841,
489.000=129.310,
490.000=137.195,
491.000=135.542,
492.000=121.294,
493.000=123.967,
494.000=124.309,
495.000=121.622,
496.000=127.841,
497.000=130.058,
498.000=130.814,
499.000=131.579,
500.000=119.048,
501.000=127.841,
502.000=125.000,
503.000=123.288,
504.000=140.955,
505.000=130.529,
506.000=130.058,
507.000=125.043,
507.500=139.684,
508.000=121.905,
509.000=121.998,
510.000=123.626,
511.000=127.479,
512.000=126.404,
513.000=132.353,
514.000=135.542,
515.000=134.328,
516.000=122.951,
517.000=122.616,
518.000=123.626,
519.000=129.683,
520.000=126.404,
521.000=132.353,
522.000=129.310,
523.000=131.965,
524.000=123.796,
525.000=121.131,
526.000=123.711,
527.000=129.218,
528.000=125.698,
529.000=127.841,
532.000=122.893,
533.000=122.898,
534.000=122.893,
536.000=122.898,
537.000=124.551,
538.000=126.984,
538.667=115.704,
539.000=121.951,
540.000=123.288,
541.000=129.747,
541.667=124.191,
542.000=123.626,
543.000=125.698,
544.000=130.814,
545.000=130.058,
546.000=134.731,
547.000=122.951,
548.000=125.000,
549.000=126.158,
549.667=117.016,
550.000=118.110,
551.000=128.571,
552.000=131.195,
553.000=129.310,
554.000=135.542,
555.000=123.626,
556.000=127.841,
557.000=125.482,
557.667=120.075,
558.000=119.681,
559.000=126.404,
560.000=137.195,
561.000=129.310,
562.000=130.814,
563.000=125.000,
564.000=130.814,
565.000=126.474,
565.667=114.682,
566.000=118.421,
567.000=130.814,
568.000=132.353,
569.000=133.929,
570.000=125.000,
571.000=132.353,
572.000=134.731,
573.000=136.364,
574.000=124.309,
575.000=136.364,
576.000=124.309,
577.000=129.125,
578.000=127.298,
579.000=127.841,
580.000=139.752,
581.000=135.542,
582.000=118.734,
583.000=135.952,
584.000=125.698,
585.000=131.965,
587.000=131.772,
588.000=133.929,
589.000=137.825,
590.000=122.616,
591.000=137.405,
592.000=125.000,
593.000=132.548,
594.000=133.136,
595.000=135.542,
596.000=134.731,
597.000=138.037,
598.000=127.841,
599.000=135.542,
600.000=118.421,
601.000=131.579,
603.000=123.531,
604.000=123.536,
605.000=129.514,
606.000=135.542,
607.000=133.929,
608.000=123.711,
608.667=138.889,
609.333=137.674,
610.000=135.300,
611.000=119.910,
611.667=130.081,
612.000=128.755,
613.000=127.841,
614.000=133.929,
615.000=133.136,
616.000=136.986,
616.667=142.857,
617.000=137.359,
617.333=131.579,
618.000=128.279,
619.000=126.183,
619.667=129.032,
620.000=125.000,
621.000=130.814,
623.000=133.929,
624.000=129.145,
624.667=144.231,
625.333=147.003,
626.000=134.072,
627.000=123.235,
627.667=128.686,
628.000=122.951,
629.000=133.929,
630.000=131.579,
631.000=130.435,
632.000=133.531,
633.000=130.058,
634.000=129.310,
635.000=138.889,
636.000=121.294,
637.000=143.770,
638.000=122.060,
639.000=132.878,
640.000=132.872,
641.000=134.731,
642.000=133.136,
643.000=137.195,
644.000=126.050,
645.000=138.462,
646.000=123.626,
647.000=131.195,
649.000=134.731,
650.000=136.364,
651.000=138.037,
652.000=124.827,
653.000=131.004,
654.000=134.731,
655.000=120.321,
656.000=140.625,
658.000=133.929,
659.000=138.889,
660.000=126.761,
661.000=133.531,
662.000=135.542,
663.000=126.404,
664.000=128.205,
665.000=136.364,
665.333=147.783,
666.000=122.449,
666.667=137.931,
667.000=138.568,
667.333=135.135,
668.000=125.000;
#STOPS:;
#DELAYS:;
#WARPS:;
#TIMESIGNATURES:0.000=4=4;
#TICKCOUNTS:0.000=4;
#COMBOS:0.000=1;
#SPEEDS:0.000=1.000=0.000=0;
#SCROLLS:0.000=1.000;
#FAKES:;
#LABELS:0.000=Song Start;
#BGCHANGES:2.500=Carry on Wayward Son.mp4=1.000=1=0=0=StretchNoLoop==CrossFade==,
669.000=bg.png=1.000=1=0=1===CrossFade==,
99999=-nosongbg-=1.000=0=0=0 // don't automatically add -songbackground-
;
#KEYSOUNDS:;
#ATTACKS:
;

//---------------dance-single - ----------------
#NOTEDATA:;
#CHARTNAME:;
#STEPSTYPE:dance-single;
#DESCRIPTION:;
#CHARTSTYLE:Pad;
#DIFFICULTY:Hard;
#METER:13;
#RADARVALUES:0.547857,0.772518,0.426111,0.137950,0.446037,1251.000000,1112.000000,139.000000,45.000000,0.000000,0.000000,4.000000,0.000000,0.000000,0.547857,0.772518,0.426111,0.137950,0.446037,1251.000000,1112.000000,139.000000,45.000000,0.000000,0.000000,4.000000,0.000000,0.000000;
#CREDIT:Gradi;
#DISPLAYBPM:127.000000;
#NOTES:
// measure 0
0000
0000
0000
0000
,  // measure 1
0000
0000
0000
0000
,  // measure 2
0000
0000
0000
0000
,  // measure 3
0000
0000
0000
0000
,  // measure 4
0000
0000
0000
0000
,  // measure 5
0000
0000
0000
0000
,  // measure 6
0000
0000
0000
0000
,  // measure 7
0000
0000
0000
0000
,  // measure 8
0000
0000
1000
1000
0000
0001
0001
0000
,  // measure 9
1000
0000
0000
0000
0000
0001
0000
0000
0000
0000
0000
0000
0000
0000
0000
0000
0000
0000
0000
0000
0000
0000
0000
0000
0000
0000
0000
0000
0000
0000
0000
0000
0000
0000
0000
0000
0000
0000
0000
0000
0000
0000
0000
0000
0000
0000
0000
0000
1000
0000
0000
0000
0000
0000
0000
0000
0000
0000
0000
0000
0000
0000
0000
0000
0000
0000
0000
0000
0000
0000
0000
0000
0100
0000
0000
0000
0000
0000
0000
0000
0000
0000
0000
0000
0000
0000
0000
0000
0000
0000
0000
0000
0000
0000
0000
0000
0010
0000
0000
0000
0000
0000
0000
0000
0000
0000
0000
0000
0000
0000
0000
0000
0000
0000
0000
0000
0000
0000
0000
0000
2000
0000
0000
0000
0000
0000
0000
0000
0000
0000
0000
0000
0000
0000
0000
0000
0000
0000
0000
0000
0000
0000
0000
0000
0000
0000
0000
0000
0000
0000
0000
0000
0000
0000
0000
0000
0000
0000
0000
0000
0000
0000
0000
0000
0000
0000
0000
0000
0000
0000
0000
0000
0000
0000
0000
0000
0000
0000
0000
0000
0000
0000
0000
0000
0000
0000
0000
0000
0000
0000
0000
0000
,  // measure 10
3010
0100
0010
0002
0000
0000
1003
0010
,  // measure 11
1000
0100
0010
0000
0001
0000
0001
0000
1001
0000
0000
0000
1000
0000
1000
0000
,  // measure 12
1001
0000
0001
0010
0100
0002
0000
0000
,  // measure 13
0103
1000
0010
0200
0000
0000
0301
1000
,  // measure 14
0001
0010
0100
0000
0010
0000
0010
0000
0011
0000
0000
0000
0100
0000
0100
0000
,  // measure 15
1100
0000
0000
1001
0000
1001
0000
0000
0001
0100
0000
0100
,  // measure 16
0010
0000
0010
1000
0000
1000
0001
0000
0001
1000
0010
0100
,  // measure 17
1000
0100
0010
1000
0000
1000
0001
0000
0001
0100
0000
0000
,  // measure 18
0011
0000
0011
0000
0000
0001
0010
0000
0010
0001
1000
0100
,  // measure 19
0001
0100
1000
0010
0000
0010
0100
0000
0100
0001
0000
0000
,  // measure 20
1100
0000
1100
0000
0000
1000
0100
0000
0100
0010
0001
0100
,  // measure 21
1000
0100
0001
0010
0000
0010
0001
0000
0001
1000
0000
0000
,  // measure 22
0101
0000
0202
0000
0303
0001
0010
0000
0010
0100
1000
0010
,  // measure 23
0001
0000
0010
0000
1000
0000
0002
0000
0000
0000
0000
0000
0000
0000
0000
0000
0000
0000
2003
0000
0000
3200
0000
0000
,  // measure 24
0000
0000
0000
0000
0310
0001
0100
0010
1000
0001
0020
0000
0000
0000
0000
0000
,  // measure 25
0030
0000
0000
0001
0000
0000
4000
0004
0000
0000
0000
0000
0000
0000
0000
0000
3000
0003
0010
0100
0010
0002
0000
0000
,  // measure 26
2003
0000
0000
0000
0000
0000
0000
0000
3001
0000
1000
0010
0100
0001
0100
0010
,  // measure 27
1000
0100
0010
0001
1000
0100
1000
0001
0010
0100
1000
0001
0200
0000
0000
0000
,  // measure 28
0310
0000
0000
0000
0000
0000
1000
0000
0010
0000
0100
0000
0001
0000
0000
0010
0000
0000
0100
0000
0000
1000
0000
0000
0001
0000
0000
0100
0000
0000
0010
0000
0000
1000
0000
0000
0200
0000
0000
0000
0000
0000
0000
0000
0000
0000
0000
0000
,  // measure 29
0000
0000
0000
0300
0000
0000
1001
0000
0000
0000
1001
0000
0000
0000
0000
0000
1000
0000
0100
0000
0000
0000
0100
0000
,  // measure 30
0011
0000
0011
0000
0000
1000
0001
0000
0001
0010
0100
0010
,  // measure 31
1000
0010
0001
1000
0000
1000
0010
0000
0010
0100
0000
0000
,  // measure 32
0110
0000
0110
0000
0000
0100
0001
0000
0001
1000
0100
0010
,  // measure 33
1000
0010
0001
1001
0000
0011
0000
1010
0000
1100
0000
1010
,  // measure 34
0000
0011
0000
2002
0000
0000
0000
0000
0000
0000
0000
0000
,  // measure 35
0000
0000
0000
0000
,  // measure 36
0000
0000
3003
0000
0000
0000
0001
0010
,  // measure 37
0100
1000
0010
0100
0010
0000
1000
0100
,  // measure 38
1000
0000
0001
0000
0000
0000
1000
0001
,  // measure 39
0010
0100
0010
0001
1000
0000
0100
0010
,  // measure 40
0001
0000
1000
0000
0000
0000
1000
0010
,  // measure 41
0100
0010
1000
0001
0020
0000
0230
0000
,  // measure 42
0000
0000
0300
0000
0000
0000
1000
0001
,  // measure 43
1000
0010
0200
0000
,  // measure 44
0300
0010
0010
0100
0100
0010
1000
0001
,  // measure 45
0011
0010
0001
1000
0001
0010
0100
1000
,  // measure 46
1001
0001
0100
0010
1000
0100
1000
0010
,  // measure 47
0110
0100
0001
0010
0001
1000
0010
0100
,  // measure 48
0101
0001
1000
0100
0010
0001
0100
0010
,  // measure 49
1010
1000
0010
0100
0001
0100
0010
1000
,  // measure 50
1001
0001
0010
0100
1000
0001
1000
0001
,  // measure 51
0101
0100
0010
1000
0010
0100
0011
1000
,  // measure 52
0001
0000
0000
0000
0100
0000
0000
0001
0010
0000
0000
0000
0010
0000
0000
0000
0011
0000
0000
0000
0000
0000
0000
0000
0101
0000
0000
0000
1000
0000
0000
0000
,  // measure 53
1000
0010
0001
0010
1000
0100
0010
0001
,  // measure 54
1000
0100
1010
0001
0001
0010
1000
0010
,  // measure 55
0010
0001
1000
0100
0010
0001
0101
1000
,  // measure 56
1000
1000
1000
1000
1001
0000
1010
0001
,  // measure 57
0001
0100
1000
0100
0001
0010
0100
1000
,  // measure 58
0001
0010
0101
1000
1001
0000
0000
0000
,  // measure 59
0001
1000
0000
0000
0000
0000
0000
0000
0001
0010
0000
0000
0000
0000
0000
0000
0001
0000
0000
0000
0010
0000
0000
0000
0100
0000
0000
0000
0002
0000
0000
0000
,  // measure 60
0000
0000
0103
0010
0100
2000
0000
0000
,  // measure 61
3001
0000
0100
0000
0001
0010
0100
0000
1000
0000
1000
0000
1001
0000
0000
0000
,  // measure 62
0001
0001
1001
0000
1000
0100
0010
2000
,  // measure 63
0000
0000
3010
0001
0100
0020
0000
0000
,  // measure 64
1030
0000
0001
0000
1000
0100
0010
0000
0100
0000
0100
0000
1100
0000
0000
0000
,  // measure 65
0010
0010
0011
0000
0000
0000
0001
0100
,  // measure 66
0010
0100
0001
1000
0100
0000
0010
0001
,  // measure 67
1000
0000
0010
0000
0000
0000
0100
0010
,  // measure 68
1000
0001
0010
0001
1000
0000
0100
1000
,  // measure 69
0010
0000
0000
0000
0100
0000
0000
0000
0000
0000
0010
0000
0100
0010
0000
0000
,  // measure 70
1000
0000
0000
0001
0010
0000
0100
0000
0010
0000
0000
0000
0002
0000
0000
0000
,  // measure 71
0000
0000
0000
0000
0003
0000
0000
0000
0000
0000
1000
0000
0001
0000
1000
0010
,  // measure 72
0000
0000
0000
0000
0000
0000
0100
0000
0000
0010
0000
0000
0000
0000
0000
0000
1000
0000
0000
0000
0000
0000
0000
0000
0020
0000
0000
0000
0000
0000
0000
0000
0000
0000
0000
0000
0000
0000
0000
0000
0000
0000
0000
0000
0000
0000
0000
0000
,  // measure 73
0030
0000
0000
0000
0000
0000
1000
0001
,  // measure 74
0010
0001
0100
0010
1000
0000
0100
1000
,  // measure 75
0001
0000
0100
0000
0000
0000
0010
0100
,  // measure 76
0001
1000
0100
1000
0001
0000
0010
0001
,  // measure 77
1000
0000
0000
0000
0100
0000
0000
0000
0000
0000
0010
0000
0001
0000
0100
0010
,  // measure 78
0000
0100
0001
1000
0100
0000
2000
0000
,  // measure 79
0000
0000
3000
0000
0000
0000
0001
0010
,  // measure 80
0100
0000
1000
0100
0000
0000
1000
0000
0001
1000
0001
0100
0010
0000
0100
0001
,  // measure 81
0010
0100
1000
0001
1001
0000
1010
0001
,  // measure 82
0001
0100
1000
0100
0001
1000
0100
0010
,  // measure 83
0001
0100
0011
1000
1000
0100
0001
0100
,  // measure 84
0100
1000
0001
0010
0100
0010
1001
0100
,  // measure 85
1000
0010
0100
0010
1000
0001
0010
0100
1000
0000
0000
0000
1010
0000
0001
0000
,  // measure 86
0001
0100
1000
0100
0001
0010
0100
1000
,  // measure 87
0001
0100
1010
0001
1001
0000
0000
0000
,  // measure 88
0000
0000
0000
0000
0000
0000
0000
0000
0000
0000
0000
0000
0000
0000
0000
0000
0000
0000
0000
0000
0000
0000
0000
0000
1000
0001
0000
0000
0000
0000
0000
0000
,  // measure 89
1000
0000
0001
0010
0001
0100
0010
1000
0001
0000
0010
0000
0000
0000
1000
0000
,  // measure 90
0000
0100
0000
0001
0000
0010
0000
0000
,  // measure 91
0001
0000
1000
0100
0010
0100
1000
0010
1000
0000
0100
0000
0000
0000
0001
0000
,  // measure 92
0000
0010
0000
2000
0000
0000
0000
0000
,  // measure 93
3100
0000
1000
0010
0100
0010
1000
0001
1000
0000
0100
0000
0000
0000
0001
0000
,  // measure 94
0000
0010
0000
1000
0000
0200
0000
0000
,  // measure 95
1300
0000
0001
0100
0010
1000
0100
0010
0001
0000
0010
0000
0000
0000
1000
0000
,  // measure 96
0000
0100
0000
0002
0000
0000
0003
0000
,  // measure 97
0010
0001
0000
0001
0000
0001
0000
0001
,  // measure 98
0000
0000
1000
0000
0000
0000
1000
0000
0000
0000
0010
0000
0000
0110
0000
0000
,  // measure 99
0100
0010
0000
0010
0000
0100
0000
0100
,  // measure 100
0001
0011
0000
1001
0000
1010
0000
1001
,  // measure 101
0001
0000
0010
0100
1000
0010
0100
0001
1000
0000
0100
0000
0010
0000
1000
0000
,  // measure 102
0010
0000
0001
0000
1000
0000
0010
0000
0100
0000
1000
0000
0100
0000
0001
1000
,  // measure 103
0001
0000
1000
0010
0100
0001
0100
0010
1000
0000
0001
0000
0100
0000
1000
0000
,  // measure 104
0100
0000
0010
0000
1000
0000
0001
0010
0001
0000
1000
0000
0001
1001
0000
0000
,  // measure 105
1000
0000
0100
1000
0010
0100
0010
1000
0001
0000
0010
0000
0100
0010
1000
0001
,  // measure 106
1000
0000
0010
0000
0100
0000
1000
0000
0100
0000
0001
0000
1000
0000
0001
0100
,  // measure 107
0010
0000
1000
0001
0010
0100
1000
0001
0100
0000
0010
0000
0100
0000
1000
0000
,  // measure 108
0100
0001
1000
1001
0000
0001
1001
0000
,  // measure 109
1000
0100
0010
0001
,  // measure 110
1000
0000
0010
0100
0001
0010
0001
0000
1000
0000
0100
0010
0001
1001
0000
0000
,  // measure 111
1000
0000
0000
0000
0010
0000
0000
0000
0100
0000
0001
0100
0010
0000
0000
0000
1000
0000
0000
0000
0001
0000
0000
0000
0010
0000
0000
0000
0100
0000
0010
0100
,  // measure 112
0001
0000
1000
0000
0100
0000
1000
0000
0001
0000
0010
0000
0000
0001
1000
0000
,  // measure 113
1000
0100
0010
2000
0000
0000
3010
0100
,  // measure 114
0010
0000
0002
0000
0000
0000
0000
0000
1003
0000
0010
0000
1000
0100
0010
0100
,  // measure 115
1000
1000
1001
0000
0001
0001
1001
0000
,  // measure 116
0001
0010
0100
0002
0000
0000
0103
1000
,  // measure 117
0010
0000
0200
0000
0000
0000
0000
0000
0301
0000
1000
0000
0001
0010
0100
0010
,  // measure 118
0001
0001
0011
0000
1000
1000
1100
0000
,  // measure 119
1010
1010
0001
0001
1000
0100
1001
0010
,  // measure 120
1001
0000
0001
0000
0010
0000
0001
1000
0100
0000
1000
0000
0001
0000
0010
0000
,  // measure 121
0101
0101
1000
1000
0001
0010
1001
0100
,  // measure 122
1001
0000
1000
0000
0001
0010
0001
1000
0100
1000
0010
0100
0001
0000
1000
0000
,  // measure 123
1001
0001
0010
0001
1000
0010
1000
0001
,  // measure 124
0010
0100
1000
0001
0100
0010
0010
0010
,  // measure 125
0110
0000
0100
0000
0001
0000
1000
0001
1000
0000
0100
0000
1000
0000
0001
0000
,  // measure 126
0100
0010
0100
0000
0001
0100
0001
0000
1000
0000
1000
0000
1000
0000
1000
0000
,  // measure 127
1001
0000
0011
1000
0010
0100
1000
0100
,  // measure 128
0001
0000
1000
0000
0010
0000
0100
0000
0001
0010
0001
1000
0001
1000
0010
0100
,  // measure 129
0001
0000
1010
0001
0001
0010
1000
0010
,  // measure 130
0001
1000
0100
0010
0001
1000
0110
0100
,  // measure 131
1001
0000
0101
1000
1000
0100
0001
0100
,  // measure 132
0010
0001
1000
0010
1000
0100
0011
1000
,  // measure 133
1001
0000
0000
0000
,  // measure 134
0000
0000
0000
0000
0000
0000
1001
0000
1001
0000
0000
1000
,  // measure 135
0100
0000
0100
0011
0000
0011
0000
0000
1000
0001
0000
0001
,  // measure 136
0100
0010
0100
1000
0100
0001
1000
0000
1000
0010
0000
0010
,  // measure 137
0100
0000
0000
1001
0000
1001
0000
0000
0010
0001
0000
0100
,  // measure 138
0010
1000
0010
0001
0010
1000
0001
0000
0001
0100
0000
0100
,  // measure 139
0010
0000
0000
0101
0000
0101
0000
0000
1000
0100
0000
0100
,  // measure 140
1000
0001
0010
1000
0010
0001
0100
0000
0100
0010
0000
0010
,  // measure 141
0100
0000
0000
1001
0000
1001
0000
0000
0100
1000
0000
1000
,  // measure 142
0100
0010
0100
0001
0100
1000
0002
0000
0000
0000
0000
0000
,  // measure 143
0000
0000
0000
0000
0000
0000
0000
0000
0000
0000
0000
0000
0000
0000
0000
0000
0000
0000
0000
0000
0000
0000
0000
0000
0000
0000
0000
0000
0000
0000
0000
0000
0000
0000
0000
0000
0000
0000
0000
0000
0000
0000
0000
0000
0000
0000
0000
0000
1003
0000
0000
0000
0000
0000
0000
0000
0000
0000
0000
0000
0000
0000
0000
0000
0000
0000
0010
0000
0000
0000
0000
0000
0000
0000
0000
0000
0000
0000
0000
0000
0000
0000
0000
0000
1000
0000
0000
0000
0000
0000
0000
0000
0000
0000
0000
0000
0001
0000
0000
0000
0000
0000
0000
0000
0000
0000
0000
0000
0000
0000
0000
0000
0011
0000
0000
0000
0000
0000
0000
0000
0000
0000
0000
0000
0000
0000
0000
0000
0000
0000
0000
0000
0000
0000
0000
0000
0000
0000
0000
0000
0000
0000
0000
0000
0011
0000
0000
0000
0000
0000
0000
0000
0000
0000
0000
0000
0000
0000
0000
0000
0000
0000
0000
0000
0000
0000
0000
0000
0000
0000
0000
0000
0000
0000
0000
0000
0001
0000
0000
0000
0000
0000
0000
0000
0000
0000
0000
0000
0000
0000
0000
0000
,  // measure 144
1000
1100
0000
1100
1000
0001
0200
0000
0000
0000
0000
0000
,  // measure 145
0301
1000
0020
0000
0000
1030
0001
1001
0000
1001
0000
0001
,  // measure 146
0010
0000
0000
0000
0011
0000
0000
0000
0000
0000
0000
0000
0011
0000
0000
0000
0000
0000
0000
0000
1000
0000
0000
0000
0100
0000
0000
0010
0000
0000
0002
0000
0000
0000
0000
0000
0000
0000
0000
0000
0000
0000
0000
0000
0000
0000
0000
0000
,  // measure 147
1003
0010
0100
0010
1000
0001
0010
0011
0000
0011
0000
1000
,  // measure 148
0010
0110
0000
0110
0000
0100
0020
0000
0000
1030
0001
1000
,  // measure 149
0100
1000
0010
1000
0001
0010
0001
1001
0000
1001
0000
0001
,  // measure 150
0100
0101
0000
0101
0000
0000
0100
0010
1000
1001
0000
1001
,  // measure 151
0000
0000
1000
0100
0000
1000
0001
0010
0100
0001
0100
1000
,  // measure 152
0001
0000
0010
0000
1000
0000
0100
0000
0000
1001
0000
1001
,  // measure 153
0000
0000
0001
0010
0000
0001
1000
0010
0100
1000
0100
0001
,  // measure 154
1000
0000
0100
0000
0001
0000
0010
0000
0000
0011
0000
0011
,  // measure 155
0000
0000
1000
0100
0000
1000
0010
0100
0010
0001
0010
1000
,  // measure 156
0001
0000
0010
0000
1000
0000
0100
0000
0000
0110
0000
0110
,  // measure 157
0000
0000
0010
0001
0000
1000
0100
0010
0100
0001
0100
1000
,  // measure 158
0002
0000
0000
0000
0000
0000
0000
0000
0000
0003
0100
0010
,  // measure 159
1000
0000
1001
0000
0000
0000
1001
0000
0000
0000
1000
0000
0010
0000
0110
0000
0000
0000
0040
0400
0000
0000
0000
0000
,  // measure 160
0000
0000
0000
0000
0000
0000
0000
0000
0000
0000
0000
0000
0000
0000
0000
0000
0300
0030
1000
0000
0100
0000
1000
0000
,  // measure 161
0001
1001
0000
1001
0000
0001
0100
0110
0000
0110
0000
0010
,  // measure 162
1000
0000
0000
0002
0000
0000
0000
0000
0000
0000
0000
0000
0000
0000
0000
0000
0000
0000
2003
0000
0000
3000
0001
0000
,  // measure 163
0010
0011
0000
0011
0000
1000
0010
0110
0000
0110
0000
0100
,  // measure 164
0020
0000
0000
0000
0000
0000
2030
0000
0000
3001
0010
0001
,  // measure 165
1000
1010
0000
1010
0000
0010
0100
0101
0000
0101
0000
0000
,  // measure 166
0011
0000
1010
0000
1100
0000
1010
0000
0011
0000
0101
0000
,  // measure 167
2002
0000
0000
0000
,  // measure 168
3003
0000
0000
0000
;

//---------------dance-single - ----------------
#NOTEDATA:;
#CHARTNAME:;
#STEPSTYPE:dance-single;
#DESCRIPTION:;
#CHARTSTYLE:Pad;
#DIFFICULTY:Medium;
#METER:10;
#RADARVALUES:0.382318,0.437760,0.088901,0.098098,0.131819,873.000000,844.000000,29.000000,32.000000,0.000000,0.000000,0.000000,0.000000,0.000000,0.382318,0.437760,0.088901,0.098098,0.131819,873.000000,844.000000,29.000000,32.000000,0.000000,0.000000,0.000000,0.000000,0.000000;
#CREDIT:Galamoth;
#DISPLAYBPM:127.000000;
#NOTES:
0000
0000
0000
0000
,
0000
0000
0000
0000
,
0000
0000
0000
0000
,
0000
0000
0000
0000
,
0000
0000
0000
0000
,
0000
0000
0000
0000
,
0000
0000
0000
0000
,
0000
0000
0000
0000
,
0000
0000
1000
0001
0000
0001
1000
0000
,
0110
0000
1000
0100
1000
0001
0000
0000
,
0001
0100
0001
1000
0000
0000
0010
1000
,
0100
1000
1100
0001
,
0101
0000
1000
0010
1000
0001
0000
0000
,
0001
0010
0001
1000
0000
0000
0100
1000
,
0010
1000
1100
0001
,
0101
0000
0000
0001
0000
0001
0000
0000
1000
0001
0000
0000
,
0100
0000
0000
0000
0000
0000
0010
0000
0000
0000
1000
0000
0001
0000
0000
0000
0000
0000
1000
0000
0000
0100
0000
0000
,
0010
0000
0000
0001
0000
0000
0100
0000
0000
0000
0001
0000
1000
0000
0000
0000
0000
0000
0010
0000
0000
0000
0000
0000
,
1000
0000
0000
0000
1000
0000
0000
0000
0000
0000
0001
0000
1000
0000
0000
0000
0000
0000
0001
0000
0000
0010
0000
0000
,
0100
0000
0000
1000
0000
0000
0010
0000
0000
0000
1000
0000
0001
0000
0000
0000
0000
0000
0100
0000
0000
0000
0000
0000
,
0001
0000
0000
0000
0001
0000
0000
0000
0000
0000
1000
0000
0001
0000
0000
0000
0000
0000
1000
0000
0000
0100
0000
0000
,
0010
0000
0000
0001
0000
0000
0100
0000
0000
0000
0001
0000
1000
0000
0000
0000
0000
0000
0010
0000
0000
0000
0000
0000
,
1000
0000
0000
0000
1000
0000
0000
0000
0000
0000
0001
0000
1000
0000
0000
0000
0000
0000
0001
0000
0000
1000
0000
0000
,
0010
0000
2000
0000
3000
0000
0001
0200
,
0300
0000
0001
0010
0100
2000
0000
3000
,
0000
0001
0100
0010
0100
0010
0100
0010
,
2000
0000
3000
0000
0010
1000
0001
1000
,
0001
1000
0001
0000
0100
0000
0020
0000
,
1030
0100
1000
0100
0010
0001
0200
0000
,
0300
0000
0000
0001
0000
0001
0000
0000
1000
0001
0000
0000
,
0010
0000
0000
0000
0010
0000
0000
0000
0000
0000
0000
0000
0000
0000
0000
0000
0000
0000
0001
0000
0000
0010
0000
0000
,
0100
0000
0000
1000
0000
0000
0010
0000
0000
0000
1000
0000
0001
0000
0000
0000
0000
0000
0010
0000
0000
0000
0000
0000
,
0001
0000
0000
0000
0001
0000
0000
0000
0000
0000
1000
0000
0001
0000
0000
0000
0000
0000
1000
0000
0000
0100
0000
0000
,
0010
0001
0200
0000
0300
0010
2000
0000
,
3000
0001
2002
0000
0000
0000
0000
0000
,
0000
0000
0000
0000
,
3003
0000
0000
0000
0001
0100
0001
0000
,
1000
0100
1000
0000
0001
0000
0100
0000
,
0010
0000
1000
0000
0001
0010
0001
0000
,
1000
0010
1000
0000
0001
0000
0100
0000
,
0010
0000
1000
0000
0001
1000
0001
0000
,
0100
0010
0100
0000
0001
0000
0100
0000
,
0010
0000
1000
0000
0010
0100
0010
0000
,
1000
0001
1000
0000
0001
0000
0100
0000
,
0010
1000
0001
0100
0010
0000
1000
0100
,
1000
0000
0001
0100
0001
0000
1000
0100
,
0010
0000
0001
0000
1000
0000
0001
0010
,
0001
0000
1000
0010
1000
0000
0001
0010
,
0100
0000
1000
0000
0001
0000
1000
0001
,
1000
0000
0001
1000
0001
0000
1000
0001
,
0100
0000
0001
0000
1000
0000
0010
0100
,
0010
0000
0100
0010
0100
0000
0001
0000
,
1000
0001
1000
0001
1000
0000
0001
0100
,
0010
0000
1000
0010
0100
0000
0001
0100
,
0010
0000
1000
0010
0100
0000
0001
0010
,
0100
0000
1000
0100
0010
0000
0001
1000
,
0010
0100
0010
0100
0010
0000
1000
0001
,
0100
0000
0001
1000
0010
0000
1000
0100
,
0010
0000
0001
0010
0100
0000
0000
0000
,
1100
0000
0101
0000
0001
0010
0100
2000
,
0000
3000
0001
0100
0010
2000
0000
3000
,
0001
0010
0100
0000
1000
0001
1001
0000
,
0001
1000
1001
0000
1000
0100
0010
0002
,
0000
0003
1000
0010
0100
0002
0000
0003
,
1000
0100
0010
0000
0001
1000
1001
0000
,
1000
0001
1001
0000
0001
0100
0001
0000
,
1000
0100
1000
0000
0001
0000
0100
0000
,
0010
0000
1000
0000
0001
0010
0001
0000
,
1000
0010
1000
0000
0001
0000
0100
0000
,
0010
0000
1000
0000
0001
1000
0001
0000
,
0100
0010
0100
0000
0001
0000
0100
0000
,
0010
0000
1000
0000
0010
0100
0010
0000
,
1000
0001
1000
0000
0001
0000
0100
0000
,
0010
1000
0001
0100
0010
0000
1000
0100
,
1000
0000
0001
0100
0001
0000
1000
0100
,
0010
0000
0001
0000
1000
0000
0001
0010
,
0001
0000
1000
0010
1000
0000
0001
0010
,
0100
0000
1000
0000
0001
0000
1000
0001
,
1000
0000
0001
1000
0001
0000
1000
0001
,
0100
0000
0001
0000
1000
0000
0010
0100
,
0010
0000
0100
0010
0100
0000
0001
0000
,
1000
0001
1000
0001
1000
0000
0001
0100
,
0010
0000
1000
0010
0100
0000
0001
0100
,
0010
0000
1000
0010
0100
0000
0001
0010
,
0100
0000
1000
0100
0010
0000
0001
1000
,
0010
0000
0100
0000
1001
0000
1000
0001
,
0100
0000
0001
1000
0010
0000
1000
0100
,
0010
0000
0001
0010
0100
0000
0000
0000
,
0000
0000
0000
1000
,
0010
1000
0100
1000
0010
0100
0000
0001
,
0000
0001
0000
0010
0000
0100
0000
0000
,
0010
0001
0100
0001
0010
0100
0000
1000
,
0000
1000
0000
0002
0000
0003
0100
0000
,
0010
1000
0100
1000
0010
0100
0000
0001
,
0000
0001
0000
0010
0000
0100
0000
0000
,
0010
0001
0100
0001
0010
0100
0000
1000
,
0000
1000
0000
0002
0000
0003
0000
0000
,
0010
0001
0000
0001
0000
0001
0000
0001
,
0000
0000
1000
0000
0000
0000
1000
0000
0000
0000
0010
0000
0000
0010
0000
0000
,
0100
0010
0000
0010
0000
0100
0000
0100
,
0001
1000
0000
1001
0000
0110
0000
1000
,
0010
1000
0100
1000
0010
0100
0000
0001
,
0000
0001
0000
0010
0000
0100
0000
0000
,
0010
0001
0100
0001
0010
0100
0000
1000
,
0000
1000
0000
0002
0000
0003
0100
0000
,
0010
1000
0100
1000
0010
0100
0000
0001
,
0000
0001
0000
0010
0000
0100
0000
0000
,
0010
0001
0100
0001
0010
0100
0000
1000
,
0000
1000
0000
0002
0000
0003
0000
0000
,
0010
0100
0010
0001
,
1000
0001
1000
0010
0100
0001
0100
0000
,
0001
1000
0100
0000
1000
0001
0010
0100
,
0000
1000
0000
1001
0000
0110
0000
1000
,
0001
0010
0100
2000
0000
3000
0001
0100
,
0010
2000
0000
3000
0001
0010
0100
0000
,
1000
0001
1001
0000
0001
1000
1001
0000
,
1000
0100
0010
0002
0000
0003
1000
0010
,
0100
0002
0000
0003
1000
0100
0010
0000
,
0001
1000
1001
0000
1000
0001
1001
0000
,
1000
0001
0100
0010
0000
0000
1000
0000
,
1001
0000
0001
0100
0010
0100
0010
0100
,
0001
1000
0010
0100
0000
0000
0001
0000
,
1001
2000
0010
3010
,
1001
1000
0100
0010
,
0001
0000
1000
0000
0001
1000
0001
1000
,
0001
0010
0100
1000
,
0010
0100
0010
0100
0001
1000
0001
1000
,
0001
0000
1000
0010
0100
0000
0001
0100
,
0010
0000
1000
0010
0100
0000
0001
1000
,
1001
0000
1000
0100
0010
0000
0001
0010
,
0100
0000
1000
0001
0100
0000
0010
0000
,
1001
0000
0001
1000
0010
0000
1000
0001
,
0100
0000
0001
0010
0100
0000
1000
0100
,
0010
0000
0000
0000
,
0000
0000
0000
0000
0000
0000
0001
0000
0001
0000
0000
1000
,
0001
0000
0000
0100
0000
0000
0010
0000
1000
0001
0000
0000
,
1000
0000
0000
0100
0000
0000
0010
0000
0000
0001
0000
0000
0100
0000
0000
0000
0001
0000
1000
0000
0000
0000
0000
0000
,
0010
0000
0000
1000
0000
1000
0000
0000
0001
1000
0000
0000
,
0001
0000
0000
0010
0000
0000
0100
0000
0000
1000
0000
0000
0010
0000
0000
0000
1000
0000
0001
0000
0000
0000
0000
0000
,
0100
0000
0000
0001
0000
0001
0000
0000
1000
0001
0000
0000
,
1000
0000
0000
0100
0000
0000
0010
0000
0000
0001
0000
0000
0100
0000
0000
0000
0001
0000
1000
0000
0000
0000
0000
0000
,
0010
0000
0000
1000
0000
1000
0000
0000
0001
1000
0000
0000
,
0001
1000
0010
0000
2000
0000
3000
0000
,
0000
0000
0000
0000
0000
0000
0001
0000
0000
0010
0000
0000
0001
0000
1000
0000
0000
0000
1000
0000
0000
0000
0001
0000
,
0100
0000
0001
0000
0000
0000
0001
0000
0000
1000
0000
0000
0020
0000
0000
0000
0000
0000
0030
0000
0000
0000
0000
0000
,
1000
0001
1000
0000
0000
0001
0010
0001
0000
0001
0000
1000
,
0010
1000
0000
1000
0000
0000
0001
0000
0000
0000
0000
0000
,
2000
0000
0000
3001
0000
0001
1000
0001
0000
0001
0000
1000
,
0001
1000
0000
1000
0000
0000
0010
0000
0000
0100
0000
0000
,
0001
1000
0001
0100
0000
0001
0010
0001
0000
0001
0000
1000
,
0010
1000
0000
1000
0000
0000
0000
0000
0000
1000
0000
1000
,
0000
0000
0000
0000
0001
0000
1000
0000
0000
0000
0000
0000
0001
0000
0000
0010
0000
0000
0100
0000
0000
1000
0000
0000
,
0010
0000
0100
0000
0010
0000
0100
0000
0000
0001
0000
0001
,
0000
0000
0000
0000
1000
0000
0001
0000
0000
0000
0000
0000
1000
0000
0000
0100
0000
0000
0010
0000
0000
0001
0000
0000
,
0100
0000
0010
0000
0100
0000
0010
0000
0000
1000
0000
1000
,
0000
0000
0000
0000
0001
0000
1000
0000
0000
0000
0000
0000
0001
0000
0000
0010
0000
0000
0100
0000
0000
1000
0000
0000
,
0010
0000
0100
0000
0010
0000
0100
0000
0000
0001
0000
0001
,
0000
0000
0000
0000
1000
0000
0001
0000
0000
0000
0000
0000
1000
0000
0000
0100
0000
0000
0010
0000
0000
0001
0000
0000
,
2000
0000
0000
0000
0000
0000
3000
0000
0000
0000
0100
0010
,
0001
1000
0000
1000
0000
0001
0100
0001
0000
0002
0000
0000
,
0000
0000
0000
0000
0000
0000
0000
0000
0000
1003
0000
0001
,
0010
0001
0000
0001
0000
1000
0010
1000
0000
1000
0000
0000
,
0001
0000
0200
0000
0000
0000
0000
0000
0300
0010
0000
1000
,
0001
1000
0000
1000
0000
0001
1000
0001
0000
0001
0000
0000
,
0020
0000
0000
0000
0000
0000
0031
0000
0000
1000
0000
0010
,
0100
0010
0000
0010
0000
0100
0010
0100
0000
0100
0000
0000
,
1001
0000
1000
0000
0001
0000
1001
0000
1000
0000
0001
0000
,
2002
0000
0000
0000
,
3003
0000
0000
0000
;

//---------------dance-single - ----------------
#NOTEDATA:;
#CHARTNAME:;
#STEPSTYPE:dance-single;
#DESCRIPTION:;
#CHARTSTYLE:Pad;
#DIFFICULTY:Easy;
#METER:5;
#RADARVALUES:0.168605,0.231755,0.067442,0.009197,0.000000,385.000000,363.000000,22.000000,3.000000,0.000000,0.000000,0.000000,0.000000,0.000000,0.168605,0.231755,0.067442,0.009197,0.000000,385.000000,363.000000,22.000000,3.000000,0.000000,0.000000,0.000000,0.000000,0.000000;
#CREDIT:Galamoth;
#DISPLAYBPM:*;
#NOTES:
0000
0000
0000
0000
,
0000
0000
0000
0000
,
0000
0000
0000
0000
,
0000
0000
0000
0000
,
0000
0000
0000
0000
,
0000
0000
0000
0000
,
0000
0000
0000
0000
,
0000
0000
0000
0000
,
0000
0000
1000
0000
0000
0001
0000
0000
,
1000
0001
0001
0000
,
1000
1000
0000
0001
,
1000
0000
1001
0000
,
1001
0001
0001
0000
,
1000
1000
0000
0001
,
1000
0000
1001
0000
,
1001
0010
0000
0000
,
0100
0000
0000
0001
,
0001
0001
0000
0000
,
0100
0000
0000
0010
,
0010
0010
0000
0000
,
1000
0000
0000
0100
,
0100
0100
0000
0000
,
0010
0000
0000
0001
,
0001
0100
0000
0010
,
0000
1000
1000
0000
,
0001
0000
1001
0000
,
1001
1000
0000
0010
,
0000
1000
0000
0001
,
0000
0000
1001
0000
,
1001
0010
0000
0000
,
0100
0000
0000
0001
,
0001
0001
0000
0000
,
0100
0000
0000
0010
,
0010
0010
0000
1000
,
0000
0002
0000
0000
,
0003
0000
0000
0000
,
0000
0000
0000
1000
,
0000
0001
0000
1000
,
0000
0001
0000
0100
,
0000
0010
0000
0100
,
0000
0010
0000
1000
,
0000
0001
0000
1000
,
0000
0001
0000
0100
,
0000
0010
0000
0100
,
0000
0010
0010
1000
,
0000
0001
0000
0100
,
0000
0010
0000
1000
,
0000
0001
0000
0100
,
0000
0010
0000
1000
,
0000
0100
0000
0010
,
0000
0001
0000
1000
,
0000
0100
0000
1000
,
0000
0001
1001
1000
,
0000
0001
0000
1000
,
0001
1000
0010
0000
,
1000
0000
0001
0000
,
1000
0100
1000
0000
,
0001
0000
0100
0000
,
0001
0000
1000
0000
,
0001
0001
0100
0000
,
0000
0010
0000
0000
,
1000
0000
0000
1001
,
0000
1001
1000
0000
,
0000
0001
0000
0000
,
0010
0000
0000
1001
,
0000
1001
0001
0000
,
1000
0000
0001
0000
,
1000
0000
0010
0000
,
0100
0000
0010
0000
,
0100
0000
0001
0000
,
1000
0000
0001
0000
,
1000
0000
0010
0000
,
0100
0000
0010
0000
,
0100
0000
0001
0000
,
1000
0000
0010
0000
,
0100
0000
0001
0000
,
1000
0000
0010
0000
,
0100
0000
0001
0000
,
0010
0000
0100
0000
,
1000
0000
0001
0000
,
0010
0000
0100
0000
,
1000
1000
1001
0001
,
0000
1000
0000
0001
,
1000
0001
0100
0000
,
0001
0000
1000
0000
,
0001
0010
0001
0000
,
1000
0000
0010
0000
,
1000
0000
0001
0000
,
0000
0000
0000
0100
,
0001
0000
1000
0000
1000
0000
0000
0001
,
0000
1000
0000
0001
0000
1000
0000
0000
,
0010
0000
0100
0000
0100
0000
0000
0001
,
0000
1000
0000
0001
0000
0000
0000
0000
,
1000
0000
0100
0000
0100
0000
0000
1000
,
0000
0001
0000
1000
0000
0001
0000
0000
,
1000
0000
0010
0000
0010
0000
0000
1000
,
0000
0001
0000
1000
0000
0000
0000
0000
,
0000
0001
0000
1000
0000
0010
0000
0100
,
0000
0001
0000
1000
0000
0001
0000
0000
,
0000
1000
0000
0001
0000
0100
0000
0010
,
0000
1000
0000
1000
0000
0001
0000
0001
,
0000
0000
1000
0000
1000
0000
0000
0010
,
0000
0100
0000
0010
0000
0100
0000
0000
,
0001
0000
0010
0000
0010
0000
0000
0100
,
0000
0010
0000
0100
0000
0000
0000
0000
,
1000
0000
0001
0000
0001
0000
0000
0100
,
0000
0010
0000
0100
0000
0010
0000
0000
,
1000
0000
0100
0000
0100
0000
0000
0010
,
0000
0100
0000
0010
0000
0000
0000
0000
,
0001
0010
0100
1000
,
0001
1000
0001
1000
,
0010
0000
0100
0000
,
0001
0100
0010
1000
,
0001
0000
0000
0100
,
0000
0000
0001
0001
,
0000
1001
0000
1001
,
1000
0000
0000
0100
,
0000
0000
1000
1000
,
0000
1001
0000
1001
,
0001
0000
0000
1000
,
0010
0000
1000
1000
,
0001
0000
0000
1000
,
0001
0010
0000
0001
,
1000
0000
0010
0000
,
1000
0000
0010
0000
,
0100
0000
0001
0000
,
0100
0000
0001
0000
,
1001
1000
0000
0001
,
0000
1000
0001
1000
,
0010
0000
1000
0000
,
0001
0000
1000
0100
,
1000
0000
0001
0000
,
0100
0000
0001
0000
,
1000
0000
0001
0001
,
0100
0000
0010
0000
,
0000
1000
0000
0000
,
0001
0001
1000
0000
,
0000
0010
0000
0000
,
1000
1000
0001
0000
,
0000
0010
0000
0000
,
0100
0100
1000
0000
,
0000
0001
0000
0000
,
0100
0000
0001
0000
,
0000
1000
0000
0001
,
0000
0001
0100
0000
,
0010
0000
0000
1000
,
0000
1000
0001
0000
,
0010
0000
0000
0001
,
0000
0001
0100
0000
,
0010
0000
0000
1000
,
0000
1000
0000
0001
,
0000
0000
0010
0000
,
0001
0000
1000
0001
,
0000
0000
1000
0000
,
0100
0000
0010
0000
,
0001
0000
0100
0000
,
0010
0000
1000
0001
,
0000
0000
0100
0000
,
0010
0000
0000
1000
,
0000
0001
0000
0001
,
0100
0000
0001
0000
,
0000
1000
0000
1000
,
0010
0000
0100
0000
,
0000
0001
0000
0001
,
0000
0010
0000
0001
,
0000
1000
0000
1000
,
1001
0000
1001
0000
,
2002
0000
0000
0000
,
3003
0000
0000
0000
;
