#TITLE:Butter;
#SUBTITLE:;
#ARTIST:BTS;
#TITLETRANSLIT:;
#SUBTITLETRANSLIT:;
#ARTISTTRANSLIT:;
#GENRE:Pop;
#CREDIT:;
#BANNER:BN.png;
#BACKGROUND:BG.png;
#LYRICSPATH:;
#CDTITLE:cdtitle.png;
#MUSIC:Butter.ogg;
#OFFSET:0.309000;
#SAMPLESTART:36.753910;
#SAMPLELENGTH:17.453636;
#SELECTABLE:YES;
#BPMS:0.000000=110.000000
;
#STOPS:96.000000=0.273000,
96.500000=0.272000,
97.000000=0.273000,
97.500000=0.272000,
174.000000=0.273000,
174.500000=0.272000,
175.000000=0.273000,
175.500000=0.273000,
204.000000=0.273000,
204.500000=0.272000,
205.000000=0.273000,
205.500000=0.273000,
266.000000=0.273000,
266.500000=0.272000,
267.000000=0.273000,
267.500000=0.273000,
296.000000=0.273000,
296.500000=0.272000,
297.000000=0.273000,
297.500000=0.273000
;
#BGCHANGES:0.563=Butter.mp4=1.000=1=0=0=StretchNoLoop==CrossFade==,
298.000=bg.png=1.000=1=0=1===CrossFade==,
99999=-nosongbg-=1.000=0=0=0 // don't automatically add -songbackground-
;
#KEYSOUNDS:;
#ATTACKS:;

//---------------dance-single - ----------------
#NOTES:
     dance-single:
     :
     Medium:
     9:
     0.392986,0.461005,0.188903,0.088548,0.197758,466.000000,434.000000,32.000000,15.000000,0.000000,0.000000,0.392986,0.461005,0.188903,0.088548,0.197758,466.000000,434.000000,32.000000,15.000000,0.000000,0.000000:
// measure 0
0000
0000
0000
0000
,  // measure 1
0000
0000
0000
0000
,  // measure 2
0000
0000
0000
0000
,  // measure 3
1000
0001
1000
0001
,  // measure 4
1000
0000
0001
0000
1000
0001
0000
0000
,  // measure 5
1000
0000
0000
0000
0001
0000
0000
0000
0100
0000
0000
0000
0001
0000
0000
1000
,  // measure 6
0000
0100
0010
0001
1000
0001
0010
0000
,  // measure 7
0001
0000
0000
0000
1000
0000
0000
0000
0010
0000
0000
0000
1000
0000
0000
0001
,  // measure 8
0000
0010
0100
1000
0001
1000
0000
0000
,  // measure 9
1000
0000
0000
0000
0001
0000
0000
0000
0100
0000
0000
0000
0001
0000
0000
1000
,  // measure 10
0000
0100
0010
0100
1000
0001
0100
0000
,  // measure 11
0001
0000
0000
0000
1000
0000
0000
0000
0010
0000
0000
0000
1000
0000
0000
0001
,  // measure 12
0000
0000
0010
0000
0100
0000
0010
0000
0001
0000
1000
0001
1000
0000
0000
0000
,  // measure 13
2001
0000
0010
3000
0001
0000
1000
0000
,  // measure 14
1002
0000
0010
0003
1000
0010
0010
0000
,  // measure 15
2001
0000
0100
3000
0001
0000
0010
0100
,  // measure 16
1000
0100
0010
0001
1000
0000
0010
0000
,  // measure 17
1001
0000
0000
0001
0000
0001
0000
0000
1000
0000
0000
0100
0000
0100
0000
0000
,  // measure 18
0010
0000
0001
0000
1000
0000
0001
1000
0001
0000
0000
0000
0100
0000
0000
0000
,  // measure 19
0001
0000
0000
1000
0000
1000
0000
0000
0001
0000
0000
0100
0000
0100
0000
0000
,  // measure 20
0010
0000
1000
0000
0001
0000
1000
0001
1000
0000
0000
0000
0010
0000
0000
0000
,  // measure 21
1000
0001
1000
0100
0010
0000
0001
0010
,  // measure 22
0001
1000
0001
0100
0010
0000
1000
0000
,  // measure 23
0001
0000
0000
0100
0000
0100
0000
0000
1000
0000
0000
0010
0000
0010
0000
0000
,  // measure 24
1001
0110
1001
0110
1000
0000
0001
0000
,  // measure 25
0100
0000
0000
0000
0001
0000
0000
1000
0000
0000
0100
0000
0010
0000
0001
0000
,  // measure 26
1000
0001
0100
0000
0001
0000
1000
0000
,  // measure 27
0010
0000
0000
0000
1000
0000
0000
0001
0000
0000
0010
0000
0100
0000
1000
0000
,  // measure 28
0001
1000
1000
0001
,  // measure 29
0100
0000
0000
0000
0001
0000
0000
1000
0000
0000
0100
0000
0010
0000
0100
0000
,  // measure 30
1000
0001
1000
0000
0001
0000
1000
0000
,  // measure 31
0010
0000
0000
0000
1000
0000
0000
0001
0000
0000
0010
0000
0100
0000
0010
0000
,  // measure 32
0001
0000
1000
0001
1000
0000
0000
0000
2001
0000
0000
0000
0010
0000
3000
0000
,  // measure 33
0001
0000
1000
0000
1002
0000
0010
0003
,  // measure 34
1000
0010
0010
0000
2001
0000
0100
3000
,  // measure 35
0001
0000
0010
0100
1000
0100
0010
0001
,  // measure 36
1000
0000
0000
0000
0000
0000
0000
0000
1001
0000
0000
0001
0000
0001
0000
0000
,  // measure 37
1000
0000
0000
0100
0000
0100
0000
0000
0010
0000
0001
0000
1000
0000
0001
1000
,  // measure 38
0001
0000
0000
0000
0100
0000
0000
0000
0001
0000
0000
1000
0000
1000
0000
0000
,  // measure 39
0001
0000
0000
0100
0000
0100
0000
0000
0010
0000
1000
0000
0001
0000
1000
0001
,  // measure 40
1000
0000
0010
0000
1000
0001
1000
0100
,  // measure 41
0010
0000
0001
0010
0001
1000
0001
0100
,  // measure 42
0010
0000
0000
0000
1000
0000
0000
0000
0001
0000
0000
0100
0000
0100
0000
0000
,  // measure 43
1000
0000
0000
0010
0000
0010
0000
0000
1001
0000
0110
0000
1001
0000
0110
0000
,  // measure 44
1000
0000
0001
0100
0000
0000
0001
0000
1000
0001
0000
0000
0020
0000
0000
0000
,  // measure 45
0031
0000
1000
0100
0000
0000
1000
0000
0001
1000
0000
0000
0020
0000
0000
0000
,  // measure 46
1030
0000
0001
0010
0000
0000
0001
0000
1000
0001
0000
0000
2000
0000
0000
0000
,  // measure 47
3010
0110
1001
0110
,  // measure 48
1000
0000
0001
1000
0000
0000
0000
0001
1000
0001
0000
0000
0010
0000
0010
0000
,  // measure 49
0001
0000
1000
0100
0000
0000
0000
1000
0001
1000
0000
0000
0010
0000
0010
0000
,  // measure 50
1000
0000
0001
0010
0000
0000
0000
0001
1000
0001
0000
0000
0100
0000
0100
0000
,  // measure 51
0020
1000
1000
1030
0001
0000
1000
0100
,  // measure 52
0010
0001
0100
0010
0000
0000
1000
0001
,  // measure 53
0010
0100
1000
0010
0000
0000
0100
0001
,  // measure 54
1000
0010
0100
0001
0000
0100
0001
0010
,  // measure 55
0000
0100
1000
0010
0000
0000
1000
0001
,  // measure 56
0100
0001
1000
0100
0000
0000
1000
0001
,  // measure 57
0010
0001
1000
0010
0000
0100
0001
1000
,  // measure 58
0100
0010
0001
0100
0020
0000
1000
0000
,  // measure 59
0130
0000
0001
0000
1000
0000
0000
0000
1001
0000
0000
0001
0000
0001
0000
0000
,  // measure 60
1000
0000
0000
0100
0000
0100
0000
0000
0010
0000
0001
0000
1000
0000
0001
1000
,  // measure 61
0001
0000
0100
0000
0010
0000
1000
0000
0001
0000
0000
1000
0000
1000
0000
0000
,  // measure 62
0001
0000
0000
0100
0000
0100
0000
0000
0010
0000
1000
0000
0001
0000
1000
0001
,  // measure 63
1000
0010
0100
0001
1000
0001
1000
0100
,  // measure 64
0010
0000
0001
0010
0001
1000
0001
0100
,  // measure 65
0010
0000
0000
0000
1000
0000
0000
0000
0001
0000
0000
0100
0000
0100
0000
0000
,  // measure 66
1000
0000
0000
0010
0000
0010
0000
0000
1001
0000
0110
0000
1001
0000
0110
0000
,  // measure 67
1000
0100
1100
0000
0001
0100
0101
0000
,  // measure 68
0001
1000
0001
1000
0100
0000
0010
0000
,  // measure 69
0001
0100
0101
0000
1000
0100
1100
0000
,  // measure 70
1000
0001
1000
0001
0100
0000
0010
0000
,  // measure 71
1000
0100
1000
0001
0100
0001
1000
0000
,  // measure 72
0001
0010
0001
1000
0010
1000
0001
0000
,  // measure 73
2000
3000
0200
0300
0002
0003
0020
0030
,  // measure 74
1001
0110
1001
0110
0000
0000
0000
0000
;

//---------------dance-single - ----------------
#NOTES:
     dance-single:
     :
     Easy:
     6:
     0.247092,0.285864,0.000000,0.070839,0.000000,293.000000,293.000000,0.000000,12.000000,0.000000,0.000000,0.247092,0.285864,0.000000,0.070839,0.000000,293.000000,293.000000,0.000000,12.000000,0.000000,0.000000:
// measure 0
0000
0000
0000
0000
,  // measure 1
0000
0000
0000
0000
,  // measure 2
0000
0000
0000
0000
,  // measure 3
1000
0001
1000
0001
,  // measure 4
1000
0000
0001
0000
1000
0001
0000
0000
,  // measure 5
1000
1000
0001
0001
,  // measure 6
0100
0000
0001
1000
0001
0000
0010
0000
,  // measure 7
0001
0001
1000
1000
,  // measure 8
0100
0000
1000
0001
1000
0000
0000
0000
,  // measure 9
0001
0001
1000
1000
,  // measure 10
0100
0000
0010
0100
0010
0000
0001
0000
,  // measure 11
1000
1000
0001
0001
,  // measure 12
0100
0000
0010
0100
0010
0000
0000
0000
,  // measure 13
2000
3000
0001
0100
,  // measure 14
0002
0003
1000
0100
,  // measure 15
2000
3000
0001
0100
,  // measure 16
0001
1000
0001
1000
0001
0000
1000
0000
,  // measure 17
0001
0000
1000
0010
1000
0000
0001
0010
,  // measure 18
0001
1000
0100
0010
,  // measure 19
0001
0000
1000
0100
1000
0000
0001
0100
,  // measure 20
0001
1000
0010
0100
,  // measure 21
0001
0001
1000
1000
,  // measure 22
0010
0010
0100
0100
,  // measure 23
0001
0000
1000
0100
0010
0000
0100
0010
,  // measure 24
0001
0000
1000
1000
,  // measure 25
0001
0000
0001
0000
0100
0000
0001
1000
,  // measure 26
0001
0010
0001
0001
,  // measure 27
1000
1000
0200
0000
,  // measure 28
0300
1000
0001
0001
,  // measure 29
1000
0000
1000
0000
0100
0000
0010
0100
,  // measure 30
0010
0001
1000
1000
,  // measure 31
0000
0000
0001
0000
0100
0000
0010
0100
,  // measure 32
0010
0000
2000
3000
,  // measure 33
0001
0100
0002
0003
,  // measure 34
1000
0100
2000
3000
,  // measure 35
0001
0000
0100
0000
0001
1000
0001
1000
,  // measure 36
0001
0000
1000
0000
0001
0000
1000
0010
,  // measure 37
1000
0000
0001
0010
0001
0000
1000
0000
,  // measure 38
0100
0000
0010
0000
0001
0000
1000
0100
,  // measure 39
1000
0000
0001
0100
0001
0000
1000
0000
,  // measure 40
0010
0100
0001
0001
,  // measure 41
1000
1000
0010
0010
,  // measure 42
0100
0000
0100
0000
0001
0000
1000
0100
,  // measure 43
0010
0000
0100
0010
0001
0000
0000
0000
,  // measure 44
1000
0100
1000
0100
,  // measure 45
0010
0001
0010
0001
,  // measure 46
1000
0010
1000
0010
,  // measure 47
0100
0001
0100
0001
,  // measure 48
1000
0100
1000
0200
,  // measure 49
0300
0010
0001
0020
,  // measure 50
0030
0100
1000
0200
,  // measure 51
0300
0000
0000
0000
1000
0000
0001
1000
,  // measure 52
0001
1000
0000
0010
,  // measure 53
0100
0000
0001
0000
0000
0000
1000
0001
,  // measure 54
1000
0010
0000
1000
,  // measure 55
0001
0000
0100
0000
0010
0000
1000
0010
,  // measure 56
1000
0001
0000
0100
,  // measure 57
0001
0000
1000
0000
0000
0000
0001
0100
,  // measure 58
0001
1000
0020
0000
,  // measure 59
0030
0000
0000
0000
1000
0000
0001
0100
,  // measure 60
0001
0000
1000
0100
1000
0000
0001
0000
,  // measure 61
0010
0000
0100
0000
1000
0000
0001
0010
,  // measure 62
0001
0000
1000
0010
1000
0000
0001
0000
,  // measure 63
0100
0010
1000
1000
,  // measure 64
0001
0001
0100
0100
,  // measure 65
0010
0000
0010
0000
1000
0000
0001
0010
,  // measure 66
0100
0000
0010
0100
1000
0000
0000
0000
,  // measure 67
0001
1000
0001
0000
1000
0001
1000
0000
,  // measure 68
0100
0100
0100
0000
,  // measure 69
1000
0001
1000
0000
0001
1000
0001
0000
,  // measure 70
0010
0010
0010
0000
,  // measure 71
0001
0001
1000
1000
,  // measure 72
0001
0100
0010
1000
,  // measure 73
0001
0100
1000
0010
,  // measure 74
2000
0000
3000
0000
;

//---------------dance-single - ----------------
#NOTES:
     dance-single:
     :
     Beginner:
     3:
     0.142521,0.152893,0.000000,0.035419,0.000000,169.000000,169.000000,0.000000,6.000000,0.000000,0.000000,0.142521,0.152893,0.000000,0.035419,0.000000,169.000000,169.000000,0.000000,6.000000,0.000000,0.000000:
// measure 0
0000
0000
0000
0000
,  // measure 1
0000
0000
0000
0000
,  // measure 2
0000
0000
0000
0000
,  // measure 3
1000
0000
0001
0000
,  // measure 4
1000
0000
0001
0000
,  // measure 5
1000
1000
1000
0000
,  // measure 6
0001
0000
0100
0000
,  // measure 7
0001
0001
0001
0000
,  // measure 8
1000
0000
0010
0000
,  // measure 9
1000
1000
1000
0000
,  // measure 10
0010
0000
0100
0000
,  // measure 11
0001
0001
0001
0000
,  // measure 12
0100
0000
0010
0000
,  // measure 13
2000
3000
0001
0000
,  // measure 14
0002
0003
1000
0000
,  // measure 15
2000
3000
0001
0000
,  // measure 16
1000
0100
0010
0001
,  // measure 17
1000
0000
0010
0000
,  // measure 18
0100
0000
0001
0000
,  // measure 19
1000
0000
0100
0000
,  // measure 20
0010
0000
0001
0000
,  // measure 21
1000
1000
1000
0000
,  // measure 22
0001
0001
0001
0000
,  // measure 23
1000
0000
0001
0000
,  // measure 24
0100
0000
0001
0001
,  // measure 25
0001
0000
1000
0000
,  // measure 26
0010
0000
1000
1000
,  // measure 27
1000
0000
0001
0000
,  // measure 28
0000
1000
0001
0001
,  // measure 29
0001
0000
0100
0000
,  // measure 30
0010
0000
1000
1000
,  // measure 31
0000
0000
0010
0000
,  // measure 32
0100
0000
0002
0003
,  // measure 33
1000
0000
2000
3000
,  // measure 34
0001
0000
0002
0003
,  // measure 35
1000
0000
0001
0010
,  // measure 36
0000
0000
0001
0000
,  // measure 37
0100
0000
0010
0000
,  // measure 38
1000
0000
0001
0000
,  // measure 39
0010
0000
0100
0000
,  // measure 40
1000
0000
0001
0001
,  // measure 41
0001
0000
1000
1000
,  // measure 42
1000
0000
0001
0000
,  // measure 43
1000
0000
0010
0000
,  // measure 44
1000
0000
1000
0000
,  // measure 45
0010
0000
0010
0000
,  // measure 46
0100
0000
0100
0000
,  // measure 47
0001
0000
0001
0000
,  // measure 48
1000
0001
1000
0000
,  // measure 49
0010
0100
0010
0000
,  // measure 50
1000
0001
1000
0000
,  // measure 51
0010
0000
1000
0000
,  // measure 52
1000
0000
0001
0000
,  // measure 53
0001
0000
0100
0000
,  // measure 54
0100
0000
0010
0000
,  // measure 55
0010
0000
1000
1000
,  // measure 56
1000
0000
0001
0001
,  // measure 57
0001
0000
0100
0100
,  // measure 58
0100
0000
0010
0000
,  // measure 59
0000
0000
1000
0000
,  // measure 60
0010
0000
0100
0000
,  // measure 61
0001
0000
1000
0000
,  // measure 62
0100
0000
0010
0000
,  // measure 63
0001
0000
1000
1000
,  // measure 64
1000
0000
0001
0001
,  // measure 65
0001
0000
1000
0000
,  // measure 66
0001
0000
0100
0000
,  // measure 67
0001
0001
1000
1000
,  // measure 68
0100
0000
0100
0000
,  // measure 69
1000
1000
0001
0001
,  // measure 70
0100
0000
0100
0000
,  // measure 71
0001
0000
1000
0000
,  // measure 72
0001
0000
1000
0000
,  // measure 73
0001
0001
1000
1000
,  // measure 74
0100
0000
0000
0000
;

//---------------dance-single - ----------------
#NOTES:
     dance-single:
     :
     Hard:
     13:
     0.546470,0.615706,0.171193,0.082645,0.622790,648.000000,619.000000,29.000000,14.000000,3.000000,0.000000,0.546470,0.615706,0.171193,0.082645,0.622790,648.000000,619.000000,29.000000,14.000000,3.000000,0.000000:
// measure 0
0000
0000
0000
0000
,  // measure 1
0000
0000
0000
0000
,  // measure 2
0000
0000
0000
0000
,  // measure 3
1000
0001
1000
0001
,  // measure 4
1000
0000
0001
0000
1000
0001
0000
0000
,  // measure 5
1000
0000
0000
0000
0000
0000
0000
0000
0000
0000
0000
0000
0001
0000
0000
0000
0000
0000
0000
0000
0000
0000
0000
0000
0100
0000
0000
0000
0010
0000
0000
0000
0000
0000
0000
0000
1000
0000
0000
0000
0000
0000
0001
0000
0000
0100
0000
0000
,  // measure 6
0000
0100
0010
0000
1000
0000
0001
0000
0010
0001
1000
0000
0001
0000
0000
1000
,  // measure 7
0001
0000
0000
0000
0000
0000
0000
0000
0000
0000
0000
0000
1000
0000
0000
0000
0000
0000
0000
0000
0000
0000
0000
0000
0010
0000
0000
0000
0100
0000
0000
0000
0000
0000
0000
0000
0001
0000
0000
0000
0000
0000
1000
0000
0000
0010
0000
0000
,  // measure 8
0000
0010
0100
0000
0001
0000
1000
0000
0100
0000
0M00
0000
0000
0000
0000
0000
,  // measure 9
1000
0000
0000
0000
0000
0000
0000
0000
0000
0000
0000
0000
0001
0000
0000
0000
0000
0000
0000
0000
0000
0000
0000
0000
0100
0000
0000
0000
0010
0000
0000
0000
0000
0000
0000
0000
1000
0000
0000
0000
0000
0000
0001
0000
0000
0010
0000
0000
,  // measure 10
0000
0010
0100
0000
1000
0000
0001
0000
0100
0001
1000
0000
0001
0000
0000
1000
,  // measure 11
0001
0000
0000
0000
0000
0000
0000
0000
0000
0000
0000
0000
1000
0000
0000
0000
0000
0000
0000
0000
0000
0000
0000
0000
0010
0000
0000
0000
0100
0000
0000
0000
0000
0000
0000
0000
0001
0000
0000
0000
0000
0000
1000
0000
0000
0100
0000
0000
,  // measure 12
0000
0100
0010
0000
0001
0000
1000
0000
0010
0000
0000
0000
1000
0000
0000
0000
,  // measure 13
1010
0000
1000
0000
0100
0000
0010
0001
0000
0001
0100
0000
0010
0000
1000
0000
,  // measure 14
0001
0000
1000
0000
0010
0000
0100
0001
0000
0001
1000
0000
1000
0000
0001
0100
,  // measure 15
0010
0000
1000
0000
0001
0000
0010
0100
0000
0100
1000
0000
0010
0000
0100
0000
,  // measure 16
0001
0000
0010
0000
0100
0000
1000
0000
0010
0000
0000
0000
1000
0001
0100
0001
,  // measure 17
1001
0000
0000
0001
0000
0001
0000
0000
0100
0000
0000
1000
0000
1000
0100
0010
,  // measure 18
0001
0000
1000
0000
0010
0000
0100
0001
0020
0000
0000
0130
0000
0100
0010
0000
,  // measure 19
0001
0000
0000
1000
0000
1000
0000
0000
0100
0000
0000
0001
0000
0001
0010
0100
,  // measure 20
1000
0000
0001
0000
1000
0000
0100
1000
0020
0000
0000
0130
0000
0100
0001
1000
,  // measure 21
0000
1000
0010
0000
0100
0000
0001
0000
0010
0000
0000
0000
0001
1000
0000
0001
,  // measure 22
0000
0100
0001
0000
0010
0000
0100
1000
0010
0000
0000
0100
0001
1000
0100
0010
,  // measure 23
0001
0000
0000
0100
0000
0100
0000
0000
1000
0000
0000
0010
0000
0010
0000
0000
,  // measure 24
1010
1100
0101
0011
1000
0000
0001
0000
,  // measure 25
0100
0000
0000
0000
0010
0000
0000
0000
0000
0000
0000
0000
1000
0000
0000
0000
0000
0000
0001
0000
0000
0100
0000
0000
0000
0000
0000
0100
0000
0000
0010
0000
0000
0000
0000
0000
1000
0000
0000
0000
0000
0000
0001
0000
0000
0000
0000
0000
,  // measure 26
0010
0001
1000
0000
0001
0000
0000
1000
0001
0000
0000
0000
1000
0000
0000
0000
,  // measure 27
0010
0000
0000
0100
0000
0000
0000
0000
0001
0000
0000
0000
1000
0000
0010
0000
0000
0000
0010
0000
0100
0000
0000
0000
0001
0000
0000
0000
1000
0000
0000
0000
,  // measure 28
0200
0000
0000
0000
0000
0000
0300
0000
0M00
0000
0000
0000
0010
0001
1000
0001
1000
0000
0000
0000
0000
0000
0000
0000
0001
0000
0000
0000
0000
0000
0000
0000
,  // measure 29
0100
0000
0000
0000
0010
0000
0000
0000
0000
0000
0000
0000
1000
0000
0000
0000
0000
0000
0001
0000
0000
0010
0000
0000
0000
0000
0000
0010
0000
0000
0100
0000
0000
0000
0000
0000
1000
0000
0000
0000
0000
0000
0001
0000
0000
0000
0000
0000
,  // measure 30
0100
0001
1000
0000
0001
0000
0100
0000
0001
0000
0000
0000
1000
0000
0000
0000
,  // measure 31
0010
0000
0000
0000
00M0
0000
0000
0000
0000
0000
0000
0000
0001
0000
0000
0000
0000
0000
1000
0000
0000
0100
0000
0000
0000
0000
0000
0100
0000
0000
0010
0000
0000
0000
0000
0000
0001
0000
0000
1000
0000
0000
0001
0000
0000
0000
0000
0000
,  // measure 32
0010
0000
0001
1000
0100
0000
0000
0000
1100
0000
1000
0000
0100
0000
0010
0001
,  // measure 33
0000
0001
0100
0000
0010
0000
1000
0000
0001
0000
1000
0000
0010
0000
0100
0001
,  // measure 34
0000
0001
1000
0000
1000
0000
0001
0100
0010
0000
1000
0000
0001
0000
0010
0100
,  // measure 35
0000
0100
1000
0000
0010
0000
0100
0000
0001
0000
0010
0000
0100
0000
1000
0000
,  // measure 36
0010
0000
0000
0000
0000
0000
0000
0000
1001
0000
0000
0001
0000
0001
0000
0000
,  // measure 37
0100
0000
0000
1000
0000
1000
0100
0010
0001
0000
1000
0000
0010
0000
0100
0001
,  // measure 38
0020
0000
0000
0130
0000
0100
0010
0000
0001
0000
0000
1000
0000
1000
0000
0000
,  // measure 39
0100
0000
0000
0001
0000
0001
0010
0100
1000
0000
0001
0000
1000
0000
0100
1000
,  // measure 40
0020
0000
0000
0130
0000
0100
0001
1000
0000
1000
0010
0000
0100
0000
0001
0000
,  // measure 41
0010
0000
0000
0000
0001
1000
0000
0010
0000
0100
0001
0000
0010
0000
0100
1000
,  // measure 42
0010
0000
0000
0100
0001
1000
0100
0010
0001
0000
0000
0100
0000
0100
0000
0000
,  // measure 43
1000
0000
0000
0010
0000
0010
0000
0000
1010
0000
0011
0000
0101
0000
1100
0000
,  // measure 44
1000
0000
0001
0100
0001
0000
0000
1000
0010
1000
0000
0000
0010
0100
0001
1000
,  // measure 45
0100
0000
1000
0100
1000
0000
0000
0001
0010
0001
0000
0000
0010
0001
0100
0010
,  // measure 46
1000
0000
0001
0100
0001
0000
0000
0100
0010
0100
0000
0000
0001
0100
0010
1000
,  // measure 47
0001
0000
1000
0100
1000
0000
0000
0010
0100
0010
1000
0100
0010
0001
0100
0010
,  // measure 48
1000
0000
0001
0010
0100
0000
1000
0001
0100
0001
0000
0000
0100
0010
1000
0100
,  // measure 49
0010
0000
0001
0100
0010
0000
1000
0001
1000
0100
0000
0000
0010
0001
0100
0001
,  // measure 50
1000
0000
0010
1000
0100
0000
0010
0001
1000
0001
0000
0000
0100
0001
1000
0100
,  // measure 51
1100
0000
0011
0000
0101
0000
1010
0000
0001
0000
0001
0000
1000
0000
0100
1000
,  // measure 52
0010
0000
1000
0001
1000
0000
0010
0000
0100
0000
0100
0000
0001
1000
0100
0000
,  // measure 53
1000
0001
0100
0001
0010
0000
0100
0000
1000
0000
1000
0000
0001
0010
0100
1000
,  // measure 54
0010
0100
0001
1000
0100
0000
0010
0000
0001
0000
0001
1000
0010
0100
0000
0000
,  // measure 55
0100
0010
1000
0001
0010
0010
0001
0100
,  // measure 56
0010
1000
0100
1000
0001
0000
0100
0000
0001
0000
0001
1000
0100
0000
0010
0000
,  // measure 57
0001
0100
0010
1000
0001
0000
0010
0000
0100
0000
0100
0000
1000
0100
0010
0100
,  // measure 58
1000
0010
0100
0001
0010
0000
0001
0000
0200
0000
0000
0000
0000
0000
0000
0000
,  // measure 59
0000
0000
0001
0000
0301
1000
0010
1000
1001
0000
0000
0001
0000
0001
0000
0000
,  // measure 60
0100
0000
0000
1000
0000
1000
0100
0010
0001
0000
1000
0000
0010
0000
0100
0001
,  // measure 61
0020
0000
0000
0130
0000
0100
0010
0000
0001
0000
0000
1000
0000
1000
0000
0000
,  // measure 62
0100
0000
0000
0001
0000
0001
0010
0100
1000
0000
0001
0000
1000
0000
0100
1000
,  // measure 63
0020
0000
0000
0130
0000
0100
0001
1000
0000
1000
0010
0000
0100
0000
0001
0000
,  // measure 64
0010
0000
0000
0000
0001
1000
0000
0010
0000
0100
0001
0000
0010
0000
0100
1000
,  // measure 65
0010
0000
0000
0100
0001
1000
0100
0010
0001
0000
0000
0100
0000
0100
0000
0000
,  // measure 66
1000
0000
0000
0010
0000
0010
0000
0000
1010
0000
0011
0000
0101
0000
1100
0000
,  // measure 67
1000
0100
1100
0000
0001
0100
0101
0000
,  // measure 68
0001
0000
1000
0000
0001
0000
0010
0001
0200
0000
0000
0310
0000
0010
1000
0000
,  // measure 69
0001
0100
0101
0000
1000
0100
1100
0000
,  // measure 70
1000
0000
0001
0000
1000
0000
0010
1000
0200
0000
0000
0310
0000
0010
0001
0000
,  // measure 71
1000
0100
1000
0100
0010
0000
0001
0100
0010
0000
2000
0000
0000
3001
0000
0000
,  // measure 72
0010
0001
0010
0001
1000
0000
0010
1000
0001
0000
0200
0000
0000
0310
0000
0000
,  // measure 73
1000
1000
0100
0100
0001
0001
0010
0010
,  // measure 74
1001
0110
1001
0220
0330
0000
0000
0000
;
